#TITLE:DO OR DIE;
#SUBTITLE:crawling chaos remix;
#ARTIST:P5;
#TITLETRANSLIT:;
#SUBTITLETRANSLIT:;
#ARTISTTRANSLIT:;
#GENRE:Persona5;
#CREDIT:AznPunk07/Frozen_Heat/GuardianFrozen;
#MENUCOLOR:#58369e;
#METERTYPE:DDR;
#BANNER:[Crossovers] - DO OR DIE crawling chaos remix.png;
#BACKGROUND:[Crossovers] - DO OR DIE crawling chaos remix-bg.png;
#LYRICSPATH:;
#CDTITLE:!cdtitle.png;
#MUSIC:[Crossovers] - DO OR DIE crawling chaos remix.mp3;
#OFFSET:-0.070;
#SAMPLESTART:12.425;
#SAMPLELENGTH:24.760;
#SELECTABLE:YES;
#LISTSORT:;
#BPMS:0.000=155.000;
#STOPS:95.500=1.558
;
#BGCHANGES:;
#ATTACKS:;

//---------------dance-single - LIFTS----------------
#NOTES:
     dance-single:
     LIFTS:
     Edit:
     9:
     0.710,0.819,1.000,0.044,0.000:
0000
0000
0000
0000
,
0000
0000
0000
0000
,
0000
0000
0000
0000
,
0000
0000
0000
0000
,
0000
1000
0000
0000
0001
0000
0000
0100
,
0000
0010
0000
1000
0001
0100
0010
1000
,
0000
0001
0000
0000
0010
0000
0000
0001
,
0000
1000
0000
0010
1000
0010
0100
0L00
,
0100
0000
0001
001L
00L1
0000
1000
0000
,
0010
0000
1000
L100
1L00
0000
0010
0000
,
1000
0000
0001
010L
0L01
0000
0010
0000
,
0100
1L00
L100
1L00
L001
010L
0L10
01L0
,
0L01
0000
0010
00L1
010L
0000
0010
0000
,
1000
0000
0100
1L00
L010
0000
0100
0000
,
0001
0000
1000
L001
010L
0000
0010
0000
,
1010
L00L
0011
0LL0
,
0001
0010
000L
0000
0001
0100
000L
0000
,
0010
1000
00L0
0100
1000
0000
L010
0000
,
0110
0000
1000
0100
0010
0100
1000
0000
,
1000
L000
0L00
00L0
1L00
0001
0100
0010
,
1000
0100
L000
0000
1000
0010
L000
0000
,
0100
0001
0L00
0010
0001
0000
100L
0000
,
1001
0000
0001
0010
1000
0010
0001
0000
,
0001
000L
00L0
L000
00L1
0100
0001
1000
,
0001
0010
0100
0010
0001
000L
00L0
0L00
,
00L1
1000
0001
1000
0010
0100
0100
0001
,
1000
0010
0100
0010
1000
L000
00L0
0L00
,
10L0
0001
1000
0001
0010
0100
0100
0010
,
0001
0100
100L
0001
1000
0100
L001
1000
,
0001
0010
100L
0001
1000
0010
L001
1000
,
0001
0000
1000
L000
0L00
00L0
1L00
0000
,
0001
000L
0L00
00L0
0L01
0010
0100
1000
,
0001
010L
0L00
01L0
0L01
0000
1000
0000
,
0100
1L00
L000
01L0
0L01
0000
1000
L100
,
0L10
0000
0100
1L00
L100
0000
0010
0000
,
0001
001L
00L0
1L00
L000
010L
0001
0001
,
1000
L000
01L0
0L00
10L0
0000
0001
0000
,
0010
00L0
010L
0L00
10L0
0000
0001
001L
,
01L0
0000
0010
00L1
001L
0000
0100
0000
,
1000
L000
0L10
00L0
000L
L010
1000
1000
,
0001
0000
0200
0010
0010
0000
03L0
0000
,
0001
0100
1000
0100
0001
0000
1000
0100
,
0010
0100
2000
0001
0001
0000
300L
0000
,
0010
0010
0100
0001
1000
0100
0010
0001
,
1000
0001
0020
0100
0100
0000
0L30
0000
,
0001
1000
0001
0100
0010
1000
0100
0010
,
0001
0000
0000
100L
0000
0000
L001
0000
,
1000
0000
1100
0000
0101
0000
1000
0100
,
0010
01L0
0L00
L001
000L
0L10
00L0
001L
,
00L0
L001
000L
10L0
L010
0000
0001
0000
,
0100
0000
0010
10L0
L000
00L1
000L
01L0
,
0101
0000
1010
0000
1001
0000
0001
0100
,
0001
001L
00L0
1L00
L000
00L1
000L
01L0
,
0L00
100L
L000
0L01
000L
0L10
00L0
1L00
,
L001
0000
0100
0L10
00L0
001L
00L0
L001
,
0011
0000
1100
0000
1001
0000
0001
0010
,
0100
0L00
00L1
000L
L010
00L0
1L00
L000
,
0L01
000L
L100
0L00
010L
0000
1000
0000
,
0010
0000
0100
0L00
010L
0L00
L100
0L10
,
1010
0000
0101
0000
1001
0000
1000
0010
,
1000
L000
0L10
00L0
010L
0L00
L100
0L00
,
10L0
L000
001L
00L0
L010
00L0
0L10
00L0
,
100L
0000
0010
00L0
1L00
L000
0L01
100L
,
1100
0000
0011
0000
1001
0000
0220
0330
,
0001
0000
1000
0100
L001
0000
1000
0000
,
0001
0000
1000
0100
L001
0000
1000
0000
,
0001
0000
1000
0100
L001
0100
100L
0000
,
0001
0100
100L
0100
L001
0000
1000
0000
,
0001
0000
100L
0000
0001
0100
100L
0000
,
0001
0000
100L
0000
0001
0100
100L
0000
,
0001
0000
100L
0100
L001
0100
100L
0000
,
0001
0100
100L
0100
L001
0000
1001
0000
;

//---------------dance-single - ----------------
#NOTES:
     dance-single:
     :
     Hard:
     8:
     0.558,0.599,0.220,0.272,0.000: // measure 1
0000
0000
0000
0000
,  // measure 2
0000
0000
0000
0000
,  // measure 3
0000
0000
0000
0000
,  // measure 4
0000
0000
0000
0000
,  // measure 5
0000
0000
0000
0000
,  // measure 6
0000
0000
0000
0000
,  // measure 7
0000
0000
0000
0000
,  // measure 8
0000
0000
0000
0000
0000
0000
0001
1000
,  // measure 9
0001
0000
0010
0010
0001
0000
0101
0000
,  // measure 10
0010
1000
0100
0100
1000
0000
1010
0000
,  // measure 11
0100
0000
0001
0001
1000
0000
0110
0000
,  // measure 12
1000
0010
0001
0010
1000
0100
0001
0100
,  // measure 13
1000
0000
0010
0010
1000
0000
1100
0000
,  // measure 14
1000
0001
0100
0100
0001
0000
0011
0000
,  // measure 15
0001
0000
1000
1000
0010
0000
0110
0000
,  // measure 16
0001
0010
1000
0010
0001
0010
0100
1000
,  // measure 17
0001
0000
1000
0100
1000
0000
1001
0000
,  // measure 18
0100
0001
0010
0001
0100
0000
0101
0000
,  // measure 19
0010
0000
0010
1000
0100
1000
0010
0000
,  // measure 20
0010
0100
0001
0100
0010
1000
0100
0010
,  // measure 21
0001
0000
1000
0100
1000
0000
1001
0000
,  // measure 22
0100
0001
1000
0001
0100
0000
0110
0000
,  // measure 23
0001
0000
0001
0010
1000
0010
0001
0000
,  // measure 24
0001
0100
1000
0100
0001
0010
0100
1000
,  // measure 25
0001
0100
0001
0001
1000
0100
1000
1000
,  // measure 26
0010
0010
0100
0100
0001
0010
0100
1000
,  // measure 27
0001
0100
0001
0001
1000
0100
1000
1000
,  // measure 28
0010
0010
0100
0100
0001
0010
0100
1000
,  // measure 29
0001
0000
1000
0000
0001
0001
0100
0000
,  // measure 30
0001
0000
1000
0000
0001
0001
0010
0000
,  // measure 31
0001
0000
1000
0010
0100
0100
0010
0000
,  // measure 32
1000
1000
0001
0100
0001
0001
1000
0000
,  // measure 33
0001
0100
1000
0100
0001
0000
0101
0000
,  // measure 34
0001
0010
0100
0010
0001
0000
1000
0001
,  // measure 35
1000
0000
0010
1000
0100
0000
1100
0000
,  // measure 36
0001
0010
0100
0010
0001
0000
1000
0010
,  // measure 37
1000
0100
0001
0100
1000
0000
1100
0000
,  // measure 38
1000
0010
0100
0010
1000
0000
0001
1000
,  // measure 39
0001
0000
1000
0001
0100
0000
0101
0000
,  // measure 40
1000
0100
0001
0100
1000
0001
0100
0001
,  // measure 41
1000
0100
0010
0001
0001
0000
0010
0000
,  // measure 42
0001
0100
0010
1000
1000
0000
0100
1000
,  // measure 43
0001
1000
0010
0100
0100
0000
0001
0000
,  // measure 44
0100
0001
1000
0100
0100
0000
1000
0100
,  // measure 45
0010
0001
1000
0010
0010
0000
1000
0000
,  // measure 46
0001
0100
0010
0100
0001
1000
0001
0010
,  // measure 47
0200
0000
1300
0010
2000
0000
3001
0100
,  // measure 48
0002
0000
1003
0000
1001
0010
0100
1000
,  // measure 49
0002
0000
0100
0203
0000
0010
0320
0000
,  // measure 50
1030
0001
0010
0000
0110
0000
0011
0000
,  // measure 51
2000
0000
0010
3020
0000
0000
1030
0100
,  // measure 52
0200
0000
0310
0000
0011
0000
0001
1000
,  // measure 53
0020
0000
1000
2030
0000
0100
3200
0000
,  // measure 54
0310
0001
0100
0000
0110
0000
1010
0000
,  // measure 55
0002
0000
1000
2003
0000
0000
3100
0010
,  // measure 56
0020
0000
0031
0000
1000
0001
0100
0001
,  // measure 57
2000
0000
3001
0200
1000
0000
0320
1000
,  // measure 58
0030
0100
0002
0000
0013
0000
1100
0000
,  // measure 59
0002
0000
1003
0020
0001
0030
0100
0001
,  // measure 60
2000
0000
3010
0000
0101
0000
1000
0010
,  // measure 61
2000
0000
3001
0020
0100
0000
0032
1000
,  // measure 62
0000
0103
0020
0000
1030
0001
1000
0100
,  // measure 63
0020
0000
0130
2000
0100
3100
0010
0002
,  // measure 64
1000
0000
0103
0000
1001
0000
0220
0330
,  // measure 65
1000
0000
0010
0010
0100
0000
0001
0000
,  // measure 66
0010
0000
0100
0100
1000
0000
0001
0000
,  // measure 67
1000
0000
1000
0100
0010
0100
1000
0000
,  // measure 68
1000
0010
0001
0010
1000
0000
0001
0000
,  // measure 69
1000
0000
0010
0010
0100
0100
0001
0000
,  // measure 70
0010
0000
0100
0100
1000
1000
0001
0000
,  // measure 71
0100
0000
0010
0010
1000
1000
0001
0000
,  // measure 72
1000
1000
0100
0001
0100
0000
0110
0000
;

//---------------dance-single - ----------------
#NOTES:
     dance-single:
     :
     Medium:
     7:
     0.466,0.441,0.281,0.114,0.000:
0000
0000
0000
0000
,
0000
0000
0000
0000
,
0000
0000
0000
0000
,
0000
0000
0000
0000
,
0000
0000
0000
0000
,
0000
0000
0000
0000
,
0000
0000
0000
0000
,
0000
0000
0000
0000
,
0001
0100
0000
0100
0010
0000
0010
1000
,
0000
1000
0100
0010
0001
0000
0001
0000
,
0100
0010
0000
0010
1000
0000
1000
0001
,
0000
0001
1000
0010
0100
0000
0100
0000
,
0001
1000
0000
1000
0100
0000
0100
0010
,
0000
0010
0100
1000
0001
0000
0001
0000
,
1000
0100
0000
0100
0010
0000
0010
0000
,
1001
0110
1010
0011
,
1000
1100
0001
0101
,
1000
0001
0010
0100
1000
0000
1001
0000
,
0001
0000
0001
0100
0010
0100
0001
0000
,
1000
0100
0010
0100
1000
0000
0000
0000
,
0001
0011
1000
1010
,
0001
0010
0100
1000
0001
0000
1001
0000
,
1000
0000
1000
0010
0100
0010
1000
0000
,
0001
0010
0100
0010
0001
0000
0000
0000
,
0001
0010
0100
0000
0001
0010
0100
0000
,
1000
0000
1000
0000
0001
0000
0100
0010
,
1000
0100
0010
0000
1000
0100
0010
0000
,
0001
0000
0001
0000
0100
0000
0010
1000
,
0001
0011
0100
0101
,
0010
1010
0100
1100
,
0010
0000
1000
0100
1000
0100
0010
0000
,
0001
0100
0001
0100
0010
0000
0000
0000
,
0000
1000
0010
0100
0010
0000
1000
0000
,
0001
0010
0000
0100
0000
0010
0001
1000
,
0010
0000
0100
0000
0010
1000
0010
0100
,
0001
0001
0001
1000
0001
0000
1001
0000
,
0000
0001
1000
0100
1000
0000
0010
0000
,
0100
0001
0000
1000
0000
0100
0010
0100
,
1000
0000
0001
0000
1000
0010
0100
0010
,
1000
1000
1000
0001
1000
0000
1001
0000
,
0010
0000
0001
0100
0001
0000
0011
0000
,
0100
1000
0100
0010
0001
0000
1000
0010
,
1000
0000
0001
0100
0010
0000
1000
0000
,
0001
1000
0100
1000
0001
0000
0100
0010
,
0100
0000
0010
1000
0010
0000
0101
0000
,
1000
0100
0010
0100
1000
0000
0001
1000
,
0001
0000
0001
0010
0000
0010
0100
0000
,
1100
1001
0101
0010
,
2000
0000
0000
3002
0000
0000
0203
0000
,
0310
0000
1000
0000
0001
0010
0001
1000
,
0002
0000
0000
0203
0000
0000
0320
0000
,
1030
1100
1001
0000
,
0020
0000
0000
0230
0000
0000
0302
0000
,
1003
0000
0010
0000
1000
0100
0010
0100
,
2000
0000
0000
3002
0000
0000
0203
0000
,
0310
1010
0110
0001
,
1000
0000
0001
0010
0000
0010
0001
0000
,
1000
0010
0100
0010
1000
0000
1000
0000
,
0100
0000
0010
0100
0000
0100
1000
0001
,
1000
0000
1000
0000
0001
0000
0100
0001
,
0010
0000
0010
0100
0000
0100
1000
0000
,
0001
1000
0010
0000
0100
0001
0100
0010
,
1000
0000
1000
0100
0000
0100
0010
0001
,
0010
0100
0010
0110
,
1001
0100
0000
0010
,
0000
1000
0000
0001
,
0000
0000
1000
0100
0001
0100
1000
0000
,
1000
0100
0001
0100
1000
0000
0000
0000
,
0110
0001
0110
1000
,
0110
0001
0110
1000
,
0110
0000
0001
0010
0100
1000
0001
0000
,
1000
0100
0010
0001
2000
0000
3001
0000
;

//---------------dance-single - ----------------
#NOTES:
     dance-single:
     :
     Beginner:
     1:
     0.113,0.189,0.105,0.000,0.000:
0000
0000
0000
0000
,
0000
0000
0000
0000
,
0000
0000
0000
0000
,
0000
0000
0000
0000
,
0000
0000
0000
0000
,
0000
0000
0000
0000
,
0000
0000
0000
0000
,
0000
0000
0000
0000
,
1000
0000
0000
0000
,
0001
0000
0000
0000
,
0100
0000
0000
0000
,
0010
0000
0000
0000
,
1000
0000
0000
0000
,
0100
0000
0000
0000
,
0010
0000
0000
0000
,
0001
0000
0000
0000
,
0001
0000
0000
0000
,
1000
0000
0000
0000
,
0010
0000
0000
0000
,
0100
0000
0000
0000
,
0001
0000
0000
0000
,
1000
0000
0000
0000
,
0100
0000
0000
0000
,
0010
0000
0000
0000
,
0000
0000
0000
0000
,
1000
1000
1000
0000
,
0000
0000
0000
0000
,
0001
0001
0001
0000
,
0000
0000
0000
0000
,
0100
0100
0100
0000
,
0000
0000
0000
0000
,
0010
0010
0010
0000
,
0010
0000
0000
0000
,
1000
0000
0000
0000
,
0100
0000
0000
0000
,
0010
0010
0000
0000
,
0001
0000
0000
0000
,
0100
0000
0000
0000
,
0001
0000
0000
0000
,
1000
1000
0000
0000
,
0001
0000
0000
0000
,
0010
0000
0000
0100
,
0100
0000
0000
0000
,
0010
0000
0000
0001
,
0001
0000
0000
0000
,
0010
0000
0000
1000
,
1000
0000
0000
0000
,
0000
0000
0000
0000
,
1001
0000
0000
0000
,
0000
0000
0000
0000
,
0110
0000
0000
0000
,
0000
0000
0000
0000
,
1001
0000
0000
0000
,
0000
0000
0000
0000
,
0110
0000
0000
0000
,
0000
0000
0000
0000
,
0001
0001
0000
0000
,
1001
0000
0000
0000
,
1000
1000
0000
0000
,
1001
0000
0000
0000
,
0010
0010
0000
0000
,
0110
0000
0000
0000
,
0100
0100
0000
0000
,
0110
0000
0000
0000
,
0000
0001
0000
0001
,
0000
0001
0000
0001
,
0000
1001
0000
0000
,
1001
0000
0000
0000
,
0000
1000
0000
1000
,
0000
1000
0000
1000
,
0000
1001
0000
0000
,
1001
0000
0010
0010
;

//---------------dance-single - ----------------
#NOTES:
     dance-single:
     :
     Easy:
     4:
     0.302,0.315,0.132,0.070,0.000:
0000
0000
0000
0000
,
0000
0000
0000
0000
,
0000
0000
0000
0000
,
0000
0000
0000
0000
,
0000
0000
0000
0000
,
0000
0000
0000
0000
,
0000
0000
0000
0000
,
0000
0000
0000
0000
,
0001
0010
0000
0001
,
0000
1000
0010
1000
,
0000
0100
0000
0010
,
0100
0100
1000
0001
,
0100
0010
0000
1000
,
0000
0001
0010
0001
,
0000
0100
0000
0010
,
1000
0100
0010
0001
,
1000
1100
0000
0101
,
0000
1001
0000
0110
,
0000
0001
0100
0010
,
1000
0100
0010
0000
,
0001
0011
0000
1001
,
0000
1010
0000
0110
,
0000
1000
0100
0010
,
0001
0100
0010
0010
,
1000
1000
0100
0100
,
0010
0001
1000
0010
,
0100
0100
0001
0001
,
0010
0001
0100
0010
,
1000
1000
0010
0010
,
0100
0001
1000
0100
,
0010
0010
0001
0001
,
1000
0001
0100
0001
,
2000
3100
0020
0130
,
1000
0000
0000
0001
0000
0000
0100
0000
,
0001
0010
0001
1000
,
0002
0100
1000
0003
,
0020
0031
0200
0301
,
1000
0000
0000
0010
0000
0000
0100
0000
,
0001
1000
0100
0010
,
0200
0010
1000
0300
,
1000
0000
0001
0100
0001
0000
0000
0000
,
0000
0000
1000
0100
1000
0000
0001
0000
,
1000
0000
0001
0010
0001
0000
0000
0000
,
0000
0000
1000
0010
1000
0000
0001
0000
,
0001
0000
1000
0100
0010
0000
0000
0000
,
0000
0000
0001
0010
0100
0000
1000
0000
,
0001
0000
0000
0001
0000
0000
0001
0000
,
0000
0001
0000
0000
0001
0000
0000
0000
,
1000
0010
0100
0010
,
1000
0100
0010
0001
,
0100
0001
1000
0100
,
0010
0110
0110
0000
,
0001
0100
1000
0100
,
0010
1000
0100
0001
,
0100
0010
0001
1000
,
0001
1001
1001
0000
,
0002
0000
0000
0100
0000
0000
1003
0000
,
0001
0010
0100
1000
,
0010
0000
0010
0100
0000
0000
0001
1000
,
0001
1000
1001
0000
,
2000
0000
0000
0010
0000
0000
3001
0000
,
1000
0100
0010
0001
,
0100
0000
0100
0010
0000
0000
1000
0001
,
1000
0001
1001
0010
,
0000
0100
0000
0100
,
0000
0100
0000
0100
,
0000
0100
0010
0001
,
0100
0010
1000
0000
,
0000
0010
0000
0010
,
0000
0010
0000
0010
,
0000
0010
1000
0001
,
0010
0100
1000
1001
;
