#TITLE:Brotherswing;
#SUBTITLE:;
#ARTIST:Caravan Palace;
#TITLETRANSLIT:;
#SUBTITLETRANSLIT:;
#ARTISTTRANSLIT:;
#GENRE:;
#CREDIT:Telperion;
#BANNER:brotherswing-bn.png;
#BACKGROUND:brotherswing-bq.png;
#LYRICSPATH:;
#CDTITLE:;
#MUSIC:brotherswing.ogg;
#OFFSET:-0.390;
#SAMPLESTART:49.481;
#SAMPLELENGTH:14.545;
#SELECTABLE:YES;
#DISPLAYBPM:132.000;
#BPMS:0.000=132.000
;
#STOPS:
;
#BGCHANGES:;
#KEYSOUNDS:;
#ATTACKS:;

//---------------dance-single - ----------------
#NOTES:
     dance-single:
     :
     Hard:
     7:
     0.488,0.484,0.120,0.376,0.120,388.000,16.000,50.000,0.000,0.000,0.000,0.488,0.484,0.120,0.376,0.120,388.000,16.000,50.000,0.000,0.000,0.000:
0000
0000
0000
0000
,
0000
0000
0000
0000
,
1000
0000
0001
0100
0020
0000
0000
0130
,
0001
0001
0000
1000
0002
1000
0103
0001
,
0010
0020
0000
0130
2000
0000
3000
1000
,
0001
0000
0000
0000
0000
0001
0100
0000
0000
0000
0000
0000
0020
0000
0000
0000
0000
1030
0010
0000
0000
0100
0000
0000
,
0001
0000
1000
0100
0020
0001
0000
0130
,
1000
1000
0000
0001
2000
0001
3100
1000
,
0020
0000
0000
0000
0000
0000
0000
0000
0000
0000
0000
0000
0000
0000
0000
0000
0000
0000
0000
0000
0000
0000
0000
0000
0000
0000
0000
0000
0000
0000
0000
0030
0110
0000
0000
0000
0000
0000
0000
0000
0000
0000
0000
0000
0000
0000
0000
0000
0000
0000
0000
0000
0000
0000
0000
0000
0000
0000
0000
0000
0000
0000
0000
0000
,
1000
0000
0000
0000
0000
1000
0001
0000
0000
0000
0000
0000
0100
0000
0000
0010
0000
0000
0100
0000
0000
1000
0000
0000
,
0001
0010
0100
1000
0100
0001
0100
1000
,
0001
0010
1000
0010
0100
0001
0001
0010
,
1000
0010
0100
0001
0100
1000
0100
0010
,
1000
0001
0100
0010
0100
1000
0002
0000
,
0103
0010
0100
1000
0002
0000
0000
0013
,
1000
0001
0010
0100
0002
0000
0000
0103
,
1000
0010
1000
0100
0020
0000
0000
0130
,
0001
0100
1000
0002
1000
0100
1003
0000
,
0010
0000
0000
1010
0000
0000
0000
0000
0000
1000
0000
0000
0100
0000
0000
0110
0000
0000
0000
0000
0010
0001
0000
0000
,
1000
0000
0000
1001
0000
0000
0000
0000
0000
1000
0000
0000
0010
0000
0000
0110
0000
0000
0000
0000
0100
0001
0000
0000
,
0010
0000
0000
0011
0000
0000
0000
0000
0000
0001
0000
0000
1000
0000
0000
1010
0000
0000
0000
0000
1000
0001
0000
0000
,
0010
0000
0110
0000
0000
0000
1000
0000
0001
1000
0000
0000
0000
0000
0000
0000
,
0001
0001
1000
1000
0001
0100
0001
1000
,
0010
1000
0100
0001
1000
0001
0100
1000
,
0001
0001
1000
1000
0010
0100
0001
1000
,
0020
0000
0000
0000
,
0000
0000
0000
0000
0000
0000
0000
0000
0000
0000
0000
0000
0000
0000
0000
0000
0000
0000
0000
0000
0000
0000
0000
0000
0000
0000
0000
0000
0000
0000
0000
0000
0000
0030
1000
0000
0001
0000
0000
0000
0000
0000
0100
0000
0000
0000
0000
0000
,
2000
0000
0000
0000
3000
0000
1000
0100
0002
0000
0000
0000
0003
0000
0010
0000
,
0100
0100
0000
1000
0002
0000
0003
0010
,
2000
0000
0000
0000
3000
0000
1000
0010
0002
0000
0000
0000
0003
0000
1000
0000
,
0110
0000
0000
0000
0000
1000
0001
0000
0000
1000
0000
0000
0200
0000
0000
0000
0000
0000
0000
0000
0000
0300
0000
0000
,
0002
0000
0000
0000
0003
0000
0001
0100
2000
0000
0001
0000
0000
0000
3010
0000
,
0100
0100
0000
0001
2000
0000
3000
0010
,
0002
0000
0000
0000
0003
0000
0001
0010
2000
0000
0000
0000
3000
0000
0001
0000
,
0110
0000
0000
0000
0000
1000
0001
0000
0000
0000
0000
0000
0100
0000
0000
0001
0000
0000
1000
0000
0001
0100
0000
0000
,
1000
0100
1000
0100
1000
0001
1000
0100
,
0010
0010
1000
0010
0000
0000
1000
0100
,
0001
1000
0001
0100
0010
0100
0010
0001
,
1000
0000
0000
0000
0000
1000
0100
0000
0000
0000
0000
0000
0010
0000
0000
0000
0000
0010
0100
0000
0000
0000
0000
0000
,
0001
0100
0001
0100
0001
1000
0001
0100
,
0010
0010
0001
0010
0000
0000
0001
0100
,
2000
0000
0000
0000
0000
0000
0000
0000
0000
0000
0000
0000
0000
0000
0000
0000
0000
0000
0000
0000
0000
0000
0000
0000
0000
0000
0000
0000
0000
0000
0000
3000
0110
0000
0000
0000
0000
0000
0000
0000
0000
0000
0000
0000
0000
0000
0000
0000
1000
0000
0000
0000
0000
0000
0000
0000
0001
0000
0000
0000
0000
0000
0000
0000
,
0010
0000
0000
0000
0000
0010
0100
0000
0000
0000
0000
0000
0000
0000
0000
0000
0000
0000
0000
0000
0000
0000
0000
0000
,
1000
0100
0001
0100
1000
0010
0001
0000
,
1000
0001
0010
1000
0100
0010
0000
0010
,
0001
0100
1000
0100
0001
0010
1000
0000
,
0010
0000
0200
0300
0000
0000
0200
0300
0000
0000
0200
0300
0010
0000
0100
0000
,
1001
0001
0100
1000
0001
0010
0100
0110
,
0000
1000
0001
0010
1000
0001
0100
0010
,
0110
1000
0001
0100
1000
0001
1000
0100
,
0002
0000
0000
2000
0000
0000
0000
0000
,
0000
0000
0000
0000
0000
0000
0000
0000
0000
0000
0000
0000
3003
0000
0000
0000
0000
0000
0001
0000
1000
0100
0000
0000
,
0002
0000
0000
0000
0003
0000
0001
0100
2000
0000
0000
0000
3000
0000
0010
0000
,
0100
0100
0000
0001
2000
0000
3000
0010
,
0002
0000
0000
0000
0003
0000
0001
0010
2000
0000
0000
0000
3000
0000
0001
0000
,
0110
0000
0000
0000
0000
0001
1000
0000
0000
0001
0000
0000
0200
0000
0000
0000
0000
0000
0000
0000
0000
0300
0000
0000
,
2000
0000
0000
0000
3000
0000
1000
0100
0002
0000
0010
0000
0000
0000
1003
0000
,
0100
0100
0000
1000
0002
0000
0003
0010
,
2000
0000
0000
0000
3000
0000
1000
0010
0002
0000
0000
0000
0003
0000
1000
0000
,
0110
0000
0000
0000
0000
0001
1000
0000
0000
0000
0000
0000
0001
0000
0001
1000
0000
0000
0100
0000
0000
0010
0000
0000
,
2000
0000
0000
0000
0000
0000
3000
0000
0000
0010
0000
0000
0001
0000
0000
0100
0000
0001
0000
0000
0000
0100
0000
0000
,
2000
0000
0000
0000
0000
0000
3000
0000
0000
0100
0000
0000
0001
0000
0000
0100
0000
0001
0000
0000
0000
0010
0000
0000
,
2000
0000
0000
0000
0000
0000
3000
0000
0000
0010
0000
0000
0001
0000
0000
0001
0000
1000
0000
0000
0000
0020
0000
0000
,
0000
0000
1000
0000
0001
0000
1030
0100
,
0002
0000
0000
0000
0000
0000
0003
0000
0000
0100
0000
0000
1000
0000
0000
0100
0000
1000
0000
0000
0000
0010
0000
0000
,
0002
0000
0000
0000
0000
0000
0003
0000
0000
0010
0000
0000
1000
0000
0000
0100
0000
1000
0000
0000
0000
0100
0000
0000
,
0002
0000
0000
0000
0000
0000
0003
0000
0000
0100
0000
0000
1000
0000
0000
1000
0000
0001
0000
0000
0000
0020
0000
0000
,
0000
0000
0000
0030
;

//---------------dance-double - ----------------
#NOTES:
     dance-double:
     :
     Hard:
     7:
     0.479,0.484,0.188,0.361,0.090,373.000,25.000,48.000,0.000,0.000,0.000,0.479,0.484,0.188,0.361,0.090,373.000,25.000,48.000,0.000,0.000,0.000:
00000000
00000000
00000000
00000000
,
00000000
00000000
00000000
00000000
,
00010000
00000000
00001000
00100000
02000000
00000000
13000000
01000000
,
00010000
00000000
00001000
00010000
00000020
00010000
00001030
00000000
,
00000010
00000000
00001000
00000010
00000200
00000000
00000301
00000100
,
00001000
00000000
00000000
00000000
00000000
00001000
00010000
00000000
00000000
01000000
00000000
00000000
20000000
00000000
00000000
00000000
00000000
31000000
00010000
00000000
00000000
00001000
00000000
00000000
,
00100000
00000000
00010000
01000000
00200000
10000000
00000000
01300000
,
00010000
01000000
00000000
00001000
00200000
00001000
00310000
00000000
,
20000000
00000000
00000000
30000000
01010000
00000000
00000000
00000000
,
00001000
00000000
00000000
00000000
00000000
00001000
00010000
00000000
00000000
00000000
00000000
00000000
00001000
00000000
00000000
00000100
00000000
00000000
00000010
00000000
00000000
00000001
00000000
00000000
,
00001000
00000001
00001000
00000100
00001000
01000000
00001000
00010000
,
00100000
01000000
00010000
10000000
00010000
00010000
10000000
01000000
,
00010000
10000000
00010000
01000000
00010000
00000100
00010000
00001000
,
00000100
00000010
00001000
00000001
00001000
00001000
00000001
00000010
,
00001000
00000001
00000100
00001000
00010000
00100000
10000000
00010000
,
01000000
10000000
00100000
00010000
00001000
00000100
00000001
00001000
,
00000001
00000010
00001000
00010000
01000000
10000000
00010000
10000000
,
00100000
00010000
00001000
00000100
00000001
00000001
00000001
00000000
,
00001000
00000000
00000000
00001001
00000000
00000000
00000000
00000000
00000000
00000001
00000000
00000000
00000010
00000000
00000000
00000110
00000000
00000000
00000000
00000000
00000100
00010000
00000000
00000000
,
00001000
00000000
00000000
00011000
00000000
00000000
00000000
00000000
00000000
01000000
00000000
00000000
00001000
00000000
00000000
00011000
00000000
00000000
00000000
00000000
00001000
00010000
00000000
00000000
,
01000000
00000000
00000000
11000000
00000000
00000000
00000000
00000000
00000000
10000000
00000000
00000000
00010000
00000000
00000000
01010000
00000000
00000000
00000000
00000000
01000000
00001000
00000000
00000000
,
00010000
00000000
00001000
00000000
00000000
00000000
00000000
00000000
00010000
00001000
00000000
00000000
00000000
00000000
00000000
00000000
,
00010000
01000000
10000000
00100000
00010000
00100000
10000000
00000000
,
01000000
00010000
00001000
00000100
00000010
00000100
00001000
00000000
,
00010000
00001000
00000010
00000100
00010000
00001000
00000100
00000001
,
00000020
00000000
00000000
00000000
,
00000000
00000000
00000000
00000030
,
00000021
00000000
00001030
00010000
00200000
00000000
00000000
00310000
,
00001000
00001000
00000000
00010000
00000020
00000000
00000000
00001030
,
00001002
00000000
00000013
00001000
00020000
00000000
00000000
00130000
,
10000000
00000000
00000000
00000000
00000000
10000000
00010000
00000000
00000000
00000000
00000000
00000000
00000000
00000000
00100000
00010000
00000000
00000000
10000000
00000000
00000000
00100000
00000000
00000000
,
10200000
00000000
00310000
00001000
00000020
00000001
00000000
00001030
,
00010000
00010000
00000000
00001000
00200000
00000000
00000000
00310000
,
02020000
00000000
00000000
00000000
00000000
00000000
00000000
00000000
00000000
00000000
00000000
00000000
00000000
00000000
00000000
00000000
00000000
00000000
00000000
00000000
00000000
00000000
00000000
00000000
00000000
00000000
00000000
00000000
00000000
00000000
00000000
03030000
10100000
00000000
00000000
00000000
00000000
00000000
00000000
00000000
00000000
00000000
00000000
00000000
00000000
00000000
00000000
00000000
00000000
00000000
00000000
00000000
00000000
00000000
00000000
00000000
00000000
00000000
00000000
00000000
00000000
00000000
00000000
00000000
,
10000000
00000000
00000000
00000000
00000000
10000000
00010000
00000000
00000000
00000000
00000000
00000000
01000000
00000000
00000000
00001000
00000000
00000000
01000000
00000000
00001000
00010000
00000000
00000000
,
00011000
00000000
00000010
00000000
00000200
00001000
00000000
00000301
,
00001000
00001000
00000001
00002000
00000000
00000100
00003001
00000000
,
00000010
00000020
00000000
00000000
00000100
00000200
00000000
00000330
,
00000001
00000000
00000000
00000000
00000000
00000001
00001000
00000000
00000000
00000000
00000000
00000000
00000100
00000000
00000000
00000000
00000000
00000100
00010000
00000000
00000000
00001000
00000000
00000000
,
00011000
00000000
00100000
00000000
20000000
00010000
00000000
30100000
,
00010000
00010000
10000000
00020000
00000000
01000000
10030000
00000000
,
00200000
00000000
00000000
00000000
00000000
00000000
00000000
00000000
00000000
00000000
00000000
00000000
00000000
00000000
00000000
00000000
00000000
00000000
00000000
00000000
00000000
00000000
00000000
00000000
00000000
00000000
00000000
00000000
00000000
00000000
00000000
00300000
10010000
00000000
00000000
00000000
00000000
00000000
00000000
00000000
00000000
00000000
00000000
00000000
00000000
00000000
00000000
00000000
00000000
00000000
00000000
00000000
00000000
00000000
00000000
00000000
00000000
00000000
00000000
00000000
00000000
00000000
00000000
00000000
,
00110000
00000000
00000000
00000000
00000000
00100000
01000000
00000000
00000000
00000000
00000000
00000000
10000000
00000000
00000000
00000000
00000000
00000000
00010000
00000000
00000000
00000000
00000000
00000000
,
10000000
01000000
00010000
00000000
00001000
00000100
00000001
00000000
,
00000010
00001000
00000001
00000100
00001000
00010000
00100000
00000000
,
00010000
01000000
00100000
00010000
00001000
00000100
00000001
00000000
,
00000100
00000000
00000020
00000030
00000000
00000000
00000020
00000030
00000000
00000000
00000020
00000030
00000100
00000000
00000010
00000000
,
00001001
00000001
00000010
00001000
00010000
00100000
10000000
10100000
,
00000000
10000000
01000000
00010000
00001000
00000100
00000001
00000000
,
00001001
00000001
00000100
00001000
00010000
00001000
00010000
01000000
,
20000000
00000000
00000000
00000000
,
00000000
00000000
30000000
00000000
,
10200000
00000000
00310000
00001000
00000020
00000000
00000000
00001030
,
00010000
00010000
00000000
00001000
00200000
00000000
00000000
00310000
,
20010000
00000000
30100000
00010000
00002000
00000000
00000000
00003010
,
00000001
00000000
00000000
00000000
00000000
00000001
00001000
00000000
00000000
00000000
00000000
00000000
00000000
00000000
00000010
00001000
00000000
00000000
00000001
00000000
00000000
00000010
00000000
00000000
,
00000021
00000000
00001030
00010000
00200000
10000000
00000000
00310000
,
00001000
00001000
00000000
00010000
00000020
00000000
00000000
00001030
,
00002200
00000000
00000000
00000000
00000000
00000000
00000000
00000000
00000000
00000000
00000000
00000000
00000000
00000000
00000000
00000000
00000000
00000000
00000000
00000000
00000000
00000000
00000000
00000000
00000000
00000000
00000000
00000000
00000000
00000000
00000000
00003300
00000011
00000000
00000000
00000000
00000000
00000000
00000000
00000000
00000000
00000000
00000000
00000000
00000000
00000000
00000000
00000000
00000000
00000000
00000000
00000000
00000000
00000000
00000000
00000000
00000000
00000000
00000000
00000000
00000000
00000000
00000000
00000000
,
00001000
00000000
00000000
00000000
00000000
00000001
00001000
00000000
00000000
00000000
00000000
00000000
00000001
00000000
00000001
00000100
00000000
00000000
00001000
00000000
00000000
00010000
00000000
00000000
,
00200000
00000000
00000000
00000000
00000000
00000000
00300000
00000000
00000000
00010000
00000000
00000000
00001000
00000000
00000000
01000000
00000000
00001000
00000000
00000000
00000000
00010000
00000000
00000000
,
00200000
00000000
00000000
00000000
00000000
00000000
00300000
00000000
00000000
00010000
00000000
00000000
00001000
00000000
00000000
01000000
00000000
00010000
00000000
00000000
00000000
01000000
00000000
00000000
,
00200000
00000000
00000000
00000000
00000000
00000000
00300000
00000000
00000000
10000000
00000000
00000000
00010000
00000000
00000000
10000000
00000000
00010000
00000000
00000000
00000000
00100000
00000000
00000000
,
02000000
10000000
03010000
00001000
,
00000020
00000000
00000000
00000000
00000000
00000000
00000030
00000000
00000000
00001000
00000000
00000000
00010000
00000000
00000000
00000100
00000000
00010000
00000000
00000000
00000000
00001000
00000000
00000000
,
00000020
00000000
00000000
00000000
00000000
00000000
00000030
00000000
00000000
00001000
00000000
00000000
00010000
00000000
00000000
00000100
00000000
00001000
00000000
00000000
00000000
00000100
00000000
00000000
,
00000020
00000000
00000000
00000000
00000000
00000000
00000031
00000000
00000000
00001000
00000000
00000000
00000010
00000000
00000000
00000000
00000000
00000100
00000000
00000000
00000000
00002002
00000000
00000000
,
00000000
00000000
00000000
00003003
;

//---------------dance-single - ----------------
#NOTES:
     dance-single:
     :
     Medium:
     6:
     0.435,0.408,0.293,0.459,0.023,305.000,39.000,61.000,0.000,0.000,0.000,0.435,0.408,0.293,0.459,0.023,305.000,39.000,61.000,0.000,0.000,0.000: // measure 0
0000
0000
0000
0000
,  // measure 1
0000
0000
0000
0000
,  // measure 2
1000
0000
0001
1000
0200
0000
0000
0300
,  // measure 3
0010
0001
0000
0001
2000
0000
0000
3000
,  // measure 4
0010
0010
0000
0100
0002
0000
0000
0003
,  // measure 5
0011
1000
0000
0000
,  // measure 6
0001
0000
0001
1000
0020
0000
0000
0030
,  // measure 7
0001
0010
0000
0010
2000
0000
0000
3000
,  // measure 8
0002
0000
0000
0003
0011
0000
0000
0000
,  // measure 9
1001
0000
0001
0000
1000
0001
2000
0000
,  // measure 10
3100
0001
0100
0001
0100
0010
0100
0000
,  // measure 11
1000
0000
0010
0000
0020
0000
0000
0030
,  // measure 12
0100
1000
0100
1000
0100
0010
0100
0000
,  // measure 13
0001
0000
0010
0000
0100
1000
0001
0000
,  // measure 14
0010
1000
0010
1000
0010
0100
0010
0000
,  // measure 15
0001
0000
1000
0001
0200
0000
0000
0300
,  // measure 16
0010
0001
0010
0001
0010
0100
0010
0100
,  // measure 17
0001
1000
0001
2000
0100
0001
3100
0000
,  // measure 18
1100
0002
0000
0103
0010
0100
0001
0000
,  // measure 19
0100
1000
0100
0010
1000
0000
0000
0000
,  // measure 20
1010
1000
0001
0000
0011
0010
0100
0000
,  // measure 21
1000
0000
0100
0000
0000
0000
1000
0000
0001
0100
0000
0000
0000
0000
0001
0000
,  // measure 22
0011
1000
0001
1000
0100
0010
0001
0000
,  // measure 23
0000
0001
0010
0100
0001
0100
1000
0000
,  // measure 24
1001
1000
0010
0000
1001
0001
0010
0000
,  // measure 25
0220
0000
0000
0000
,  // measure 26
0000
0000
0000
0330
,  // measure 27
1200
0000
0301
0100
0020
0000
0001
0000
,  // measure 28
0130
0000
1000
0000
0002
0000
0100
0003
,  // measure 29
2001
0000
3100
0020
1000
0000
0031
1000
,  // measure 30
1010
0000
0100
0000
0002
0000
0000
0003
,  // measure 31
0201
0000
1300
0100
0020
1000
0000
0000
,  // measure 32
0130
0001
2000
3100
,  // measure 33
2020
0000
0000
3030
0101
0000
0000
0000
,  // measure 34
0011
0000
0000
0000
0000
0010
0200
0000
0000
0000
0000
0000
0300
0000
0000
0000
0000
0000
0000
0000
0000
0000
0000
0000
,  // measure 35
1200
0000
0301
0100
1000
0002
0000
0003
,  // measure 36
0100
0001
0100
0010
,  // measure 37
1010
0020
0000
0000
0100
0200
0000
0330
,  // measure 38
1001
0000
0000
0000
0000
1000
0100
0000
0000
0000
0000
0000
0010
0000
0000
0000
0000
0010
0001
0000
0000
0000
0000
0000
,  // measure 39
0201
0000
1300
0100
0001
0020
0000
0030
,  // measure 40
0100
1000
0100
0010
,  // measure 41
0022
0000
0000
0033
1100
0000
0000
0000
,  // measure 42
1010
0000
0000
0000
0000
0010
0200
0000
0000
0000
0000
0000
0300
0000
0000
0000
0000
0000
0000
0000
0000
0000
0000
0000
,  // measure 43
0001
0100
1000
0000
1000
0100
0001
0000
,  // measure 44
0010
0100
1000
0001
0010
0100
1000
0000
,  // measure 45
0001
0010
1000
0001
1000
0010
0001
1000
,  // measure 46
0010
0000
0200
0300
0000
0000
0200
0300
0000
0000
0200
0300
0010
0000
0000
0000
,  // measure 47
1000
0010
0001
0000
0001
0010
1000
1001
,  // measure 48
0000
1000
0010
1000
0010
0100
0001
0000
,  // measure 49
1000
0100
0001
0000
0001
0100
1000
0000
,  // measure 50
0002
0000
0000
2000
0000
0000
0000
0000
,  // measure 51
0000
0000
3003
0000
,  // measure 52
1200
0000
0301
1000
0020
0000
0001
0000
,  // measure 53
0130
0000
1000
0000
0002
0000
0100
0003
,  // measure 54
2001
0000
3100
0002
1000
0000
0103
1000
,  // measure 55
1010
0000
0100
0000
0002
0000
0000
0003
,  // measure 56
0201
0000
1300
0001
0020
0100
0000
0000
,  // measure 57
1030
0001
2000
3100
,  // measure 58
2002
0000
0000
3003
0110
0000
0000
0000
,  // measure 59
0011
0000
0000
0000
0000
0010
0100
0000
0000
0000
0000
0000
1000
0000
0000
0100
0000
0000
0010
0000
0000
0001
0000
0000
,  // measure 60
0012
0000
0003
0100
2000
0000
3100
0010
,  // measure 61
2010
0000
3000
0100
0002
0000
0103
1000
,  // measure 62
0012
0000
0003
0100
2000
0000
3100
0001
,  // measure 63
0010
0100
1000
0100
,  // measure 64
0012
0000
1003
0010
0001
0000
0010
1000
,  // measure 65
2010
0000
3001
0010
1000
0000
0001
0100
,  // measure 66
0210
0000
1300
0001
0100
0000
0010
2002
,  // measure 67
0000
0000
0000
3003
;

//---------------dance-single - ----------------
#NOTES:
     dance-single:
     :
     Easy:
     3:
     0.214,0.255,0.098,0.120,0.000,170.000,13.000,16.000,0.000,0.000,0.000,0.214,0.255,0.098,0.120,0.000,170.000,13.000,16.000,0.000,0.000,0.000:
0000
0000
0000
0000
,
0000
0000
0000
0000
,
1000
0001
0010
0000
,
0100
0000
0100
0000
,
2000
0000
3000
0000
,
0001
1000
0000
0000
,
0001
0100
0010
0000
,
0100
0000
0100
0000
,
0002
0000
0003
0000
,
1000
0001
0010
0100
,
0001
0000
0100
0000
,
1000
0000
0100
0000
,
0001
0000
0100
0000
,
1000
0000
0001
0000
,
1000
0000
0010
0000
,
0001
0000
0010
0000
,
1000
0000
0010
0000
,
0001
0000
0020
0030
,
1000
0100
0001
0100
,
0010
0100
1000
0000
,
0001
0100
1000
0100
,
0010
0100
0000
0000
0010
0000
0000
0000
,
1000
0100
0010
0100
,
0001
1000
0010
0000
,
0001
0100
1000
0100
,
0020
0000
0000
0000
,
0000
0000
0030
0000
,
1000
0100
0001
0000
,
0100
1000
0001
0000
,
1000
0010
0001
0000
,
0110
1000
0001
0000
,
0001
0100
1000
0000
,
0100
0001
1000
0000
,
0002
0000
0013
0000
,
0110
0100
0000
0000
,
1000
0100
0001
0000
,
0001
0100
1000
0000
,
1000
0010
0001
0000
,
0110
0001
1000
0000
,
0001
0100
1000
0000
,
1000
0100
0001
0000
,
2000
0000
3010
0000
,
0110
0100
0000
0000
,
0000
0001
0000
0100
0000
0010
0000
0100
,
0000
1000
0000
0001
0000
0010
0000
0000
,
0000
1000
0000
0100
0000
0010
0000
0100
,
0000
0001
0000
0001
0000
0002
0003
0000
,
0000
0100
0000
0010
0000
0001
0000
0010
,
0000
1000
0000
0001
0000
0100
0000
0000
,
0000
1000
0000
0010
0000
0100
0000
0010
,
0010
0000
0000
0000
,
0000
0000
0000
0000
,
0001
0100
1000
0000
,
0100
0001
1000
0000
,
0001
0010
1000
0000
,
0110
0001
1000
0000
,
1000
0100
0001
0000
,
0100
1000
0001
0000
,
2000
0000
3100
0000
,
0110
0000
0010
0000
0001
1000
0001
1000
,
0020
0000
0130
0000
,
0120
0000
1030
0000
,
1002
0000
0013
0000
,
0110
0000
0000
0000
,
0210
0000
1300
0000
,
2100
0000
3001
0000
,
1002
0000
0103
0000
,
0220
0000
0000
0330
;

//---------------dance-single - ----------------
#NOTES:
     dance-single:
     :
     Beginner:
     2:
     0.092,0.101,0.015,0.000,0.000,84.000,2.000,0.000,0.000,0.000,0.000,0.092,0.101,0.015,0.000,0.000,84.000,2.000,0.000,0.000,0.000,0.000:
0000
0000
0000
0000
,
0000
0000
0000
0000
,
0010
0000
0000
0000
,
0000
0000
0000
0000
,
0100
0000
0000
0000
,
0000
0000
0000
0000
,
0010
0000
0000
0000
,
0000
0000
0000
0000
,
0100
0000
0000
0000
,
0000
0000
0000
0000
,
0001
0000
0000
0000
,
0010
0000
0000
0000
,
1000
0000
0000
0000
,
0010
0000
0000
0000
,
0001
0000
0000
0000
,
0100
0000
0000
0000
,
1000
0000
0000
0000
,
0100
0000
0100
0000
,
0010
0000
0000
0000
,
1000
0000
0000
0000
,
0001
0000
0000
0000
,
1000
0000
0000
0000
,
0100
0000
0000
0000
,
1000
0000
0000
0000
,
0001
0000
0000
0000
,
0100
0000
0000
0000
,
0000
0000
0000
0000
,
1000
0000
0100
0000
,
0001
0000
0000
0000
,
0010
0000
0010
0000
,
0100
0000
0000
0000
,
0001
0000
0100
0000
,
1000
0000
0000
0000
,
0010
0000
0010
0000
,
0100
0000
0000
0000
,
1000
0000
0100
0000
,
0001
0000
0000
0000
,
0010
0000
0100
0000
,
0100
0000
0000
0000
,
0001
0000
0100
0000
,
1000
0000
0000
0000
,
0010
0000
0100
0000
,
0100
0000
0000
0000
,
1000
0000
1000
0000
,
0100
0000
0100
0000
,
0001
0000
0001
0000
,
0010
0000
0010
0000
,
1000
0000
1000
0000
,
0010
0000
0010
0000
,
0001
0000
0001
0000
,
1000
0000
0000
0000
,
0000
0000
0000
0000
,
0001
0000
0100
0000
,
1000
0000
0100
0000
,
0001
0000
0100
0000
,
1000
0000
0100
0000
,
0001
0000
0010
0000
,
1000
0000
0010
0000
,
0001
0000
0010
0000
,
1000
0000
0010
0000
,
0100
0000
0000
0000
,
0100
0000
0000
0000
,
0100
0000
0000
0000
,
0110
0000
0000
0000
,
0010
0000
0000
0000
,
0010
0000
0000
0000
,
0010
0000
0000
0000
,
0110
0000
0000
0000
;

//---------------dance-double - ----------------
#NOTES:
     dance-double:
     :
     Medium:
     6:
     0.373,0.357,0.090,0.323,0.004,292.000,12.000,43.000,0.000,0.000,0.000,0.373,0.357,0.090,0.323,0.004,292.000,12.000,43.000,0.000,0.000,0.000:
00000000
00000000
00000000
00000000
,
00000000
00000000
00000000
00000000
,
00010000
00000000
00000010
00001000
00000200
00000000
00000300
00000000
,
00010000
00001000
00200000
00300000
,
00001000
00000000
00010000
00001000
02000000
00000000
03000000
00000000
,
00100000
00010000
00001000
00000000
,
00010000
00000000
00020000
00000000
00000000
00030000
00000000
00000000
,
00001000
00010000
00000200
00000300
,
00000020
00000030
00001001
00000000
,
00000011
00000000
00000100
00000000
00001000
00000001
00002000
00000000
,
00003010
00000000
00000100
00000000
00001000
00000000
00000001
00000010
,
00001000
00000000
00000001
00000000
00000010
00000100
00001000
00000100
,
00010000
00000000
01000000
00000000
00100000
00000000
10000000
00100000
,
00010000
00000000
10000000
00000000
00100000
01000000
00010000
01000000
,
00001000
00000000
00010000
00001000
00000100
00000000
00000001
00000010
,
00001000
00000000
00001000
00000010
00000100
00000000
00010000
00001000
,
00100000
00000000
00001000
00010000
00100000
00000000
10000000
01000000
,
00100000
00000000
00010000
20000000
00010000
01000000
30010000
00000000
,
01000000
00020000
00000000
10030000
00010000
00100000
10000000
00000000
,
00100000
01000000
00010000
00001000
00000100
00000000
00000010
00000000
,
00001000
00000001
00001000
00000100
00001000
00000010
00000001
00000000
,
00000010
00000000
00001000
00000000
00000000
00000000
00000000
00000000
00000010
00001000
00000000
00000000
00000000
00000000
00000000
00000000
,
00000001
00000010
00000010
00000100
00000001
00000100
00001000
00000000
,
00000001
00000100
00001000
00010000
01000000
00010000
00001000
00000000
,
00100000
00100000
00010000
00000000
10000000
00010000
10000000
00000000
,
02200000
00000000
00000000
00000000
,
00000000
00000000
00000000
03300000
,
10000000
00000000
00010000
00100000
20000000
00000000
30000000
00010000
,
00001000
00000000
00000100
00000000
00000002
00000000
00000003
00001000
,
00000001
00000000
00001000
00000010
00000002
00000000
00000003
00001000
,
00010000
00000000
01000000
00000000
20000000
00000000
30000000
00010000
,
00100000
00000000
00100000
01000000
00020000
10000000
00000000
00000000
,
00031000
01000000
00001000
00010000
,
00000020
00000030
00000101
00000000
,
00000011
00002000
00003000
00000000
,
00000001
00000000
00001000
00000100
00000002
00000000
00000003
00001000
,
00010000
00000000
00100000
00000000
20000000
00000000
30000000
00010000
,
00100000
00200000
00000000
00000000
01000000
02000000
00000000
03300000
,
10010000
01010000
00000000
00000000
,
01000000
00000000
01000000
00100000
00020000
10000000
00000000
00000000
,
00031000
00100000
00001000
00010000
,
00000020
00000030
00000101
00000000
,
00000011
00001000
00000100
00000010
,
00000001
00000010
00001000
00000000
00001000
00000010
00000001
00000000
,
00000010
00000100
00001000
00000100
00010000
00001000
00100000
00000000
,
00010000
00100000
10000000
00000000
10000000
00100000
00010000
00000000
,
01000000
00000000
00200000
00300000
00000000
00000000
00200000
00300000
00000000
00000000
00200000
00300000
01000000
00000000
00000000
00000000
,
00010000
01000000
10000000
00000000
10000000
01000000
00010000
00000000
,
01000000
00100000
00010000
00001000
00000100
00000010
00001000
00000000
,
00000001
00000100
00001000
00000000
00001000
00000100
00000001
00000000
,
00000010
00000000
00000000
00000020
00000000
00000000
00000000
00000000
,
00000000
00000000
00000030
00000000
,
00000001
00000000
00001000
00000010
00000002
00000000
00000003
00001000
,
00010000
00000000
01000000
00000000
20000000
00000000
30000000
00010000
,
10000000
00000000
00010000
00100000
20000000
00000000
30000000
00010000
,
00001000
00000000
00000100
00000000
00000002
00000000
00000003
00001000
,
00000010
00000000
00000010
00000100
00002000
00000001
00000000
00000000
,
00013000
00000100
00010000
00001000
,
00200000
00300000
10010000
00000000
,
10100000
00000000
00020000
00000000
10030000
00010000
00100000
01000000
,
00020000
00000000
00030000
01000000
10000000
00000000
00100000
00010000
,
00002000
00000000
00003000
00010000
00100000
00000000
00010000
00001000
,
00000020
00000000
00000030
00000100
00001000
00000001
00001000
00000020
,
00000100
00001000
00000001
00001030
,
00001002
00000000
00000003
00000010
00001000
00000000
00000010
00001000
,
00020000
00000000
00030000
00001000
01000000
00000000
00001000
00010000
,
00200000
00000000
00300000
01000000
00010000
00000000
01000000
00200000
,
00000000
00000000
00000000
00300000
;

//---------------dance-double - ----------------
#NOTES:
     dance-double:
     :
     Easy:
     3:
     0.213,0.204,0.075,0.030,0.000,184.000,10.000,4.000,0.000,0.000,0.000,0.213,0.204,0.075,0.030,0.000,184.000,10.000,4.000,0.000,0.000,0.000:
00000000
00000000
00000000
00000000
,
00000000
00000000
00000000
00000000
,
01000000
00001000
00010000
00000000
,
00000100
00010000
00001000
00000000
,
00100000
00001000
00010000
00000000
,
00000010
00001000
00000000
00000000
,
00000001
00000010
00000100
00000000
,
00000001
00000100
00000010
00000000
,
00000001
00000100
00001000
00000000
,
00000100
00000010
00001000
00000000
,
00000001
00000100
00001000
00000100
,
00001000
00010000
00100000
00000000
,
10000000
01000000
10000000
01000000
,
00010000
00001000
00000010
00000000
,
00000100
00001000
00000001
00000100
,
00001000
00010000
00100000
00000000
,
10000000
00010000
00100000
01000000
,
00100000
00010000
10010000
00000000
,
10000000
01000000
00010000
01000000
,
10000000
00100000
00010000
00000000
,
00001000
00000100
00000001
00000100
,
00000010
00000000
00000100
00000000
,
00000001
00000010
00001000
00000010
,
00000001
00000100
00001000
00000000
,
00010000
01000000
10000000
00100000
,
00020000
00000000
00000000
00000000
,
00030000
00000000
00000000
00000000
,
00011000
00000000
01000000
00000000
,
10000000
01000000
00010000
00000000
,
00100000
00000000
01000000
00000000
,
10000000
01000000
00010000
00000000
,
00011000
00000000
00000100
00000000
,
00000001
00000100
00001000
00000000
,
00000100
00000000
00000110
00000000
,
00000001
00001000
00000100
00000000
,
00011000
00000000
00100000
00000000
,
10000000
00100000
00010000
00000000
,
10000000
00000000
01000000
00000000
,
10000000
00100000
00010000
00000000
,
00011000
00000000
00000010
00000000
,
00000100
00001000
00010000
00000000
,
00000010
00000000
00001000
00000000
,
00000001
00000010
00001000
00000000
,
00010000
01000000
10000000
00000000
,
00100000
00010000
01000000
00000000
,
10000000
01000000
00010000
00000000
,
00001000
00000100
00000001
00000100
,
00001000
00000100
00000001
00000000
,
00000010
00001000
00000100
00000000
,
00000001
00000100
00001000
00010000
,
00022000
00000000
00000000
00000000
,
00033000
00000000
00000000
00000000
,
00011000
00000000
00000100
00000000
,
00000001
00000100
00001000
00000000
,
00000010
00000000
00000100
00000000
,
00000001
00000100
00001000
00000000
,
00011000
00000000
01000000
00000000
,
10000000
01000000
00010000
00000000
,
01000000
00000000
01100000
00000000
,
10000000
00010000
01000000
00001000
,
00100000
00000000
01000000
00100000
,
10000000
00000000
00100000
01000000
,
10000000
00000000
01000000
00010000
,
00001000
00010000
00000100
00010000
,
00000010
00000000
00000100
00000010
,
00000001
00000000
00000010
00000100
,
00000001
00000000
00000100
00001000
,
00020000
00000000
00000000
00030000
;
