#TITLE:Breakout;
#SUBTITLE:;
#ARTIST:Foo Fighters;
#TITLETRANSLIT:;
#SUBTITLETRANSLIT:;
#ARTISTTRANSLIT:;
#GENRE:;
#CREDIT:;
#BANNER:[Crossovers] - Breakout.png;
#BACKGROUND:[Crossovers] - Breakout-bg.png;
#LYRICSPATH:;
#CDTITLE:;
#MUSIC:[Crossovers] - Breakout.mp3;
#OFFSET:-0.027;
#SAMPLESTART:23.060;
#SAMPLELENGTH:15.000;
#SELECTABLE:YES;
#BPMS:0.000=156.750
;
#STOPS:
;
#BGCHANGES:;
#KEYSOUNDS:;
#ATTACKS:;

//---------------dance-single - Blank----------------
#NOTES:
     dance-single:
     :
     Hard:
     8:
     0.638,0.648,0.602,0.290,0.071,481.000,81.000,39.000,0.000,0.000,0.000,0.638,0.648,0.602,0.290,0.071,481.000,81.000,39.000,0.000,0.000,0.000:
2000
0010
0010
3010
,
0200
0001
0001
0301
,
0200
1000
1000
1300
,
0020
0000
0001
0000
0031
0010
0100
0000
,
0220
0330
2002
3003
,
0022
0000
0033
0000
2200
0000
3300
2000
,
0000
0010
3200
0000
0000
0000
0000
0000
,
0010
0000
0010
0000
0010
0000
0310
0100
,
1000
0001
0000
0101
0000
0011
0000
0110
,
0000
0100
0000
1100
0000
1001
0000
0101
,
0000
0000
0010
0110
0000
0101
0000
1001
,
0000
0000
0000
0001
0100
0010
1000
0000
,
1002
0000
0000
0000
0203
0000
0000
0310
,
0000
0000
0000
0010
1000
0100
0010
0000
,
0210
0000
0010
0000
0010
0000
0010
0300
,
0110
0100
1000
0001
0100
1000
0100
0000
,
0110
0000
0010
1000
0010
0000
1000
0100
,
0010
0000
0010
0001
0100
0010
1000
0000
,
1001
0000
0001
0100
0001
0000
0001
0010
,
0000
0010
0100
0000
0100
1000
1010
0000
,
1000
0001
1000
0001
1000
0010
0000
0020
,
0000
0130
0010
0000
1000
1000
0100
0000
,
1000
0001
1000
0001
1000
0010
0000
0110
,
0000
0000
0100
0001
0010
0001
1000
0000
,
1010
0000
1000
0010
0100
0000
0001
0100
,
1000
0000
1000
0100
0010
0100
0001
0000
,
0101
0000
0001
0010
1000
0000
1000
0010
,
0000
0010
0100
0000
0010
0100
0110
0000
,
0100
0010
0100
0010
0100
0001
0000
0201
,
0000
1300
0100
0000
0010
0001
1000
0000
,
0010
0100
0010
0100
0010
1000
0000
1200
,
0000
0000
0000
0000
0301
0000
0100
0000
0010
0000
0001
0100
0001
0100
0001
1000
,
0100
0010
0110
1001
,
0001
0000
1000
0000
0100
0010
0100
2000
,
0000
0000
3001
0000
0001
0100
0001
0000
,
0010
0100
0010
0000
0100
1000
0100
0000
,
1000
1001
0001
0110
,
0001
0000
1001
0000
1000
0010
0100
0020
,
0000
0000
1030
0000
1000
0100
0001
0000
,
0001
0100
1000
0000
0010
1000
0100
0010
,
0000
0110
0000
1001
0000
0110
0000
1001
,
0000
0011
0000
1100
0000
0011
0000
0200
,
0000
1000
2300
0000
0001
0000
3001
1000
,
0200
0000
0010
0000
0310
0100
1000
0001
,
0000
0101
0000
0100
0000
0110
0000
1001
,
0000
1010
0000
1010
0000
0101
0000
0020
,
0000
1000
2030
0000
0001
0000
3001
1000
,
0100
0000
0000
0000
0110
0000
0000
0010
0001
0000
0100
0001
0100
0001
0100
0000
,
0101
1001
1100
1010
,
0101
0000
0011
0000
1100
0000
1000
0001
,
0101
1100
1010
0011
,
1001
0000
0000
0000
1001
0000
0000
0000
0110
0000
0010
0100
0010
0100
0010
0100
,
0001
0000
0010
0100
0010
1000
0010
1000
,
0010
0100
0010
0100
0010
0001
0010
0001
,
0010
0100
0010
0100
0010
1000
0010
1000
,
0010
0100
0010
0100
0010
0001
0010
0001
,
0021
0000
2030
0000
,
3200
0000
0000
0000
0302
0000
0000
0103
,
0000
0000
0100
0000
1000
0000
0000
0000
0010
0000
1000
0000
0000
0000
1000
0100
,
0010
0001
0100
0001
0000
0101
0000
0001
,
1000
0000
0001
0000
1000
0000
0100
0000
0001
0000
0100
1000
0000
0000
0010
0000
,
1000
0000
0001
0000
1000
0000
0010
0000
0001
0000
0010
1000
0000
0000
0100
0000
,
0010
0010
0001
0101
0000
1100
0000
0101
,
0000
0000
0000
0000
0000
0000
0001
0000
0010
0000
0100
1000
0100
1000
0100
1000
,
0020
0000
0000
0000
0230
0000
0000
0301
,
0000
0000
0000
0000
0000
0000
0001
0000
0100
0000
0010
0100
0000
0000
0000
0000
,
0210
0010
0010
0310
,
0010
0100
0001
1000
1100
0000
1100
0000
,
0100
0010
0001
0010
0100
1000
0001
1000
,
0100
0010
1000
0010
0001
0100
0001
0010
,
0100
1000
0100
1000
0002
0000
0103
0200
,
0000
0310
0010
1000
0100
0010
0110
0000
,
0010
0100
0010
0100
0010
0001
0000
2001
,
0000
3010
1000
0000
0100
0000
0011
0000
,
0010
0100
0010
0100
0010
1000
0000
1020
,
0000
0031
0010
0100
1000
0001
1001
0000
,
1000
0010
0100
0010
1000
0001
0000
0021
,
0000
0100
0000
0000
1030
0000
0110
0000
,
0100
1000
0100
0001
0100
0010
0000
0110
,
0000
0000
0000
0000
0010
0000
0001
0000
0100
0000
0010
1000
0010
1000
0010
1000
,
0010
0010
0000
0100
0100
0000
0001
0001
,
0000
1000
1000
0000
0100
0010
0110
0000
,
0100
0100
0000
1000
1000
0000
0001
0001
,
0000
0100
0100
0000
0010
0100
0110
0000
,
0100
0001
0000
0001
0010
0000
0010
0100
,
0000
0100
1000
0000
1000
0001
1001
0000
,
0001
0101
0000
0100
0101
0000
0001
0011
,
0000
0010
0110
0000
0000
0000
0000
0000
;

//---------------dance-single - Blank----------------
#NOTES:
     dance-single:
     :
     Medium:
     6:
     0.483,0.519,0.297,0.342,0.000,369.000,40.000,46.000,0.000,0.000,0.000,0.483,0.519,0.297,0.342,0.000,369.000,40.000,46.000,0.000,0.000,0.000:
2000
0000
0100
0000
,
3200
0000
0001
0000
,
0302
0000
0010
0000
,
0023
0000
1000
1030
,
0110
0000
1001
0000
,
0011
0000
1100
0000
,
2002
0000
0000
0000
,
0000
0000
0000
3003
,
1000
0000
0011
0000
1000
0100
1000
0000
,
0001
0000
1010
0000
0001
0100
0001
0000
,
1000
0000
0101
0000
1000
0010
1000
0000
,
0001
0000
1100
0000
0001
0010
0001
0000
,
0020
0000
0000
0000
0200
0000
0330
0110
,
0000
0000
0000
0000
0100
1000
0001
0000
,
2002
0000
0000
3003
,
0000
1000
0100
0010
0001
0100
0001
0000
,
0020
0000
0000
0230
,
0301
0000
0000
0000
0001
0100
1000
0000
,
0020
0000
0000
0000
0230
0000
0000
1300
,
0000
0100
0001
0000
0010
0100
1000
0000
,
0001
1000
0001
1000
0001
0010
0000
0010
,
0000
0100
1000
0000
0000
0000
0000
0000
,
1000
0001
1000
0001
1000
0010
0000
0010
,
0000
0000
0010
0100
0001
0010
0100
0000
,
2000
0000
0000
3002
,
0013
0000
0000
0000
0001
1000
0100
0000
,
0002
0000
0000
0000
2003
0000
0000
3010
,
0000
0001
0010
0000
0100
0001
1000
0000
,
0001
1000
0001
1000
0001
0010
0000
0020
,
0000
0130
1000
0000
0000
0000
0000
0000
,
1000
0001
1000
0001
1000
0010
0000
0020
,
0000
0000
0130
0001
0010
0100
1000
0001
,
0100
0101
0001
1001
,
1000
0000
1010
0000
1000
0001
1000
0000
,
0002
0000
0023
0000
,
0032
0000
0203
0000
,
0310
1010
1000
1100
,
0100
0000
0101
0000
0100
0010
0100
0000
,
0020
0000
0032
0000
,
0203
0000
0000
0000
1300
0100
0001
0010
,
0000
0110
0000
0100
0000
0100
0000
1000
,
0000
0001
0000
0001
0000
0010
0000
0200
,
0000
0310
0200
0000
0000
0000
0000
0301
,
0100
0000
0000
0000
1000
0010
0100
0001
,
0000
0010
0000
0001
0000
0100
0000
0010
,
0000
1000
0000
1000
0000
0001
0000
0020
,
0000
0031
0100
0000
0000
0000
0000
0000
,
0000
0000
0000
0000
0010
1000
0010
0001
,
1000
0001
0010
0100
0001
1000
0010
0100
,
0001
1000
0100
0001
1000
0010
0100
0001
,
0100
0010
0100
0010
0100
0010
0100
0010
,
0001
0000
1000
0000
0001
1000
0100
0010
,
0001
0000
1000
0000
1000
0011
0000
0011
,
0001
0000
0001
0000
0001
1010
0000
1010
,
1000
0000
1000
0000
1000
0101
0000
0101
,
0001
0000
0001
0000
0001
1100
0000
1100
,
2000
0000
3020
0000
,
0032
0000
0000
0000
0023
0000
0000
0230
,
0000
0301
1000
0000
0100
0000
0010
0000
,
0110
0100
0100
0100
,
1000
0001
1000
0001
1000
0000
0010
0000
,
0001
1000
0001
1000
0001
0000
0010
0000
,
0100
0001
0010
0100
0000
1000
0000
1001
,
0000
0000
0000
1000
0010
0100
0010
0000
,
0200
0000
0000
0000
0302
0000
0000
0013
,
0000
0000
0000
0000
0010
0100
0010
0000
,
0220
0000
0000
0000
0000
0000
0000
0330
,
1001
0000
1010
0101
,
0002
0000
0000
2003
,
3010
0000
0000
0000
0010
1000
0001
0000
,
2000
0000
0000
0000
3002
0000
0000
0013
,
0001
0100
0010
0000
0100
0010
0010
0000
,
0010
0100
0010
0100
0010
0002
0000
0023
,
0000
1030
0010
0000
1000
0000
1010
0000
,
0100
0010
0100
0010
0100
1000
0000
1001
,
0000
0010
0001
0100
1000
0000
0000
0000
,
1000
0100
0010
0001
1000
0001
0000
1001
,
0000
0002
0000
0000
0013
0000
0000
0000
,
0001
0100
0010
1000
0001
1000
0000
1001
,
0000
0000
1000
0010
0100
0010
1000
0100
,
0010
0010
0000
0001
0001
0000
1000
1000
,
0000
0100
0100
0000
0010
0000
0110
0000
,
0100
0100
0000
0001
0001
0000
0100
0100
,
0000
1000
1000
0000
0010
0000
0110
0000
,
0100
0100
0000
0001
0001
0000
0010
0010
,
0000
0100
0100
0000
0010
0000
0110
0000
,
1000
0001
0000
0001
0100
0000
0100
0010
,
0000
0010
1010
0000
0000
0000
0000
0000
;

//---------------dance-single - Blank----------------
#NOTES:
     dance-single:
     :
     Easy:
     4:
     0.270,0.389,0.156,0.156,0.000,212.000,21.000,21.000,0.000,0.000,0.000,0.270,0.389,0.156,0.156,0.000,212.000,21.000,21.000,0.000,0.000,0.000: // measure 0
1000
0000
1000
0000
,  // measure 1
0010
0000
0010
0000
,  // measure 2
0001
0000
0001
0000
,  // measure 3
0100
0000
0100
0000
,  // measure 4
0020
0000
0230
0000
,  // measure 5
0320
0000
0230
0000
,  // measure 6
0302
0000
0000
0000
,  // measure 7
1003
0000
0000
0000
,  // measure 8
1000
1010
0010
1010
,  // measure 9
1000
1001
0001
1001
,  // measure 10
0001
0101
0100
0101
,  // measure 11
0001
0001
0010
0100
,  // measure 12
2000
0000
3020
0000
,  // measure 13
0130
0000
0002
0000
,  // measure 14
0023
0000
0000
0000
,  // measure 15
0130
0000
0000
0000
,  // measure 16
0100
0000
1000
0000
,  // measure 17
0001
0000
0100
0100
,  // measure 18
0001
0000
1000
0000
,  // measure 19
0010
0000
0100
0100
,  // measure 20
0010
0000
1000
0000
,  // measure 21
0001
0000
0100
0000
,  // measure 22
0010
0000
0100
0000
,  // measure 23
0001
0000
1000
1000
,  // measure 24
0100
0000
1000
0000
,  // measure 25
0001
0000
0100
0100
,  // measure 26
0001
0000
1000
0000
,  // measure 27
0010
0000
0100
0100
,  // measure 28
0010
0000
1000
0000
,  // measure 29
0100
0000
0001
0000
,  // measure 30
0100
0000
1000
0000
,  // measure 31
0010
0100
0001
1000
,  // measure 32
0001
0000
0001
0000
,  // measure 33
0100
0000
0100
0000
,  // measure 34
0002
0000
0023
0000
,  // measure 35
0230
0000
2300
0000
,  // measure 36
3010
0000
0010
0000
,  // measure 37
0100
0000
0100
0000
,  // measure 38
0002
0000
2003
0000
,  // measure 39
3020
0000
0230
0000
,  // measure 40
0310
0000
0010
0000
,  // measure 41
1000
0000
0001
0000
,  // measure 42
0100
0000
0100
0000
,  // measure 43
0001
0000
1000
0000
,  // measure 44
0010
0000
0010
0000
,  // measure 45
1000
0000
0100
0000
,  // measure 46
0010
0000
0010
0000
,  // measure 47
0001
0000
0100
0000
,  // measure 48
0010
0010
1000
0100
,  // measure 49
0010
0010
0001
0100
,  // measure 50
0001
1000
0100
0010
,  // measure 51
0001
1000
0010
0100
,  // measure 52
0001
0000
0000
0000
0000
1000
0000
1000
,  // measure 53
0000
0000
0000
0000
0000
0001
0000
0001
,  // measure 54
0000
0000
0000
0000
0000
0010
0000
0010
,  // measure 55
0000
0000
0000
0000
0000
0100
0000
0100
,  // measure 56
0000
0000
0000
0000
0000
1000
0000
0001
,  // measure 57
0000
0000
0000
0000
0000
0001
0000
1000
,  // measure 58
0000
0000
0000
0000
0000
0010
0000
0100
,  // measure 59
0000
0000
0000
0000
0000
0100
0000
0000
,  // measure 60
0010
0010
1000
0001
,  // measure 61
0010
0010
0001
1000
,  // measure 62
0100
0010
0001
1000
,  // measure 63
0010
0000
0100
0100
,  // measure 64
0020
0000
2030
0000
,  // measure 65
3100
0000
0020
0000
,  // measure 66
0032
0000
0000
0000
,  // measure 67
0103
0000
0110
0110
,  // measure 68
0100
0000
0001
0000
,  // measure 69
1000
0000
0010
0010
,  // measure 70
1000
0000
0010
0000
,  // measure 71
0100
0000
0001
0001
,  // measure 72
1000
0000
1000
0000
,  // measure 73
0001
0010
0001
0100
,  // measure 74
0010
0000
0010
0000
,  // measure 75
1000
0100
1000
0010
,  // measure 76
0100
0000
0100
0000
,  // measure 77
0001
0010
0001
0100
,  // measure 78
0010
0000
0010
0000
,  // measure 79
0010
1000
0100
0010
,  // measure 80
0110
0000
1001
0000
,  // measure 81
0011
0000
1100
0000
,  // measure 82
0110
0000
1001
0000
,  // measure 83
1010
0000
0101
0000
,  // measure 84
1001
0000
0110
0000
,  // measure 85
1100
0000
0011
0000
,  // measure 86
0001
0000
1000
0000
,  // measure 87
0010
0110
0000
0000
;
