#TITLE:Typical Tropical;
#SUBTITLE:(DJ BIG REMIX);
#ARTIST:BAMBEE;
#TITLETRANSLIT:;
#SUBTITLETRANSLIT:;
#ARTISTTRANSLIT:;
#DISPLAYBPM:150;
#CREDIT:;
#BANNER:TypicalTropicalRmx.png;
#BACKGROUND:TypicalTropicalRmx-bg.png;
#LYRICSPATH:;
#CDTITLE:;
#MUSIC:TypicalTropicalRmx.mp3;
#OFFSET:-0.079;
#SAMPLESTART:14.240;
#SAMPLELENGTH:12.400;
#SELECTABLE:YES;
#BPMS:0.000=150.000,32.000=146.000,35.000=160.000,36.000=150.000;
#STOPS:;
#BGCHANGES:;

//---------------dance-single - ----------------
#NOTES:
     dance-single:
     :
     Hard:
     8:
     0.618,0.638,0.129,0.258,0.115: // measure 1
0000
0000
0000
0000
,  // measure 2
0000
0000
0000
0000
,  // measure 3
0000
0000
0000
0000
,  // measure 4
0000
0000
0000
0000
,  // measure 5
1000
0000
0001
0000
1000
0100
0010
0000
,  // measure 6
0001
0000
1000
0000
0001
0100
0010
0000
,  // measure 7
1000
0000
0001
0000
1000
0010
0100
0000
,  // measure 8
0001
0000
1000
0000
0001
0010
0100
0000
,  // measure 9
1200
0000
0000
0310
0000
0000
0001
0010
0001
0010
0000
0000
,  // measure 10
0100
1000
0001
0001
0100
0001
1000
1000
,  // measure 11
0100
0010
1000
0010
0001
0010
0100
1000
,  // measure 12
0010
0100
0010
0100
0001
1000
0001
1000
,  // measure 13
0002
0010
0103
1010
,  // measure 14
0100
0001
1000
1000
0100
1000
0001
0001
,  // measure 15
0100
0010
0001
0010
1000
0010
0100
0010
,  // measure 16
0100
0001
0010
0000
0010
0001
0100
0000
,  // measure 17
1010
0000
0000
0101
0000
0000
0010
1000
0010
1000
0000
0000
,  // measure 18
0010
0100
0001
0010
0010
0100
1000
0010
,  // measure 19
0000
0100
0001
0100
1000
0100
0001
0000
,  // measure 20
0010
0100
1000
0010
0010
0100
0001
0010
,  // measure 21
0000
0100
1000
0100
0001
0100
1000
0100
,  // measure 22
0010
0001
0100
0010
0010
1000
0010
1000
,  // measure 23
0000
0001
0100
0001
0100
1000
0100
0000
,  // measure 24
0010
1000
0100
0010
0010
0001
0010
0100
,  // measure 25
0000
1000
0100
1000
0100
0001
0100
2000
,  // measure 26
0000
3010
0100
1000
0100
0001
0000
0020
,  // measure 27
0000
0130
0001
0100
1000
0010
0100
0001
,  // measure 28
0020
0100
0032
1000
,  // measure 29
0203
0000
0010
0000
1300
0100
0001
2000
,  // measure 30
0000
3100
0010
0002
0000
0103
0010
2000
,  // measure 31
0000
3010
0100
0002
0000
0013
0100
1000
,  // measure 32
0001
0100
0001
0100
0010
1000
0010
1000
,  // measure 33
0200
0000
0000
0301
0000
0000
0100
1000
0100
1000
0000
0000
,  // measure 34
0100
1000
0001
0001
0100
0001
1000
1000
,  // measure 35
0100
0010
1000
0010
0001
0010
0100
1000
,  // measure 36
0010
0100
0010
0100
0001
1000
0001
1000
,  // measure 37
0002
0010
0103
1010
,  // measure 38
0100
0001
1000
1000
0100
1000
0001
0001
,  // measure 39
0100
0010
0001
0010
1000
0010
0100
0010
,  // measure 40
0100
0001
0010
0000
0010
0001
0100
0000
,  // measure 41
2010
3200
0001
1300
,  // measure 42
0010
0001
1000
1000
0010
1000
0001
0001
,  // measure 43
0010
0100
0001
0100
1000
0100
0010
0001
,  // measure 44
0100
0010
0100
0010
1000
0001
1000
0001
,  // measure 45
2000
0100
3010
0101
,  // measure 46
0010
1000
0001
0001
0010
0001
1000
1000
,  // measure 47
0010
0100
1000
0100
0001
0100
0010
0100
,  // measure 48
0010
1000
0100
0000
0100
1000
0010
0000
,  // measure 49
0102
0000
0023
0000
1000
0000
0031
1000
,  // measure 50
0100
0011
0100
1010
,  // measure 51
0100
0001
0010
0001
0100
0010
1000
0000
,  // measure 52
0101
0000
1000
0100
1000
0001
1000
0200
,  // measure 53
0000
0320
0000
0032
0000
1003
0010
0000
,  // measure 54
0100
1001
0010
1001
,  // measure 55
0100
1000
0010
1000
0100
0010
0001
1000
,  // measure 56
0200
0000
0310
0100
2000
0000
3010
0200
,  // measure 57
0000
0302
0000
0023
0000
0230
0000
1300
,  // measure 58
0002
0000
0000
0010
0000
0000
1003
0001
0100
0001
0000
0000
,  // measure 59
0010
0000
0010
0000
0001
0000
1000
0100
1000
0000
0001
0100
0001
0000
1000
0000
,  // measure 60
0010
0000
0010
0000
1000
0000
0001
0100
0001
0000
1000
0100
1000
0000
0001
0000
,  // measure 61
0100
0000
0100
0000
0001
0000
0010
0100
0010
0000
0100
1000
0100
0000
1000
0000
,  // measure 62
0010
0000
0010
0000
1000
0000
0010
0100
0010
0000
0100
0001
0100
0000
0001
0000
,  // measure 63
0010
0000
0100
0000
1000
0000
0001
0100
0001
0000
1000
0010
1000
0000
0001
0000
,  // measure 64
1000
0000
0100
0000
0010
0000
0001
0010
0001
0000
1000
0100
1000
0000
0001
0000
,  // measure 65
1000
0000
0100
0000
0010
0000
0100
1000
0100
0000
0010
0001
0010
0000
0100
0000
,  // measure 66
1000
0000
0000
0000
0000
0000
1000
0000
0000
0000
0000
0000
0010
0000
0000
0000
0000
0000
0100
0000
0000
0001
0000
0000
0100
0000
0000
0000
0010
0000
0000
0000
1000
0000
0000
0000
0001
0000
0000
0000
0000
0000
0000
0000
0000
0000
0000
0000
,  // measure 67
1001
0000
0000
0000
;

//---------------dance-single - ----------------
#NOTES:
     dance-single:
     :
     Medium:
     6:
     0.471,0.486,0.193,0.304,0.009:
0000
0000
0000
0000
,
0000
0000
0000
0000
,
0000
0000
0000
0000
,
0000
0000
0000
0000
,
1000
0000
0001
0000
1000
0100
1000
0000
,
0001
0000
1000
0000
0001
0100
0001
0000
,
1000
0000
0001
0000
1000
0010
1000
0000
,
0001
0000
1000
0000
0001
0010
0001
0000
,
2000
3100
0022
0033
,
0001
0010
0100
0000
1000
0010
1000
0000
,
0001
0100
0001
1001
,
2000
0010
3200
0310
,
1000
0100
1000
0000
0001
0100
0001
0000
,
1000
0010
0100
0000
0001
0010
0001
0000
,
1000
0100
1000
1001
,
0002
0010
0203
0310
,
0001
1000
2002
3003
,
1000
0000
0001
0000
0010
0100
0010
0001
,
0000
1000
0010
0000
0100
0001
0100
0000
,
0001
0000
1000
0000
0010
0100
0010
1000
,
0000
0001
0010
0000
0100
1000
0100
0000
,
0001
0000
1000
0000
0100
0010
0100
1000
,
0000
0001
0100
0000
0010
1000
0010
0000
,
1000
0000
0001
0000
0100
0010
0100
0001
,
0000
1000
0100
0000
0010
0001
0010
0000
,
0100
0000
0010
0000
0100
1000
0100
0000
,
0010
0000
0100
0000
0010
0001
0010
0000
,
0201
1300
0201
0310
,
0001
0010
0100
1100
,
0010
0100
1000
0000
0010
0100
0001
0000
,
1000
0100
0010
0000
0100
1000
0001
0000
,
1020
0130
1020
0031
,
2020
3030
0202
0303
,
0001
0010
0100
0000
1000
0010
1000
0000
,
0001
0100
0001
1001
,
2000
0010
3200
0310
,
1000
0100
1000
0000
0001
0100
0001
0000
,
1000
0010
0100
0000
0001
0010
0001
0000
,
1000
0100
1000
1001
,
0002
0010
0203
0310
,
0001
1000
2002
3003
,
1000
0100
0010
0000
0001
0100
0001
0000
,
1000
0010
1000
1001
,
0002
0100
0023
0130
,
0001
0010
0001
0000
1000
0010
1000
0000
,
0001
0100
0010
0000
1000
0100
1000
0000
,
0001
0010
0001
1001
,
2000
0100
3020
0130
,
1000
0000
0010
0000
0100
0000
0001
1000
,
0100
0010
0100
0010
,
0001
0000
0100
0010
1000
0000
0010
0000
,
0210
0001
0010
0301
,
0120
1000
0100
1030
,
0100
0001
0100
0000
0010
1000
0010
0000
,
1000
0100
0010
0001
,
0120
1000
0100
1030
,
0210
0001
0010
0301
,
0020
0000
0200
0330
,
0001
1000
0100
1000
0010
0000
0010
0000
,
1000
0001
0100
0001
0010
0000
0010
0000
,
0001
1000
0010
1000
0100
0000
0100
0000
,
1000
0001
0010
0001
0100
0000
0100
0000
,
0010
1000
0100
1000
0001
0000
1000
0000
,
0001
0100
0001
0010
0100
0000
0010
0000
,
0100
1000
0100
0010
0001
0000
1000
0000
,
0001
0000
0000
0100
0000
0000
0010
0000
0000
1000
0000
0000
0001
0000
1000
0000
0001
0000
1000
0000
0000
0000
0000
0000
,
1001
0000
0000
0000
;

//---------------dance-single - ----------------
#NOTES:
     dance-single:
     :
     Easy:
     4:
     0.302,0.304,0.101,0.000,0.000:
0000
0000
0000
0000
,
0000
0000
0000
0000
,
0000
0000
0000
0000
,
0000
0000
0000
0000
,
0100
0010
0100
0001
,
0010
0100
0010
0001
,
0100
0010
0100
1000
,
0010
0100
0010
1000
,
0100
0001
0010
0001
,
1000
0010
1000
0100
,
1000
0100
0010
1000
,
0001
0001
0010
0010
,
0000
0001
1000
0101
,
1000
0100
1000
0010
,
1000
0010
0100
1000
,
1000
0001
0001
1000
,
0101
1010
0001
0100
,
0001
0010
0001
0100
,
0000
0010
0100
0010
,
0001
0100
0001
0010
,
0000
0100
0010
0100
,
0001
1000
0001
0001
,
0000
1000
1000
1000
,
0001
1000
0001
0001
,
0000
1000
1000
1000
,
0000
1000
1000
0000
,
0000
0010
0100
1000
,
0000
1000
0000
0100
,
0000
0001
0100
0010
,
0000
0001
0000
0001
,
0000
1000
0000
1000
,
0010
0010
0001
0001
,
0000
0010
1000
0100
,
1000
0010
1000
0100
,
1000
0100
0010
1000
,
0001
0001
0010
0010
,
0000
0001
1000
0101
,
1000
0100
1000
0010
,
1000
0010
0100
1000
,
1000
0001
0001
1000
,
0001
0000
0010
0100
,
0001
0100
0001
0010
,
0001
0010
0100
0001
,
1000
1000
0100
0100
,
0000
1000
0001
1010
,
0001
0010
0001
0100
,
0001
0100
0010
0001
,
0001
1000
1000
0001
,
1000
0000
0100
0010
,
1000
0011
1000
0101
,
1000
0001
1000
0100
,
1010
0100
0100
0100
,
0000
0000
0000
0001
,
1000
0110
0001
0110
,
1000
0001
1000
0010
,
0000
0001
0000
0001
,
0000
0000
0000
0000
,
0000
0001
0100
0010
,
0001
0010
0100
0010
,
0001
0100
0010
0100
,
1000
0010
0001
1000
,
0001
0100
0001
1000
,
0001
0100
0010
0100
,
0100
0001
0010
0100
,
0100
0001
1000
0001
,
0100
0001
1000
0010
,
0110
0000
0000
0000
;
