#TITLE:Surfin' Summer;
#SUBTITLE:;
#ARTIST:Richard Myhill;
#TITLETRANSLIT:;
#SUBTITLETRANSLIT:;
#ARTISTTRANSLIT:;
#CREDIT:;
#BANNER:Surfin' Summer.png;
#BACKGROUND:Surfin' Summer-bg.png;
#LYRICSPATH:;
#CDTITLE:;
#MUSIC:Surfin' Summer.mp3;
#OFFSET:-0.088;
#SAMPLESTART:47.430;
#SAMPLELENGTH:16.420;
#SELECTABLE:YES;
#BPMS:0.000=162.000;
#STOPS:;
#BGCHANGES:;

//---------------dance-single - ----------------
#NOTES:
     dance-single:
     :
     Hard:
     8:
     0.635,0.667,0.327,0.826,0.014:
0000
0000
0000
0000
,
0000
0000
0000
0000
,
0000
0000
0000
0000
,
0000
0000
0000
0000
,
1000
0100
0001
0200
0000
1300
0010
0010
,
1000
0010
0001
0020
0000
1030
0100
0100
,
0010
0001
0100
0002
0000
1003
0001
0001
,
1000
0100
1000
0020
0000
1030
0100
0100
,
0010
0000
0001
0100
0001
1000
0100
0000
,
2000
0000
3020
0000
0130
0000
0001
0100
,
0010
0000
1000
1000
0100
1000
0001
0000
,
0200
0000
0010
0310
0100
0000
0110
0000
,
0010
1000
0100
0002
0000
0103
0000
1000
,
0010
0100
0001
1000
0001
0000
0100
0010
,
1000
0000
0001
0001
0100
0010
1000
0000
,
0020
0000
0100
0130
0010
0000
1001
0000
,
0002
0000
0203
0000
0310
0000
0100
0002
,
0000
1000
1003
0000
1001
0000
1000
0010
,
0200
0000
0320
0000
1030
0000
0001
0200
,
0000
0310
0000
0100
0001
0010
0100
1000
,
0002
0103
2000
3100
,
0001
0100
0010
0000
1010
0000
0010
0100
,
0002
0000
1003
0000
0100
0010
0001
0000
,
2000
0000
0001
0001
3100
0000
1001
0001
,
0200
0000
0320
0000
1030
0000
0010
0100
,
0001
0010
0100
1000
0002
0000
1000
1000
,
0103
0000
0202
0000
0303
2020
0000
3030
,
2200
0000
3300
0022
0000
0033
0010
0000
,
0100
1000
0010
0001
0200
0000
0310
0100
,
0010
1000
0001
0100
2000
0000
0100
0100
,
3100
0000
2200
0000
3300
0022
0000
0033
,
0202
0000
0303
2020
0000
3030
1001
0000
,
0002
0000
0203
0000
1300
0000
0100
0002
,
0000
0010
0013
0000
0011
0000
0001
0010
,
2000
0000
3020
0000
0031
0000
0100
0020
,
0000
1030
0000
0001
0100
1000
0100
0001
,
2000
3010
0002
0013
,
1000
0100
0010
0000
0011
0000
0001
0100
,
0020
0000
1030
0000
0001
0100
0010
0000
,
1000
0000
0000
0000
1100
0000
0000
0000
0110
0000
0000
0010
0001
0000
1000
0000
,
0001
0100
0010
0100
0000
0002
1000
1003
,
0001
1000
0100
0010
0000
0200
1000
1300
,
0100
0010
0001
0100
0000
0020
1000
1030
,
0010
0100
0001
0010
0000
0200
1000
1300
,
0002
0010
0100
1003
,
2000
0010
0100
3001
,
1002
0010
0100
1003
,
1001
0000
0000
0001
0100
0000
0010
0000
0000
0010
0100
0000
0001
0000
1000
0000
,
0100
0000
0010
0001
0010
0100
1000
0000
,
0002
0000
1000
1003
0000
0001
0100
0000
,
0110
0000
0010
1000
0010
0100
0001
0000
,
2000
0000
0100
3100
0000
0010
0001
1000
,
1001
0000
0001
0100
2000
0000
3100
0000
,
1100
0000
0100
0001
0000
0010
1000
0010
,
0001
0000
2200
0000
3300
0022
0000
0033
,
0202
0000
0303
2020
0000
3030
0001
0100
,
1000
0000
0001
0010
1000
0000
0001
0100
,
0010
0100
0001
0020
0000
0100
0130
0000
,
0010
0000
0022
0000
0033
2200
0000
3300
,
2020
0000
3030
0202
0000
0303
1001
0000
,
0002
0000
0203
0000
1300
0000
0100
0002
,
0000
0010
0013
0000
0011
0000
0001
0010
,
2000
0000
3020
0000
0031
0000
0100
0020
,
0000
1030
0000
0001
0100
1000
0100
0001
,
2000
3010
0002
0013
,
1000
0010
0000
1000
0010
0001
0010
0100
,
0002
0013
2000
3010
,
0001
1000
0000
0001
0100
1000
0100
0001
,
2000
3010
0002
0103
,
1000
0010
0100
0000
1001
0000
0001
0010
,
0200
0000
0310
0000
0001
1000
0010
0000
,
0110
0000
2002
0000
,
0000
0000
0000
0000
,
0000
0000
3003
0000
;

//---------------dance-single - ----------------
#NOTES:
     dance-single:
     :
     Beginner:
     2:
     0.128,0.162,0.009,0.000,0.000: // measure 1
0000
0000
0000
0000
,  // measure 2
0000
0000
0000
0000
,  // measure 3
0000
0000
0000
0000
,  // measure 4
0000
0000
0000
0000
,  // measure 5
1000
0000
0000
0000
,  // measure 6
0001
0000
0000
0000
,  // measure 7
0100
0000
0000
0000
,  // measure 8
0010
0000
0000
0000
,  // measure 9
1000
0000
0000
0000
,  // measure 10
0001
0000
0001
0000
,  // measure 11
0001
0000
0000
0000
,  // measure 12
0010
0000
0000
0000
,  // measure 13
0100
0000
0000
0000
,  // measure 14
1000
0000
1000
0000
,  // measure 15
1000
0000
0000
0000
,  // measure 16
0001
0000
0000
0000
,  // measure 17
0010
0000
0010
0000
,  // measure 18
0010
0000
0000
0000
,  // measure 19
0100
0000
0100
0000
,  // measure 20
0100
0000
0000
0000
,  // measure 21
1000
0000
1000
0000
,  // measure 22
0001
0000
0001
0000
,  // measure 23
0100
0000
0000
0000
,  // measure 24
0010
0000
0000
0000
,  // measure 25
1000
0000
0000
0000
,  // measure 26
0100
0000
0100
0000
,  // measure 27
0100
0000
0000
0000
,  // measure 28
1000
0000
0000
0000
,  // measure 29
0010
0000
0000
0000
,  // measure 30
0100
0000
0100
0000
,  // measure 31
0100
0000
0000
0000
,  // measure 32
0001
0000
0000
0000
,  // measure 33
0010
0000
0010
0000
,  // measure 34
0010
0000
0000
0000
,  // measure 35
0100
0000
0100
0000
,  // measure 36
0100
0000
0000
0000
,  // measure 37
0010
0000
0010
0000
,  // measure 38
0001
0000
0001
0000
,  // measure 39
1000
0000
0000
0000
,  // measure 40
0001
0000
0000
0000
,  // measure 41
0100
0000
0100
0000
,  // measure 42
0010
0000
0010
0000
,  // measure 43
1000
0000
1000
0000
,  // measure 44
0001
0000
0001
0000
,  // measure 45
1000
0000
0000
0000
,  // measure 46
0010
0000
0000
0000
,  // measure 47
0100
0000
0000
0000
,  // measure 48
0001
0000
0001
0000
,  // measure 49
1000
0000
0000
0000
,  // measure 50
0010
0000
0000
0000
,  // measure 51
0100
0000
0000
0000
,  // measure 52
0001
0000
0001
0000
,  // measure 53
0001
0000
0000
0000
,  // measure 54
0010
0000
0010
0000
,  // measure 55
0010
0000
0000
0000
,  // measure 56
0100
0000
0000
0000
,  // measure 57
1000
0000
0000
0000
,  // measure 58
0001
0000
0001
0000
,  // measure 59
0001
0000
0000
0000
,  // measure 60
1000
0000
0000
0000
,  // measure 61
0010
0000
0010
0000
,  // measure 62
0010
0000
0000
0000
,  // measure 63
0100
0000
0100
0000
,  // measure 64
0100
0000
0000
0000
,  // measure 65
0001
0000
0001
0000
,  // measure 66
1000
0000
1000
0000
,  // measure 67
0010
0000
0010
0000
,  // measure 68
0100
0000
0100
0000
,  // measure 69
0001
0000
0001
0000
,  // measure 70
1000
0000
1000
0000
,  // measure 71
0010
0000
0010
0000
,  // measure 72
0100
0000
1001
0000
;

//---------------dance-single - ----------------
#NOTES:
     dance-single:
     :
     Easy:
     4:
     0.319,0.325,0.100,0.272,0.000: // measure 1
0000
0000
0000
0000
,  // measure 2
0000
0000
0000
0000
,  // measure 3
0000
0000
0000
0000
,  // measure 4
0000
0000
0000
0000
,  // measure 5
1000
0100
1000
0100
,  // measure 6
0010
0001
0010
0001
,  // measure 7
0100
0001
0100
0010
,  // measure 8
1000
0010
1000
0010
,  // measure 9
0100
0000
0001
0000
,  // measure 10
1000
0100
0001
0100
,  // measure 11
1000
0000
1001
0000
,  // measure 12
0001
0000
1001
0000
,  // measure 13
0001
0100
0010
0000
,  // measure 14
1000
0010
0001
0010
,  // measure 15
1000
0000
1001
0000
,  // measure 16
0001
0000
1001
0000
,  // measure 17
0001
0100
0010
1000
,  // measure 18
0020
0000
0130
0000
,  // measure 19
0001
0010
0100
1000
,  // measure 20
0200
0000
0310
0100
,  // measure 21
2000
3000
0002
0003
,  // measure 22
0200
0300
0010
1000
,  // measure 23
0200
0300
1000
0000
,  // measure 24
0100
0010
0001
0000
,  // measure 25
1000
0010
0100
0001
,  // measure 26
1000
0100
0010
0001
,  // measure 27
2000
0000
3001
0000
,  // measure 28
0200
0000
0310
0000
,  // measure 29
1000
0010
0001
0010
,  // measure 30
1000
0100
0001
0100
,  // measure 31
2000
0000
3001
0000
,  // measure 32
0200
0000
0310
0000
,  // measure 33
1000
0100
0010
0001
,  // measure 34
0020
0000
0130
0000
,  // measure 35
1000
0010
0100
0001
,  // measure 36
0200
0000
0310
1000
,  // measure 37
0002
0003
2000
3000
,  // measure 38
0020
0030
0100
0001
,  // measure 39
0020
0030
0100
0000
,  // measure 40
1000
0001
0100
0010
,  // measure 41
1000
1000
1000
1000
,  // measure 42
0001
0001
0001
0001
,  // measure 43
0100
0100
0100
0100
,  // measure 44
0010
0010
0010
0010
,  // measure 45
0110
0000
0000
0000
,  // measure 46
1001
0000
0000
0000
,  // measure 47
1100
0000
0000
0000
,  // measure 48
0101
0100
0010
1000
,  // measure 49
1001
0001
0010
0100
,  // measure 50
0010
0010
0001
0001
,  // measure 51
0100
0010
1000
0100
,  // measure 52
1000
1000
0010
0010
,  // measure 53
1000
0100
0010
0001
,  // measure 54
1000
0010
0100
0001
,  // measure 55
2000
0000
3001
0000
,  // measure 56
0200
0000
0310
0000
,  // measure 57
1000
0100
0001
0100
,  // measure 58
1000
0010
0001
0010
,  // measure 59
2000
0000
3010
0000
,  // measure 60
0002
0000
0103
0000
,  // measure 61
0010
1000
0010
0100
,  // measure 62
0002
0000
1003
0000
,  // measure 63
0001
0010
0100
1000
,  // measure 64
0200
0000
0310
0100
,  // measure 65
2000
3000
0002
0003
,  // measure 66
0200
0300
0010
1000
,  // measure 67
0200
0300
2000
3000
,  // measure 68
0001
0000
0100
0010
,  // measure 69
2000
3000
0002
0003
,  // measure 70
0020
0030
0100
1000
,  // measure 71
0001
0100
0010
1000
,  // measure 72
1001
0000
0110
0000
;

//---------------dance-single - ----------------
#NOTES:
     dance-single:
     :
     Medium:
     6:
     0.508,0.500,0.318,0.508,0.000: // measure 1
0000
0000
0000
0000
,  // measure 2
0000
0000
0000
0000
,  // measure 3
0000
0000
0000
0000
,  // measure 4
0000
0000
0000
0000
,  // measure 5
1000
0000
0100
0000
0010
0000
0001
0100
,  // measure 6
0001
0000
0100
0000
0010
0000
1000
0001
,  // measure 7
1000
0000
0001
0000
0100
0000
0010
1000
,  // measure 8
0010
0000
0100
0000
0001
0000
1000
0100
,  // measure 9
1000
0000
0100
0000
0010
0001
0010
0000
,  // measure 10
0002
0203
0320
2030
,  // measure 11
3001
0000
1000
0000
0100
0010
0100
0000
,  // measure 12
1000
0000
0001
1000
0001
0000
0101
0000
,  // measure 13
1000
0010
1000
0010
0000
0100
0000
0001
,  // measure 14
0010
0100
1000
0001
,  // measure 15
1000
0000
1001
0000
0010
0100
0010
0000
,  // measure 16
1000
0000
0001
1000
0001
0000
0101
0000
,  // measure 17
0200
0320
2030
3002
,  // measure 18
1003
1100
0001
0101
,  // measure 19
2000
3020
0230
0302
,  // measure 20
2003
0000
3001
0000
0100
0010
0100
0000
,  // measure 21
0002
0013
2000
3010
,  // measure 22
0002
0103
2000
3100
,  // measure 23
0001
0000
1000
0000
0001
0010
0001
0000
,  // measure 24
1000
0010
0100
0001
,  // measure 25
1001
0000
0001
0000
0100
0010
0100
0000
,  // measure 26
0001
0000
0010
0000
0100
0010
0100
0000
,  // measure 27
0010
0000
0011
0000
0000
1100
0000
0000
,  // measure 28
0101
0000
0000
1010
0000
0000
1001
0000
,  // measure 29
1000
0100
1000
0100
1000
0000
0001
0000
,  // measure 30
0100
0010
0100
0000
0010
0000
1000
0001
,  // measure 31
1000
0000
0101
0000
0000
1010
0000
0000
,  // measure 32
1100
0000
0000
0011
0000
0000
1001
0000
,  // measure 33
0020
0230
0302
2003
,  // measure 34
3001
0011
1000
1010
,  // measure 35
0002
0203
0320
2030
,  // measure 36
3002
0000
1003
0000
0010
0100
0010
0000
,  // measure 37
2000
3100
0002
0103
,  // measure 38
2000
3010
0002
0013
,  // measure 39
1000
0000
0001
0000
1000
0100
1000
0000
,  // measure 40
0001
0100
0010
1000
,  // measure 41
1001
0000
1000
0000
0001
0000
0100
0010
,  // measure 42
0100
0000
0001
0000
0010
0000
0100
1000
,  // measure 43
0100
0000
0010
0000
0001
0000
1000
0010
,  // measure 44
0100
0000
0001
0000
0010
0000
0100
1000
,  // measure 45
0002
1000
1000
1003
,  // measure 46
2000
0001
0001
3001
,  // measure 47
1002
1000
1000
1003
,  // measure 48
0001
1000
0001
1000
0001
1000
0001
1000
,  // measure 49
0001
0000
0100
0000
0010
1000
0010
0000
,  // measure 50
0100
0000
0001
1000
0001
0000
1001
0000
,  // measure 51
0001
0000
0010
0000
0100
1000
0100
0000
,  // measure 52
0010
0000
0001
1000
0001
0000
0101
0000
,  // measure 53
0100
0000
0010
1000
0010
0000
0100
0000
,  // measure 54
0001
0000
1000
0100
0000
0100
1000
0000
,  // measure 55
0010
0000
0110
0000
0000
0101
0000
0000
,  // measure 56
1001
0000
0000
1010
0000
0000
0010
0000
,  // measure 57
0100
0000
0001
0100
0010
0000
1000
0000
,  // measure 58
0100
0000
0010
0001
0000
0001
0010
0000
,  // measure 59
0100
0000
1100
0000
0000
0011
0000
0000
,  // measure 60
0101
0000
0000
1010
0000
0000
1001
0000
,  // measure 61
0200
0320
2030
3002
,  // measure 62
1003
1100
0001
0101
,  // measure 63
2000
3020
0230
0302
,  // measure 64
2003
0000
3001
0000
0100
0010
0100
0000
,  // measure 65
0002
0013
2000
3010
,  // measure 66
0002
0103
2000
3100
,  // measure 67
0002
0013
2000
3010
,  // measure 68
0002
0103
2000
3100
,  // measure 69
0002
0013
2000
3100
,  // measure 70
0002
0013
2000
3100
,  // measure 71
0001
0000
0010
0000
0100
1000
0001
0000
,  // measure 72
1001
0000
0220
0000
,  // measure 73
0000
0000
0000
0000
,  // measure 74
0000
0000
0330
0000
;
