#VERSION:0.81;
#TITLE:Summer's Not Hot;
#SUBTITLE:;
#ARTIST:Selena Gomez;
#TITLETRANSLIT:;
#SUBTITLETRANSLIT:;
#ARTISTTRANSLIT:;
#GENRE:;
#ORIGIN:;
#CREDIT:;
#BANNER:[Beach Party] - Summer's Not Hot.png;
#BACKGROUND:[Beach Party] - Summer's Not Hot-bg.png;
#PREVIEWVID:;
#JACKET:[Beach Party] - Summer's Not Hot-jacket.png;
#CDIMAGE:;
#DISCIMAGE:;
#LYRICSPATH:;
#CDTITLE:;
#MUSIC:[Beach Party] - Summer's Not Hot.mp3;
#OFFSET:-0.298;
#SAMPLESTART:25.420;
#SAMPLELENGTH:20.000;
#SELECTABLE:YES;
#BPMS:0.000=148.990;
#STOPS:;
#DELAYS:;
#WARPS:;
#TIMESIGNATURES:0.000=4=4;
#TICKCOUNTS:0.000=4;
#COMBOS:0.000=1;
#SPEEDS:0.000=1.000=0.000=0;
#SCROLLS:0.000=1.000;
#FAKES:;
#LABELS:0.000=Song Start;
#BGCHANGES:;
#KEYSOUNDS:;
#ATTACKS:
;

//---------------dance-single - Blank----------------
#NOTEDATA:;
#CHARTNAME:;
#STEPSTYPE:dance-single;
#DESCRIPTION:Blank;
#CHARTSTYLE:;
#DIFFICULTY:Hard;
#METER:8;
#RADARVALUES:0.561,0.565,0.415,0.117,0.008,434.000,53.000,15.000,0.000,0.000,0.000,0.000,0.000,0.561,0.565,0.415,0.117,0.008,434.000,53.000,15.000,0.000,0.000,0.000,0.000,0.000;
#CREDIT:;
#NOTES:
0000
0000
0000
0000
,
0000
0000
0000
0000
,
0001
0001
1001
1000
1000
1000
1001
0001
,
0001
0001
1001
1000
1000
1000
1001
0000
,
0001
1000
0001
1000
0001
1000
0001
1000
,
0010
0100
0010
0100
0010
0100
0010
0100
,
0010
0000
0000
0001
0100
0000
0000
0000
,
1000
0000
0001
0010
0100
0000
0000
0000
0000
0000
0000
0000
0000
0000
0001
0000
,
0100
0000
0010
0000
0100
1000
0100
0010
,
0001
0000
0010
0000
0001
0100
0010
1000
,
1100
0000
0101
0000
0010
1000
0001
0100
,
0011
0000
1010
0000
0001
0000
0100
0010
,
1000
0010
0100
0001
0010
0000
0001
0100
,
0001
0010
0100
1000
0000
0010
1000
0010
,
0000
0010
0100
0001
0010
0001
0100
0010
,
1000
0001
0100
0000
1001
0000
0000
0000
,
2001
0001
0001
3001
,
1002
0000
1000
0000
1000
0000
1003
0010
,
0100
0001
0010
0000
0010
0000
0001
0100
,
0010
1000
0100
1000
0010
0000
1010
0000
,
0001
0000
0001
0000
0001
0000
0001
0100
,
0000
0001
0000
0010
0000
0010
0000
1000
,
0001
0000
0100
0000
1000
0000
0010
0100
,
0000
0001
0000
0000
0010
0000
0010
0001
,
1000
0100
1000
0010
1000
0100
1000
0010
,
0100
0010
0100
0010
0100
0010
0000
0001
,
1000
0001
1000
0001
0100
0001
0100
0001
,
0010
0001
0010
0001
0010
0001
0000
0000
,
0010
0000
0010
0000
0010
1000
0100
1000
,
0000
0010
0000
0000
0000
0000
0000
0001
,
0100
0001
0011
0000
0110
0000
0000
0010
,
1000
0010
0110
0000
1010
0000
0001
0100
,
0000
0001
0000
0001
0200
0000
2300
0000
,
3001
0000
0001
0100
0001
0000
0010
0000
,
0001
0000
0100
0010
1010
0000
0101
0000
,
0011
0110
0011
1001
,
0010
1000
0100
0010
,
0101
1010
1000
0100
,
1010
0101
0010
0100
,
0110
1001
0010
0100
,
2000
0000
0200
3000
0020
0300
0002
0030
,
0200
0003
0320
0000
2030
0000
3001
0010
,
0100
1000
0000
0010
0000
0100
0000
0010
,
0000
0001
0000
0010
0100
1000
0110
0000
,
0110
0000
0001
1000
0001
0100
0010
0000
,
0101
0000
1000
0100
0010
0100
0001
0000
,
1010
0000
0001
0100
0010
0000
1100
0000
,
0011
0000
0110
0100
0001
0010
0001
0000
,
0110
0000
0001
1000
0010
0100
0001
0010
,
0001
0100
0010
1000
0001
0000
1000
0001
,
0000
0000
0100
0010
1000
0001
0100
0010
,
1010
0101
0011
1001
,
0001
1000
0001
1000
0001
1000
0001
1000
,
0100
1000
0100
1000
0100
1000
0100
1000
,
0100
0010
0100
0010
0100
0010
0100
0010
,
0001
0100
0010
1000
1001
0000
1010
0000
,
0010
0100
0010
0100
0010
0100
0010
0100
,
0001
0100
0001
0100
0001
0100
0001
0100
,
0001
0010
0001
0010
0001
0010
0001
0010
,
1000
0010
1000
0010
1000
0010
1000
0010
,
1000
0001
0100
0010
1010
1010
0101
0101
,
0001
0010
0100
1000
0010
0100
0000
0001
,
0010
0010
0001
0001
0100
0100
0010
0010
,
1000
0010
0100
0010
1010
0101
0000
0000
,
0001
0000
0010
0000
0100
0000
1000
0010
,
0000
0001
0000
0000
0001
0000
1000
0100
,
0010
0100
0010
0000
1100
0000
0010
0100
,
0001
0010
0001
0010
1000
0001
0100
0000
,
2100
0000
0100
0100
0000
0100
0100
3000
,
0201
0000
0001
0001
0000
0000
0000
0301
,
0001
0100
0010
0100
0010
1000
0001
0100
,
0000
0000
0000
0001
0010
0100
0010
0000
,
0120
0000
0100
0100
0000
0100
0130
0000
,
2100
0000
0100
0100
0000
3000
0000
0010
,
0100
0001
0010
0001
0100
0010
1000
0001
,
0100
0000
0010
0000
1000
0000
0001
0000
0100
0000
0010
0000
1000
0000
0001
1000
;

//---------------dance-single - Blank----------------
#NOTEDATA:;
#CHARTNAME:;
#STEPSTYPE:dance-single;
#DESCRIPTION:Blank;
#CHARTSTYLE:;
#DIFFICULTY:Medium;
#METER:5;
#RADARVALUES:0.378,0.356,0.250,0.055,0.000,299.000,32.000,7.000,0.000,0.000,0.000,0.000,0.000,0.378,0.356,0.250,0.055,0.000,299.000,32.000,7.000,0.000,0.000,0.000,0.000,0.000;
#CREDIT:;
#NOTES:
0000
0000
0000
0000
,
0000
0000
0000
0000
,
0001
0000
0000
1000
0001
0000
0000
1000
,
0001
0000
0000
1000
0001
0000
0100
0000
,
1000
0020
0000
0000
0000
0000
0000
0000
,
0000
0000
0000
0000
0000
0000
0000
1000
,
2030
0000
0000
0000
0002
3000
0000
0000
,
0203
0010
0310
0000
0000
0000
0000
0000
,
0001
0000
0001
0000
0001
0000
0001
0010
,
0001
0000
0010
0000
0100
0000
1000
0010
,
1000
0000
0010
0000
0001
0000
0100
1000
,
0100
0000
0001
0000
0100
0000
0010
1000
,
0001
0000
0100
0000
0010
0000
0001
0100
,
0010
0010
0001
1000
,
1100
0000
0010
0000
0010
0000
0010
0100
,
0001
1000
0001
0000
,
0010
0010
0010
0010
,
0100
0100
0100
0100
,
0001
1000
0001
0000
1000
0000
0001
0000
,
0010
0100
0010
0000
0100
0000
0010
0000
,
0001
0000
0001
0000
0001
0000
0001
0010
,
1000
1000
1000
1000
,
0101
0000
0011
0000
1100
0000
0010
0001
,
0000
2000
0000
0000
3010
0000
0010
0000
,
0001
0100
0001
0000
0100
1000
0100
0000
,
0010
0010
0010
0000
,
0010
1000
0010
0000
0001
0100
0001
0000
,
0001
1000
0101
0000
,
0010
0010
0010
0110
,
0100
0100
0100
0110
,
0001
1000
1001
0000
,
0010
0100
0110
0001
,
0001
0000
0001
1000
0001
0000
0110
0000
,
0100
0000
0100
0001
0100
0000
0100
0000
,
0001
0000
0001
0100
0001
0000
0001
0000
,
1000
1000
0100
1001
,
0010
0100
0001
0010
,
0001
0010
0001
1000
,
0100
0010
0100
0001
,
0010
0001
0100
0000
0010
0000
1000
0000
,
2100
0100
0010
0001
,
0100
0000
0001
0000
0010
0000
0001
3100
,
0002
0010
0100
0100
,
1000
0000
0100
0000
0010
0000
1000
0003
,
0101
1010
0000
0101
,
0000
0011
0000
1001
,
0000
0110
0000
0011
,
0000
1001
0000
0110
,
1010
0101
0000
0011
,
0000
0110
0000
0011
,
0000
1100
0000
0110
,
1010
0101
0011
1001
,
0010
0010
0010
0010
,
0100
0100
0100
0100
,
0001
1000
0010
0000
0001
0000
0100
0000
,
0001
0010
0100
0000
1000
0000
0010
0000
,
0001
0000
0001
0000
0001
0000
0100
0010
,
0000
0010
0000
0000
0000
0000
0000
0001
,
0100
0000
1000
0000
0001
0000
0100
0010
,
0000
0100
0000
0000
0000
0000
0000
0001
,
0100
0000
0100
0000
0100
0010
0001
0000
,
1000
0000
0100
0000
0010
0000
0000
0001
,
1000
0100
0010
0001
,
1000
0001
1000
0000
,
0010
0010
0010
0001
,
1000
0000
1000
0001
1000
0000
1000
0010
,
0100
0000
0100
0000
0010
0000
0010
1000
,
0001
0001
0001
0001
,
0100
0100
0100
0100
,
0001
0001
0001
0001
,
1000
0001
1000
0000
0010
0000
0100
0000
,
0010
0100
0010
0000
0001
0000
1000
0000
,
0100
0000
0100
0000
0100
1000
0010
0000
,
0100
0000
0100
0000
0001
0010
0001
0000
,
0100
0010
1000
0001
,
0100
0000
0010
0000
1000
0001
1000
0001
;

//---------------dance-single - Blank----------------
#NOTEDATA:;
#CHARTNAME:;
#STEPSTYPE:dance-single;
#DESCRIPTION:Blank;
#CHARTSTYLE:;
#DIFFICULTY:Easy;
#METER:4;
#RADARVALUES:0.301,0.297,0.110,0.016,0.000,253.000,14.000,2.000,0.000,0.000,0.000,0.000,0.000,0.301,0.297,0.110,0.016,0.000,253.000,14.000,2.000,0.000,0.000,0.000,0.000,0.000;
#CREDIT:;
#NOTES:
0000
0000
0000
0000
,
0000
0000
0000
0000
,
0001
0000
1000
0000
,
0001
1000
0001
0000
,
0220
0000
0000
0000
,
0000
0000
0000
0000
,
0000
0000
0000
0000
,
0000
0000
0000
0330
,
0001
0000
1000
0000
,
0010
1000
0010
0001
,
0100
0000
0001
0000
,
0100
0001
1000
0010
,
0100
0100
0100
0000
,
0010
0010
0010
0000
,
1000
1000
0001
0001
,
0110
1001
0110
0000
,
0001
0001
0001
0001
,
1000
1000
1000
1000
,
0010
0100
0001
1000
,
0001
1000
1001
1001
,
0010
0100
0010
0100
,
0001
1000
0001
1000
,
0010
0001
0100
0010
,
0001
1000
0100
1000
,
0010
0100
1010
1001
,
0010
0100
0001
0000
,
0100
0100
1000
1000
,
0010
0100
0010
0000
,
0001
1000
0100
0010
,
0001
0010
0001
1000
,
0010
0100
1010
0000
,
0001
0100
0011
0000
,
0001
0001
1000
1000
,
0010
0010
0100
0100
,
0001
1000
0010
0100
,
0001
1000
0001
1001
,
0010
0010
1000
0100
,
1000
0100
0001
0010
,
0100
0100
0001
0100
,
0010
0010
1000
0010
,
0100
0001
0010
0001
,
0100
0010
1000
0000
,
0010
0100
0001
0010
,
0001
0000
0100
1000
,
0010
0000
0001
0100
,
0010
0000
0001
1000
,
0010
0000
0001
0100
,
0010
0000
0010
0000
,
0001
1000
0100
0000
,
0001
0100
0010
0000
,
0001
1000
0100
0000
,
0001
0100
0010
0010
,
0001
1000
1000
0000
,
0010
0100
0001
0000
,
0010
1000
0001
0100
,
0001
0010
0100
0010
,
0001
0001
0100
0100
,
0010
0010
1000
1000
,
0001
0100
0010
0001
,
1000
0100
0010
0100
,
0001
1000
0001
1000
,
0010
0100
0010
0100
,
0010
1000
0010
1000
,
0001
1000
1001
0000
,
0010
0010
0010
0010
,
0100
0100
0100
0100
,
0001
1000
1001
0000
,
0010
0100
0110
0000
,
0001
0001
0100
0100
,
0010
0010
1000
1000
,
0001
0100
0010
0001
,
0100
0010
0001
0100
,
1000
1000
0010
0100
,
0001
0001
0010
0100
,
0001
0010
0001
0100
,
0010
1000
0001
0100
,
0010
0000
0000
0000
;

//---------------dance-single - Blank----------------
#NOTEDATA:;
#CHARTNAME:;
#STEPSTYPE:dance-single;
#DESCRIPTION:Blank;
#CHARTSTYLE:;
#DIFFICULTY:Beginner;
#METER:1;
#RADARVALUES:0.183,0.178,0.125,0.000,0.000,148.000,16.000,0.000,0.000,0.000,0.000,0.000,0.000,0.183,0.178,0.125,0.000,0.000,148.000,16.000,0.000,0.000,0.000,0.000,0.000,0.000;
#CREDIT:;
#NOTES:
0000
0000
0000
0000
,
0000
0000
0000
0000
,
0001
0000
0001
0000
,
1000
0000
1000
0000
,
1001
0000
0000
0000
,
0000
0000
0000
0000
,
0110
0000
0000
0000
,
0000
0000
0000
0000
,
1000
1000
0000
0000
,
0001
0001
0000
0000
,
1000
1000
0000
0000
,
0010
0010
0000
0000
,
1000
1000
0000
0000
,
0001
0001
0000
0000
,
0010
0010
0000
0000
,
0100
0100
0000
0000
,
0010
0000
0010
0000
,
0010
0000
0010
0000
,
0100
0000
0100
0000
,
0100
0000
0100
0000
,
0001
0000
0001
0000
,
0001
0000
0001
0000
,
1000
0000
1000
0000
,
1000
0000
1000
0000
,
0010
0000
0100
0000
,
0001
0001
0001
0000
,
1000
0000
0100
0000
,
1000
1000
1000
0000
,
0010
0000
0010
0000
,
0100
0000
0100
0000
,
1000
1000
1000
0000
,
0001
0001
0001
0000
,
0010
0000
0010
0000
,
0100
0000
0100
0000
,
0001
0000
0001
0000
,
1000
0000
0001
0000
,
0010
0000
0010
0000
,
0100
0000
0100
0000
,
0001
0000
0001
0000
,
1000
0000
1000
0000
,
0010
0000
0010
0000
,
0001
0000
0001
0000
,
1000
0000
1000
0000
,
0010
0000
0010
0000
,
1001
0000
0000
0000
,
0110
0000
0000
0000
,
0110
0000
0000
0000
,
1001
0000
0000
0000
,
0010
0000
0001
0000
,
0100
0000
1000
0000
,
0010
0000
0100
0000
,
0001
0001
0001
0000
,
1000
1000
1000
0000
,
0010
0010
0010
0000
,
0001
0000
1000
0000
,
0010
0000
0100
0000
,
0010
0010
0010
0000
,
0100
0100
0100
0000
,
0001
0000
0010
0000
,
0100
0000
1000
0000
,
1000
0000
0001
0000
,
1001
0000
1001
0000
,
0010
0000
0100
0000
,
0110
0000
0110
0000
,
0010
0000
0010
0000
,
0100
0000
0100
0000
,
0010
0000
1001
0000
,
0010
0000
0110
0000
,
0001
0000
0001
0000
,
1000
0000
1000
0000
,
0010
0000
0001
0000
,
0010
0000
0001
0000
,
1100
0000
1000
0000
,
0110
0000
0010
0000
,
0100
0000
0001
0000
,
1000
0000
0110
0000
,
1001
0000
0000
0000
;

//---------------dance-single - Blank----------------
#NOTEDATA:;
#CHARTNAME:;
#STEPSTYPE:dance-single;
#DESCRIPTION:Blank;
#CHARTSTYLE:;
#DIFFICULTY:Challenge;
#METER:10;
#RADARVALUES:0.787,0.955,0.446,0.407,0.250,595.000,57.000,52.000,0.000,0.000,0.000,0.000,0.000,0.787,0.955,0.446,0.407,0.250,595.000,57.000,52.000,0.000,0.000,0.000,0.000,0.000;
#CREDIT:;
#NOTES:
// measure 0
0000
0000
0000
0000
,  // measure 1
0000
0000
0000
0000
,  // measure 2
0001
0000
0100
1000
0100
0000
0010
0000
0010
0000
0001
0010
0001
0000
0100
0000
,  // measure 3
0100
0000
0010
0001
0010
0000
0100
0000
0010
0000
0100
1000
0100
0000
1000
0000
,  // measure 4
0010
0001
0010
0000
1000
0000
0100
0000
0001
0010
0001
0000
0100
0000
0010
0000
,  // measure 5
1000
0010
1000
0000
0010
0000
1000
0000
0001
0010
0001
0000
0010
0000
0100
0000
,  // measure 6
0001
0100
0001
0000
0010
0000
0001
0000
0100
0001
0100
0000
0100
0000
0001
0000
,  // measure 7
1000
0100
1000
0000
0100
0000
1000
0000
0010
0100
0010
0100
0010
0100
0010
0100
,  // measure 8
0010
0000
0001
0000
0100
0000
0010
0000
0001
0000
1000
0000
0010
1000
0100
0001
,  // measure 9
0010
0000
0010
0000
0001
0000
0010
0000
0100
0000
0010
0000
1000
0100
0010
0100
,  // measure 10
0001
0000
0010
0000
1000
0000
0001
0000
0010
0000
0001
0000
0100
1000
0010
0100
,  // measure 11
0010
0000
1000
0000
0010
0000
0100
0000
0010
0100
1000
0100
0010
0001
0100
0001
,  // measure 12
0010
0000
0001
0000
0100
0000
0010
0000
1000
0000
0001
0000
0100
0000
0010
1000
,  // measure 13
0010
0000
0100
0000
0001
0000
0010
0000
0001
0000
0100
0000
0010
0000
1000
0100
,  // measure 14
0010
1000
0010
0100
0001
0010
0001
0100
,  // measure 15
1000
0001
0100
0010
1000
0100
0001
1000
0002
0000
0000
0000
1003
0000
0000
0000
,  // measure 16
2001
0001
0001
0001
0001
0001
0001
3001
,  // measure 17
2010
0010
0010
0010
0010
0010
0010
3010
,  // measure 18
0102
0100
0100
0103
1020
1000
1000
1030
,  // measure 19
1001
0001
0101
0001
0011
0000
0101
0000
,  // measure 20
0100
1000
0001
1000
0110
0011
0110
1010
,  // measure 21
0110
0001
0100
0010
1001
0110
1001
0110
,  // measure 22
0011
0100
0010
1000
0101
1001
1010
1001
,  // measure 23
0110
0010
0001
1000
0011
1010
1100
1001
,  // measure 24
0001
0000
1000
0000
0100
0000
0001
0000
1000
0001
1000
0001
1000
0000
0100
0000
,  // measure 25
0010
0000
0001
0000
0010
0000
0100
0000
0010
0100
0010
0100
0010
0000
0100
0000
,  // measure 26
1000
0100
1000
0000
0100
0000
0010
0000
0001
0010
0001
0000
0100
0000
0010
1000
,  // measure 27
0010
0000
0001
0100
0001
0000
0010
0100
0010
0000
0001
1000
0001
1000
0001
1000
,  // measure 28
0002
2003
3200
0320
0032
0023
0230
0320
,  // measure 29
0032
0203
0320
2030
3002
0203
2300
3020
,  // measure 30
0032
0203
0302
0023
0230
2300
3020
0032
,  // measure 31
0203
2300
3020
0032
0203
0320
0032
1003
,  // measure 32
1001
0001
1000
0001
1000
0001
1000
0001
,  // measure 33
0110
0010
0100
0010
0100
0010
0100
0010
,  // measure 34
1100
0100
1000
0100
1000
0100
1000
0100
,  // measure 35
0011
0001
0010
0001
1001
0001
1000
0001
,  // measure 36
2010
0100
0010
0001
0010
0001
0010
3100
,  // measure 37
0102
0010
1000
0010
1000
0100
0010
1003
,  // measure 38
0210
1000
0010
0001
1000
0001
0010
1300
,  // measure 39
1020
0100
1000
0130
0201
0001
0010
0301
,  // measure 40
2001
0001
0001
0001
0010
0010
0010
0010
,  // measure 41
0100
0100
0010
0010
0001
0001
0010
3010
,  // measure 42
0102
0100
0100
0100
1000
1000
1000
1000
,  // measure 43
0100
0100
0010
0010
1000
0100
0013
1000
,  // measure 44
0001
0010
0001
0100
0010
1000
0010
0100
,  // measure 45
0001
0010
0001
0100
0010
1000
0001
0100
,  // measure 46
0001
0010
0001
0100
0010
1000
0001
0100
,  // measure 47
0001
1000
0010
0100
,  // measure 48
0001
0010
0001
0100
0010
1000
0100
1000
,  // measure 49
0010
0100
0001
1000
0010
0100
0001
1000
,  // measure 50
0010
0100
0001
1000
0010
0100
0001
1000
,  // measure 51
0010
1000
0010
0000
0001
0010
0001
0000
0001
1000
0001
0000
0220
0000
0330
0000
,  // measure 52
0001
1000
0001
1000
0001
1000
0001
1000
0001
1000
0001
1000
0001
1000
0001
2000
,  // measure 53
0002
0000
0000
0000
0000
3003
0000
0100
,  // measure 54
0010
0100
0010
0000
0001
0000
0010
1000
,  // measure 55
0001
0100
0001
0010
0011
0000
0110
0000
,  // measure 56
1000
0100
1000
0100
1000
0100
1000
0100
1000
0100
1000
0100
1000
0100
1000
0000
,  // measure 57
0000
0200
0000
0000
0000
0000
0300
0001
,  // measure 58
0010
0100
0001
0000
0100
0000
0001
0010
,  // measure 59
0000
2002
0000
0000
0000
3003
0000
0100
,  // measure 60
0010
0001
1000
0001
0010
0100
0010
0001
,  // measure 61
1000
0001
1000
0001
1000
0001
0000
0100
,  // measure 62
0010
1000
0001
1000
0010
0100
1000
0100
,  // measure 63
0001
0100
0001
0100
0001
0100
0000
0000
,  // measure 64
0100
1000
0100
0010
0001
0100
0010
2000
,  // measure 65
0000
0020
0000
0000
0000
3030
0000
0001
,  // measure 66
0100
0001
0011
0000
1010
0000
0001
0100
,  // measure 67
0010
0100
0010
0100
0001
0010
0001
0000
,  // measure 68
0110
0000
1010
0110
0000
0001
0010
0000
,  // measure 69
1100
0000
0110
0011
0000
0000
0000
0001
,  // measure 70
0100
0010
1000
0010
0100
0001
0010
0001
,  // measure 71
0000
0000
0000
0100
0010
1000
0001
0000
,  // measure 72
0101
0000
0011
0110
0000
1000
0100
0000
,  // measure 73
0011
0000
0110
1100
0000
0000
0000
0010
,  // measure 74
0001
0010
0001
0100
0010
1000
0001
0100
,  // measure 75
0010
0000
0001
0000
0100
0000
1000
0000
0001
0000
0010
0000
1000
0000
0001
1000
,  // measure 76
0000
0001
1000
0000
0001
1000
0000
0000
0000
0000
0000
0000
0000
0000
0000
0000
;
