#TITLE:Summer Party;
#SUBTITLE:;
#ARTIST:SMiLE.dk;
#TITLETRANSLIT:;
#SUBTITLETRANSLIT:;
#ARTISTTRANSLIT:;
#GENRE:;
#CREDIT:hooky;
#BANNER:[Beach Party] - Summer Party.png;
#BACKGROUND:[Beach Party] - Summer Party-bg.png;
#LYRICSPATH:;
#CDTITLE:;
#MUSIC:[Beach Party] - Summer Party.ogg;
#OFFSET:-1.990;
#SAMPLESTART:51.720;
#SAMPLELENGTH:16.780;
#SELECTABLE:YES;
#DISPLAYBPM:135.000;
#BPMS:0.000=135.000
;
#STOPS:
;
#BGCHANGES:;
#KEYSOUNDS:;
#ATTACKS:;

//---------------dance-single - ----------------
#NOTES:
     dance-single:
     :
     Beginner:
     1:
     0.094,0.154,0.060,0.000,0.000,69.000,7.000,0.000,0.000,0.000,0.000,0.094,0.154,0.060,0.000,0.000,69.000,7.000,0.000,0.000,0.000,0.000:
0000
0000
0000
0000
,
0000
0000
0000
0000
,
0000
0000
0000
0000
,
0000
0000
0000
0000
,
1000
0000
0000
0000
,
0000
0000
0000
0000
,
1000
0000
0000
0000
,
0001
0000
0000
0000
,
1000
0000
0000
0000
,
1000
0000
1000
0000
,
0001
0000
0000
0000
,
0001
0000
0001
0000
,
1000
0000
0000
0000
,
1000
0000
1000
0000
,
0001
0000
0000
0000
,
0001
0000
0001
0000
,
1001
0000
0000
0000
,
0000
0000
0000
0000
,
0110
0000
0000
0000
,
0000
0000
0000
0000
,
1001
0000
0000
0000
,
0000
0000
0000
0000
,
0110
0000
0000
0000
,
0000
0000
0000
0000
,
1000
1000
1000
0000
,
0000
0000
0000
0000
,
0001
0001
0001
0000
,
0000
0000
0000
0000
,
0010
0000
0000
0000
,
0010
0000
0010
0000
,
0100
0000
0000
0000
,
0100
0000
0100
0000
,
0010
0000
0000
0000
,
0010
0000
0010
0000
,
0100
0000
0100
0000
,
0010
0000
0100
0000
,
0001
0000
0000
0000
,
0010
0000
0000
0000
,
0001
0000
0000
0000
,
1000
0000
0000
0000
,
0100
0000
0000
0000
,
1000
0000
0000
0000
,
0010
0000
0000
0000
,
0100
0000
0000
0000
,
0001
0000
0000
0000
,
0000
0000
0000
0000
,
0001
0000
0000
0000
,
0000
0000
0000
0000
,
1000
0000
0000
0000
,
1000
0000
0000
0000
,
1001
0000
0000
0000
,
1000
0000
0001
0000
,
1001
0000
0100
0000
,
0010
0010
0010
0000
,
1000
0000
0100
0000
,
1000
1000
1000
0000
,
0010
0000
0000
0000
,
0100
0000
0000
0000
,
0001
0000
1000
0000
,
0010
0000
1001
0000
;

//---------------dance-single - ----------------
#NOTES:
     dance-single:
     :
     Easy:
     3:
     0.179,0.267,0.052,0.267,0.000,108.000,6.000,31.000,0.000,0.000,0.000,0.179,0.267,0.052,0.267,0.000,108.000,6.000,31.000,0.000,0.000,0.000:
0000
0000
0000
0000
,
0000
0000
0000
0000
,
0000
0000
0000
0000
,
0000
0000
0000
0000
,
2000
0000
0000
0000
,
0000
0000
0000
3000
,
0100
0000
0010
0000
,
0001
0100
0001
0000
,
2000
0000
0000
3000
,
0200
0000
0000
0300
,
0020
0000
0000
0030
,
0002
0000
0000
0003
,
0200
0000
0000
0300
,
0020
0000
0000
0030
,
2000
0000
0000
3000
,
0200
0000
0000
0300
,
0010
0000
0001
0000
,
0100
0010
1000
0000
,
0100
0000
0100
0000
,
1000
0010
0100
0000
,
0001
0000
0001
0000
,
0010
0001
0100
0000
,
0100
0000
0100
0000
,
0010
1000
0100
1000
,
0200
0000
0000
0300
,
0020
0000
0000
0030
,
0002
0000
2000
3003
,
0220
0000
0000
0330
,
1000
0000
0100
0000
,
1000
0100
0020
0030
,
0001
0000
0100
0000
,
0010
1000
0200
0300
,
1000
0000
0100
0000
,
0010
0001
0200
0300
,
0001
1000
1001
0000
,
0100
0010
0110
0000
,
0010
0000
1000
0000
,
0100
0000
1000
0000
,
0010
0000
0100
0000
,
0001
0000
0001
0000
,
0010
0000
0001
0000
,
0100
0000
0010
0000
,
1000
0000
0200
0300
,
1000
0000
0100
1000
,
1100
0000
0000
0000
,
1000
0000
0000
0000
,
0010
0000
0000
0000
,
0100
0000
0000
0000
,
0001
0000
0000
0000
,
0010
0000
0000
0000
,
2000
0000
0002
3003
,
0100
0100
0220
0330
,
0001
0000
0010
0000
,
0001
0010
0200
0300
,
1000
0000
0010
0000
,
0100
0001
0020
0030
,
2000
0000
3100
0000
,
0020
0000
0031
0000
,
0200
0000
0020
0330
,
1000
0100
2002
0000
,
0000
0000
0000
0000
,
0000
0000
0000
0000
,
3003
0000
0000
0000
;

//---------------dance-single - ----------------
#NOTES:
     dance-single:
     :
     Medium:
     5:
     0.319,0.348,0.052,0.371,0.000,210.000,6.000,43.000,0.000,0.000,0.000,0.319,0.348,0.052,0.371,0.000,210.000,6.000,43.000,0.000,0.000,0.000:
0000
0000
0000
0000
,
0000
0000
0000
0000
,
0000
0000
0000
0000
,
0000
0000
0000
0000
,
0200
1000
0010
1000
,
0010
1000
0010
1300
,
0002
0013
0200
0310
,
1000
0100
1000
0000
0220
0000
0330
0000
,
0001
0010
0001
0100
,
0010
0000
1000
0000
0100
1000
0100
0000
,
0010
0001
0100
0010
,
1000
0000
0100
0000
0010
0001
0100
0000
,
0010
1000
0100
0010
,
0001
0000
0100
0000
0010
1000
0100
0000
,
1000
0010
0100
0000
0100
0001
0010
0000
,
0001
0001
2002
3003
,
1000
0100
1000
0000
0010
0001
0010
0000
,
0200
0010
0310
0000
,
0001
1000
0001
0000
0100
0001
0100
0000
,
0002
1000
1003
0000
,
1000
0100
0010
0000
0010
0001
0100
0000
,
0200
0010
0310
0000
,
1000
0010
0100
0000
0001
0010
0001
0000
,
0200
0001
0301
0000
,
1000
0100
1000
0000
0020
0000
0100
0000
,
0200
0000
0000
0330
,
0001
0010
0001
0000
0002
0000
0010
0000
,
0200
0000
0000
0303
,
0100
0010
1000
1000
,
0100
1000
0100
0000
0020
0000
0030
0000
,
0001
0100
0010
1000
,
0100
0010
0001
0000
0200
0000
0300
0000
,
0010
1000
0100
1000
,
0010
0100
0001
0000
0020
0000
0030
0000
,
0002
0000
2000
3003
,
1000
0100
1000
0000
0022
0000
0033
0000
,
0100
0010
1000
0100
,
1000
0010
0100
0100
,
0001
0010
0001
0100
,
0010
1000
0100
0000
0020
0000
0030
0000
,
0001
0100
0010
1000
,
0100
1000
0010
0100
,
0001
0001
1000
1000
,
0010
0100
0001
0000
0022
0000
0033
0000
,
2000
0000
3100
0000
,
0020
0000
0031
0000
,
0200
0000
0000
0000
0010
0300
0000
0000
,
2000
0000
3100
0000
,
0020
0000
0031
0000
,
0200
0000
0301
0000
,
2000
0000
0002
3003
,
0100
0100
0220
0330
,
1000
0100
0010
0001
,
0100
0010
1000
0000
0200
0000
0300
0000
,
0010
0001
0100
0001
,
0010
0001
0100
0000
0020
0000
0030
0000
,
2000
0100
0100
3100
,
0020
0001
0001
0031
,
0200
0310
0002
1003
,
0100
0010
2002
0000
,
0000
0000
0000
0000
,
0000
0000
0000
0000
,
3003
0000
0000
0000
;

//---------------dance-single - ----------------
#NOTES:
     dance-single:
     :
     Hard:
     7:
     0.429,0.401,0.216,0.138,0.116,307.000,25.000,16.000,0.000,0.000,0.000,0.429,0.401,0.216,0.138,0.116,307.000,25.000,16.000,0.000,0.000,0.000: // measure 0
0000
0000
0000
0000
,  // measure 1
0000
0000
0000
0000
,  // measure 2
0000
0000
0000
0000
,  // measure 3
0000
0000
0000
0110
,  // measure 4
2001
0001
0000
0010
0000
0100
3000
0010
,  // measure 5
0200
0010
0000
1000
0000
0310
0110
0000
,  // measure 6
0022
0033
2200
3300
,  // measure 7
1000
0100
0220
0330
,  // measure 8
1000
0100
1000
0000
0100
0010
0100
0000
,  // measure 9
0010
0001
0010
0000
0001
0100
0001
0000
,  // measure 10
0100
1000
0100
0000
0001
0100
0001
0000
,  // measure 11
0010
0001
0100
0010
0100
0000
0100
0000
,  // measure 12
0010
1000
0100
0000
0010
0001
0100
0000
,  // measure 13
0010
0100
0010
0000
1000
0001
1000
0000
,  // measure 14
0001
0010
0100
0000
1000
0010
0100
0000
,  // measure 15
0001
0000
0010
0000
0001
0000
0010
0000
0001
0010
0000
0010
0001
0000
0001
0000
,  // measure 16
1000
0000
0100
1000
0000
0000
0000
0000
0100
0000
0010
0100
0000
0000
0000
0000
,  // measure 17
0010
0001
0100
1000
0100
0000
0001
0000
,  // measure 18
0001
0000
0010
0001
0000
0000
0000
0000
0010
0000
0100
0010
0000
0000
0000
0000
,  // measure 19
0100
1000
0010
0001
0010
0000
1000
0000
,  // measure 20
0010
0000
1000
0010
0000
0000
0000
0000
1000
0000
0001
1000
0000
0000
0000
0000
,  // measure 21
0001
0100
0010
0010
1000
0000
0100
0000
,  // measure 22
0100
0000
0100
1000
0000
0000
0000
0000
1000
0000
1000
0001
0000
0000
0000
0000
,  // measure 23
1000
0010
0001
0010
0100
0000
0010
0000
,  // measure 24
1000
0100
1000
0000
0100
0000
0100
0000
,  // measure 25
0200
1000
0010
0301
,  // measure 26
0010
0001
0010
0000
0010
0000
0010
0000
,  // measure 27
0020
0000
0000
0000
0031
0000
0000
0000
1000
0100
0000
0100
1000
0000
1000
0000
,  // measure 28
1100
0000
0010
0001
0000
0100
0000
0100
,  // measure 29
0010
1000
0100
1000
0010
0000
0011
0000
,  // measure 30
0101
0000
0100
0010
0000
1000
0000
0100
,  // measure 31
0010
0001
0010
0100
1000
0000
0110
0000
,  // measure 32
1001
0000
1000
0100
0000
0100
0000
0100
,  // measure 33
0001
0100
1000
0100
0001
0000
0011
0000
,  // measure 34
1000
0100
1000
0000
1100
0000
1100
0000
,  // measure 35
0010
0001
0010
0000
0022
0000
0033
0000
,  // measure 36
0001
0010
0001
0000
0010
0100
0010
0000
,  // measure 37
0100
1000
0100
0000
1000
0010
1000
0000
,  // measure 38
0010
0001
0010
0000
1000
0010
1000
0000
,  // measure 39
0100
1000
0010
0100
0010
0000
0010
0000
,  // measure 40
0100
0001
0010
0000
0100
1000
0010
0000
,  // measure 41
0100
0010
0100
0000
0001
1000
0001
0000
,  // measure 42
1000
0100
0010
0000
0001
0100
0010
0000
,  // measure 43
1000
0000
0000
1000
0000
0000
1000
0000
1000
0100
0000
0100
1000
0000
1000
0000
,  // measure 44
1000
0000
0000
1000
0000
0000
1000
0000
0001
0000
0000
0001
0000
0000
0001
0000
,  // measure 45
0100
0000
0000
0100
0000
0000
0100
0000
0010
0000
0000
0010
0000
0000
0010
0000
,  // measure 46
1000
0000
0000
1000
0000
0000
1000
0000
0001
0000
0000
0001
0000
0000
0001
0000
,  // measure 47
0100
0000
0000
0100
0000
0000
0100
0000
0010
0000
0000
0010
0000
0000
0010
0000
,  // measure 48
1000
0000
0000
1000
0000
0000
1000
0000
0001
0000
0000
0001
0000
0000
0001
0000
,  // measure 49
0100
0000
0000
0100
0000
0000
0100
0000
0010
0000
0000
0010
0000
0000
0010
0000
,  // measure 50
2002
0000
0000
0000
,  // measure 51
0000
0000
0000
3003
,  // measure 52
0011
0000
0100
1000
0000
0010
0000
0010
,  // measure 53
0100
0001
0010
0001
0100
0000
1100
0000
,  // measure 54
1010
0000
0010
0100
0000
0001
0000
0010
,  // measure 55
0100
1000
0100
0010
0001
0000
0110
0000
,  // measure 56
1001
0000
0001
0010
0000
0010
0000
0010
,  // measure 57
1000
0010
0001
0010
1000
0000
1100
0000
,  // measure 58
0001
0010
0001
0000
0011
0000
0011
0000
,  // measure 59
0100
1000
0100
0000
2002
0000
0000
0000
,  // measure 60
0000
0000
0000
0000
,  // measure 61
0000
0000
0000
0000
,  // measure 62
3003
0000
0000
0000
;
