#TITLE:STARSHIPS;
#SUBTITLE:;
#ARTIST:Nicki Minaj;
#TITLETRANSLIT:;
#SUBTITLETRANSLIT:;
#ARTISTTRANSLIT:;
#GENRE:;
#CREDIT:hooky;
#BANNER:[Beach Party] - STARSHIPS.png;
#BACKGROUND:[Beach Party] - STARSHIPS-bg.png;
#LYRICSPATH:;
#CDTITLE:cdtitle.png;
#MUSIC:[Beach Party] - STARSHIPS.ogg;
#OFFSET:1.717;
#SAMPLESTART:38.600;
#SAMPLELENGTH:15.000;
#LASTBEATHINT:1.494;
#SELECTABLE:YES;
#DISPLAYBPM:125.000;
#BPMS:0.000=125.000
;
#STOPS:144.000=1.440
;
#BGCHANGES:-4.000=cdtitle.png=1.000=1=0=0=StretchNoLoop==CrossFade==,
0.000=cdtitle.png=1.000=0=0=1=StretchNormal====,
3.500=[Beach Party] - STARSHIPS.avi=1.000=0=0=1=====,
211.144=cdtitle.png=1.000=0=0=1=====,
99999=-nosongbg-=1.000=0=0=0 // don't automatically add -songbackground-
;
#KEYSOUNDS:;
#ATTACKS:;

//---------------dance-single - hooky----------------
#NOTES:
     dance-single:
     hooky:
     Hard:
     7:
     0.436,0.409,0.436,0.184,0.073,251.000,45.000,19.000,0.000,0.000,0.000,0.436,0.409,0.436,0.184,0.073,251.000,45.000,19.000,0.000,0.000,0.000:
0000
0000
0000
0000
,
0000
0000
0000
0000
,
0000
0000
0000
0000
,
0000
0000
0000
0000
,
0000
0000
0000
0000
0000
0100
1000
0100
,
1000
0000
1100
0000
0010
0001
0010
0000
,
0110
0000
1001
0000
0100
0010
0100
0000
,
0011
0000
1100
0000
0100
0001
0100
0000
,
0200
0010
0310
0000
0020
0100
0130
0000
,
0110
0000
1100
0000
0010
0001
0010
0000
,
0011
0000
1010
0000
0001
0100
0010
0000
,
1010
0000
0101
0000
0100
0100
0100
0000
,
0010
0001
0100
1000
0010
0001
0100
0000
,
1000
0100
1000
1100
0000
1100
0000
0010
,
0100
0010
0100
0011
0000
0011
0000
0001
,
0010
0001
0010
0101
0000
0101
0000
1000
,
0010
1000
0010
1010
0000
1010
0000
0010
,
0001
0010
0001
0011
0000
0011
0000
0100
,
0010
0100
0010
1100
0000
1100
0000
1000
,
0100
1000
0100
1010
0000
1010
0000
0001
,
0100
0001
0100
0101
0000
0101
0000
1001
,
0210
0001
1000
0010
,
1000
0000
0000
1000
0000
0000
0002
0000
0300
0000
0100
0000
0103
0000
0100
0000
,
0020
1000
0001
0100
,
0001
0000
0000
0001
0000
0000
2000
0000
0030
0000
0010
0000
3010
0000
0010
0000
,
2000
0001
0010
0100
,
0001
0000
0000
0001
0000
0000
0200
0000
3000
0000
1000
0000
1300
0000
1000
0000
,
0002
1000
0100
0010
,
1000
0000
0000
1000
0000
0000
0020
0000
0003
0000
0001
0000
0031
0000
0001
0000
,
0120
1000
0001
0100
,
0001
0000
0000
0001
0000
0000
2000
0000
0030
0000
0010
0000
3010
0000
0010
0000
,
0200
0001
1000
0010
,
1000
0000
0000
1000
0000
0000
0002
0000
0300
0000
0100
0000
0103
0000
0100
0000
,
0002
1000
0100
0010
,
1000
0000
0000
1000
0000
0000
0020
0000
0003
0000
0001
0000
0031
0000
0001
0000
,
2000
0001
0010
3100
,
1001
0000
0000
0000
1001
0000
0000
0100
0000
0000
0001
0000
0000
0000
0100
0000
,
0000
0000
0010
0000
0110
0000
0000
1000
0000
0000
0100
0000
0000
0000
1000
0000
,
0000
0000
0100
0000
1100
0000
0000
0010
0000
0000
0001
0000
0000
0000
0010
0000
,
0000
0001
0010
0001
0010
0000
0011
0000
,
0001
0000
0001
0000
1100
0000
0000
0010
0000
0000
0100
0000
0000
0000
0010
0000
,
0000
0000
0100
0000
0110
0000
0000
0001
0000
0000
1000
0000
0000
0000
0001
0000
,
0000
0000
1000
0000
1001
0000
0000
0100
0000
0000
0010
0000
0000
0000
0100
0000
,
0000
0010
0100
0010
0100
0000
1001
0000
,
0100
0100
0110
0000
1000
0000
0100
0000
,
1000
0000
0000
0000
0100
0000
0000
0100
0000
0000
0010
0000
0000
0000
0100
0000
,
0010
0100
1000
0000
0001
0000
0100
0000
,
0010
0000
1000
0010
1000
0000
1001
0000
,
0100
0100
0110
0000
0001
0000
0010
0000
,
0001
0000
0000
0000
0010
0000
0000
0010
0000
0000
0100
0000
0000
0000
0010
0000
,
0100
0010
0001
0000
1000
0000
0010
0000
,
0100
0000
0001
0100
0001
0000
1001
0000
,
0110
2002
0000
0000
0000
0000
3003
0000
;

//---------------dance-single - ----------------
#NOTES:
     dance-single:
     :
     Beginner:
     1:
     0.084,0.151,0.019,0.029,0.000,56.000,2.000,3.000,0.000,0.000,0.000,0.084,0.151,0.019,0.029,0.000,56.000,2.000,3.000,0.000,0.000,0.000: // measure 0
0000
0000
0000
0000
,  // measure 1
0000
0000
0000
0000
,  // measure 2
0000
0000
0000
0000
,  // measure 3
0000
0000
0000
0000
,  // measure 4
0000
0000
0000
0000
,  // measure 5
1000
0000
0000
0000
,  // measure 6
0001
0000
0000
0000
,  // measure 7
1000
0000
0000
0000
,  // measure 8
0001
0000
0000
0000
,  // measure 9
1000
0000
0000
0000
,  // measure 10
0001
0000
0000
0000
,  // measure 11
1000
0000
0000
0000
,  // measure 12
0001
0000
0000
0000
,  // measure 13
0100
0000
0000
0000
,  // measure 14
0010
0000
0000
0000
,  // measure 15
0100
0000
0000
0000
,  // measure 16
0010
0000
0000
0000
,  // measure 17
0100
0000
0000
0000
,  // measure 18
0010
0000
0000
0000
,  // measure 19
0100
0000
0000
0000
,  // measure 20
0010
0000
0000
0000
,  // measure 21
1000
0000
0000
0000
,  // measure 22
0000
0000
0000
0000
,  // measure 23
0001
0000
0000
0000
,  // measure 24
0000
0000
0000
0000
,  // measure 25
1000
0000
0000
0000
,  // measure 26
0000
0000
0000
0000
,  // measure 27
0001
0000
0000
0000
,  // measure 28
0000
0000
0000
0000
,  // measure 29
0100
0000
0000
0000
,  // measure 30
0000
0000
0000
0000
,  // measure 31
0010
0000
0000
0000
,  // measure 32
0000
0000
0000
0000
,  // measure 33
0100
0000
0000
0000
,  // measure 34
0000
0000
0000
0000
,  // measure 35
0100
0000
0010
0000
,  // measure 36
0110
1000
0000
1000
,  // measure 37
0000
0001
0000
0001
,  // measure 38
0000
1000
0000
1000
,  // measure 39
0000
0002
0000
0000
,  // measure 40
0003
0100
0000
0100
,  // measure 41
0000
0010
0000
0010
,  // measure 42
0000
0100
0000
0100
,  // measure 43
0000
0020
0000
0000
,  // measure 44
0030
1000
0000
1000
,  // measure 45
0000
0100
0000
1000
,  // measure 46
0000
0100
0000
0010
,  // measure 47
0000
0002
0000
0000
,  // measure 48
0003
1000
0000
0010
,  // measure 49
0000
0100
0000
0001
,  // measure 50
0000
1000
0000
0100
,  // measure 51
0000
0010
0000
0001
,  // measure 52
1001
0000
0000
0000
;

//---------------dance-single - ----------------
#NOTES:
     dance-single:
     :
     Medium:
     5:
     0.272,0.281,0.058,0.058,0.000,185.000,6.000,6.000,0.000,0.000,0.000,0.272,0.281,0.058,0.058,0.000,185.000,6.000,6.000,0.000,0.000,0.000:
0000
0000
0000
0000
,
0000
0000
0000
0000
,
0000
0000
0000
0000
,
0000
0000
0000
0000
,
0000
0000
0000
0000
,
1000
1000
0010
0010
,
0001
0001
0100
0100
,
0010
0000
0100
0000
0010
0100
0010
0000
,
2000
0000
0002
3003
,
0100
0100
0010
0010
,
0100
0100
0010
0010
,
1000
0001
1000
0001
,
2002
0000
0000
3003
,
0100
0010
1000
0100
,
1000
0100
1000
0000
0010
0000
0000
0000
,
0100
0001
0010
0001
,
0100
0001
0100
0000
0100
0000
0000
0000
,
0010
1000
0100
1000
,
0010
1000
0010
0000
0100
0000
0000
0000
,
0001
0010
0001
0100
,
0001
0100
0001
0000
0100
0000
0000
0000
,
0010
0010
1000
0000
,
0100
0000
0100
1000
0000
0000
0000
0000
,
0010
0010
0100
0000
,
0001
0000
0001
1000
0000
0000
0100
0000
,
0010
0100
0010
0000
,
1000
0000
0010
0010
0000
0000
1000
0000
,
0100
1000
0010
0000
,
0100
0000
0100
0010
0000
0000
0100
0000
,
0010
1000
0100
1000
,
0010
0100
0001
0010
,
0001
0100
0010
1000
,
0100
1000
0010
0100
,
0001
0001
1000
1000
,
0010
0010
0100
0100
,
0001
1000
0001
1000
0001
1000
0001
0000
,
1001
0100
0100
0100
,
0100
0010
0010
0010
,
0010
0100
0100
0100
,
0100
0001
1000
0001
,
1001
0110
0010
0100
,
0010
0100
0010
0100
,
0010
0100
0010
0100
,
0010
1000
0100
0010
,
0001
1000
1001
0000
0100
0000
0010
0000
,
1000
0100
1000
0010
,
0100
0001
0010
0001
,
0100
0010
1000
0100
,
1000
0010
0100
0001
,
0010
0001
0100
0010
,
1000
0100
1000
0010
,
0100
0001
0010
0001
,
0100
2002
0000
0000
0000
0000
3003
0000
;

//---------------dance-single - ----------------
#NOTES:
     dance-single:
     :
     Easy:
     3:
     0.209,0.255,0.087,0.194,0.000,122.000,9.000,20.000,0.000,0.000,0.000,0.209,0.255,0.087,0.194,0.000,122.000,9.000,20.000,0.000,0.000,0.000:
0000
0000
0000
0000
,
0000
0000
0000
0000
,
0000
0000
0000
0000
,
0000
0000
0000
0000
,
0000
0000
0000
0000
,
1000
0000
1000
1000
,
0001
0000
0001
0001
,
0100
0000
0100
0100
,
0010
0000
0100
0000
,
0010
1000
0100
0100
,
1000
0010
0100
0100
,
0001
0010
0001
0100
,
2002
0000
0000
3003
,
0100
0010
1000
0000
,
0100
0001
0100
0000
,
0001
0010
0100
0000
,
0001
1000
0100
0000
,
0010
0000
0100
0000
,
0001
1000
0001
0000
,
0100
0000
0100
0000
,
0010
0100
0010
0000
,
2000
0000
0000
3000
,
0002
0000
0000
0003
,
0200
0000
0000
0300
,
0020
0000
0000
0030
,
2000
0000
0000
3000
,
0200
0000
0000
0300
,
0020
0000
0000
0030
,
0002
0000
0000
0003
,
0200
0000
0000
0300
,
0020
0000
0000
0030
,
2000
0000
0000
3000
,
0200
0000
0000
0300
,
2000
3000
0002
0003
,
0200
0300
0020
0030
,
0100
0010
1000
0100
,
1001
1000
0100
1000
,
0000
0010
0001
0010
,
0000
0100
0001
0100
,
0000
0001
0000
1000
,
1001
0110
0010
0100
,
0000
0010
1000
0100
,
0000
0010
0001
0100
,
0000
0010
1000
0010
,
0110
1001
0100
1000
,
0010
0100
0001
1000
,
0100
1000
0010
0100
,
0001
0010
0000
0100
,
0110
1001
0100
1000
,
0010
0100
0001
0010
,
0001
0100
0010
1000
,
0100
1000
0000
0010
,
2002
0000
0000
3003
;
