#TITLE:ポニーテールとシュシュ;
#SUBTITLE:;
#ARTIST:AKB48;
#TITLETRANSLIT:Ponytail to shushu;
#SUBTITLETRANSLIT:;
#ARTISTTRANSLIT:;
#CREDIT:;
#BANNER:Ponytail to shushu.png;
#BACKGROUND:Ponytail to shushu-bg.png;
#LYRICSPATH:;
#CDTITLE:;
#MUSIC:Ponytail to shushu.mp3;
#OFFSET:-2.123;
#SAMPLESTART:59.110;
#SAMPLELENGTH:14.820;
#SELECTABLE:YES;
#BPMS:0.000=160.000;
#STOPS:;
#BGCHANGES:;

//---------------dance-single - ----------------
#NOTES:
     dance-single:
     :
     Hard:
     8:
     0.603,0.542,0.334,0.549,0.010: // measure 1
0000
0000
0000
0000
,  // measure 2
0000
0000
0000
0000
,  // measure 3
1002
0000
0103
0000
0001
0100
1000
0100
,  // measure 4
0002
0000
0103
0000
0001
0010
1000
0010
,  // measure 5
0002
0000
0013
0000
0001
0100
0010
1000
,  // measure 6
0200
0320
0032
1003
,  // measure 7
2010
0000
3001
0000
1000
0010
0100
0001
,  // measure 8
0020
0000
0100
0130
0000
0010
0100
0000
,  // measure 9
2000
3200
0301
0101
,  // measure 10
2000
3020
0031
0011
,  // measure 11
1001
0000
0001
0100
0010
0000
0100
0010
,  // measure 12
1000
0000
0010
1000
0100
1000
0001
0010
,  // measure 13
0001
0000
0100
0001
1000
0000
0001
1000
,  // measure 14
0010
0000
1000
0010
0100
0001
1000
0100
,  // measure 15
0020
0000
0001
0000
0130
0000
0010
0001
,  // measure 16
0100
0101
0110
1010
,  // measure 17
2001
0000
3100
0000
1000
0100
0001
0100
,  // measure 18
2000
0000
3010
0000
0001
0001
0010
0000
,  // measure 19
2010
0000
0100
0000
3001
0000
1000
0100
,  // measure 20
0010
0011
0101
0110
,  // measure 21
2010
0000
3001
0000
1000
0100
0001
0200
,  // measure 22
0000
0000
1000
0000
1300
0000
0000
0000
0001
0000
0100
0010
0100
0000
0000
0000
,  // measure 23
1002
0000
0010
0000
0103
0000
0001
0100
,  // measure 24
0010
1010
0101
1100
,  // measure 25
0012
0000
0103
0000
0001
0100
0010
2000
,  // measure 26
0000
0001
3001
1000
0010
0001
0010
0000
,  // measure 27
1010
0000
0010
1000
0100
0000
1000
0100
,  // measure 28
0010
0000
0100
0010
0001
0000
0010
0001
,  // measure 29
0100
0001
1000
0020
0000
0130
0000
0110
,  // measure 30
0000
0101
0000
0001
2000
0000
3001
0000
,  // measure 31
0200
0000
0010
0010
0000
0001
0301
0000
,  // measure 32
2000
3001
1100
0101
,  // measure 33
0020
0000
0100
0100
0000
1000
1030
0000
,  // measure 34
0002
0103
0101
1010
,  // measure 35
1001
0000
1000
0001
0100
0000
0001
1000
,  // measure 36
0010
0000
1000
0001
0010
0000
0001
1000
,  // measure 37
0200
0000
1000
1000
1300
0000
0100
0010
,  // measure 38
0002
0203
2300
3100
,  // measure 39
1002
0000
0100
0103
0000
0001
0100
0010
,  // measure 40
2000
0000
0001
3001
0000
1000
0100
0010
,  // measure 41
0001
0000
1000
0100
0001
0000
1000
0010
,  // measure 42
0002
0103
0020
1030
,  // measure 43
0102
0000
1000
1003
0000
0001
0100
0010
,  // measure 44
2000
0000
0100
3100
0000
1000
0100
0001
,  // measure 45
0100
0000
1000
0010
0000
0001
0010
1000
,  // measure 46
0002
0000
0000
0000
0103
0000
0000
0000
0020
0000
0000
0000
1030
0000
0001
0100
,  // measure 47
0002
0000
0010
0013
0000
0001
0010
0100
,  // measure 48
2000
0000
0010
3010
0000
1000
0010
0100
,  // measure 49
0001
0000
0100
1000
0010
0000
1000
0100
,  // measure 50
0002
0103
0020
1030
,  // measure 51
0012
0000
0100
0103
0000
0001
0010
0100
,  // measure 52
2000
0000
0100
3100
0000
1000
0100
0010
,  // measure 53
0001
0000
0100
0010
1000
0000
0010
0100
,  // measure 54
0002
0000
1003
0000
0001
0100
1000
0100
,  // measure 55
0001
0010
1000
0010
0001
1000
0110
0000
,  // measure 56
2001
0000
3010
0000
1000
0010
0001
0010
,  // measure 57
2000
0000
3010
0000
1000
0100
0001
0100
,  // measure 58
2000
0000
3100
0000
1000
0010
0100
0001
,  // measure 59
0020
0230
2300
3001
,  // measure 60
0102
0000
1003
0000
0001
0100
0010
1000
,  // measure 61
0200
0000
0010
0310
0000
0100
0010
0000
,  // measure 62
0001
0010
0100
1000
0001
0100
0010
1000
,  // measure 63
0001
0010
1000
0010
0001
0100
1000
0100
,  // measure 64
2002
0000
0000
0000
,  // measure 65
0000
0000
0000
0000
,  // measure 66
3003
0000
0000
0000
;

//---------------dance-single - ----------------
#NOTES:
     dance-single:
     :
     Beginner:
     2:
     0.123,0.155,0.010,0.000,0.000: // measure 1
0000
0000
0000
0000
,  // measure 2
0000
0000
0000
0000
,  // measure 3
1000
0000
0000
0000
,  // measure 4
0100
0000
0000
0000
,  // measure 5
0010
0000
0000
0000
,  // measure 6
0001
0000
0001
0000
,  // measure 7
0001
0000
0000
0000
,  // measure 8
0100
0000
0000
0000
,  // measure 9
0010
0000
0000
0000
,  // measure 10
1000
0000
1000
0000
,  // measure 11
1000
0000
0000
0000
,  // measure 12
0001
0000
0001
0000
,  // measure 13
0001
0000
0000
0000
,  // measure 14
0010
0000
0010
0000
,  // measure 15
0010
0000
0000
0000
,  // measure 16
0100
0000
0000
0000
,  // measure 17
1000
0000
1000
0000
,  // measure 18
1000
0000
0000
0000
,  // measure 19
0010
0000
0000
0000
,  // measure 20
0100
0000
0000
0000
,  // measure 21
0001
0000
0001
0000
,  // measure 22
0001
0000
0000
0000
,  // measure 23
1000
0000
0000
0000
,  // measure 24
0001
0000
0000
0000
,  // measure 25
0010
0000
0010
0000
,  // measure 26
0010
0000
0000
0000
,  // measure 27
0100
0000
0000
0000
,  // measure 28
1000
0000
0000
0000
,  // measure 29
0001
0000
0001
0000
,  // measure 30
1000
0000
1000
0000
,  // measure 31
0010
0000
0010
0000
,  // measure 32
0010
0000
0000
0000
,  // measure 33
0100
0000
0100
0000
,  // measure 34
0100
0000
0000
0000
,  // measure 35
0001
0000
0001
0000
,  // measure 36
0001
0000
0000
0000
,  // measure 37
1000
0000
1000
0000
,  // measure 38
0001
0000
0001
0000
,  // measure 39
0100
0000
0100
0000
,  // measure 40
0100
0000
0000
0000
,  // measure 41
0010
0000
0010
0000
,  // measure 42
0010
0000
0000
0000
,  // measure 43
1000
0000
1000
0000
,  // measure 44
1000
0000
0000
0000
,  // measure 45
0001
0000
0001
0000
,  // measure 46
0001
0000
0000
0000
,  // measure 47
0100
0000
0100
0000
,  // measure 48
0100
0000
0000
0000
,  // measure 49
0010
0000
0010
0000
,  // measure 50
0010
0000
0000
0000
,  // measure 51
1000
0000
1000
0000
,  // measure 52
1000
0000
0000
0000
,  // measure 53
0001
0000
0001
0000
,  // measure 54
0001
0000
0000
0000
,  // measure 55
0010
0000
0010
0000
,  // measure 56
0010
0000
0000
0000
,  // measure 57
0100
0000
0000
0000
,  // measure 58
1000
0000
0000
0000
,  // measure 59
0001
0000
0001
0000
,  // measure 60
0001
0000
0000
0000
,  // measure 61
1000
0000
0000
0000
,  // measure 62
0010
0000
0000
0000
,  // measure 63
0100
0000
0100
0000
,  // measure 64
1001
0000
0000
0000
;

//---------------dance-single - ----------------
#NOTES:
     dance-single:
     :
     Easy:
     4:
     0.287,0.278,0.059,0.000,0.000: // measure 1
0000
0000
0000
0000
,  // measure 2
0000
0000
0000
0000
,  // measure 3
1000
0000
0100
0010
,  // measure 4
0001
0000
0100
0010
,  // measure 5
1000
0000
0001
0010
,  // measure 6
0100
0100
0010
0010
,  // measure 7
0001
0000
0100
0010
,  // measure 8
1000
0000
1001
0000
,  // measure 9
0001
0010
0100
1000
,  // measure 10
0001
0100
0010
1000
,  // measure 11
0001
0000
0001
0000
,  // measure 12
1000
0000
1000
0010
,  // measure 13
0100
0000
0100
0000
,  // measure 14
0010
0000
0010
1000
,  // measure 15
0100
0000
0010
0000
,  // measure 16
0001
0010
0100
1000
,  // measure 17
0001
0000
0100
0010
,  // measure 18
1000
0000
1001
0000
,  // measure 19
1000
0000
0100
0010
,  // measure 20
0001
0010
0100
1000
,  // measure 21
0001
0000
0100
0010
,  // measure 22
1000
0001
1000
0010
,  // measure 23
0110
0000
0100
0000
,  // measure 24
0001
0010
0100
1000
,  // measure 25
0001
0000
1000
0010
,  // measure 26
0100
0000
0001
0010
,  // measure 27
0100
1000
0010
1000
,  // measure 28
0100
0010
0001
0010
,  // measure 29
0100
1000
0001
0100
,  // measure 30
0010
1000
0010
0100
,  // measure 31
0001
0100
1000
0100
,  // measure 32
0001
0000
1000
1000
,  // measure 33
0001
0010
1000
0010
,  // measure 34
0001
0000
1000
1000
,  // measure 35
0010
0100
0001
0100
,  // measure 36
0010
0000
1000
1000
,  // measure 37
0010
0100
0001
0000
,  // measure 38
1000
0100
0010
0001
,  // measure 39
1000
0100
0001
0100
,  // measure 40
1000
0000
0001
0000
,  // measure 41
1000
0010
0001
0010
,  // measure 42
1000
0000
0001
0000
,  // measure 43
1000
0100
0010
0001
,  // measure 44
0010
0000
0100
1000
,  // measure 45
0010
0100
0001
0100
,  // measure 46
0010
0000
1000
0000
,  // measure 47
1001
0001
0010
1000
,  // measure 48
0010
0000
0001
0000
,  // measure 49
1000
0100
0001
0100
,  // measure 50
1000
0000
0001
0000
,  // measure 51
1000
0010
0100
0001
,  // measure 52
1000
0100
0010
0001
,  // measure 53
1000
0010
0001
0100
,  // measure 54
1000
0000
0001
0000
,  // measure 55
1000
0010
0100
0001
,  // measure 56
1000
0000
0100
0010
,  // measure 57
0001
0000
0100
0010
,  // measure 58
1000
0000
0001
0010
,  // measure 59
0100
0100
0010
0010
,  // measure 60
0001
0000
0100
0010
,  // measure 61
1000
0000
1001
0000
,  // measure 62
0001
0010
0100
1000
,  // measure 63
0001
0100
0010
1000
,  // measure 64
1001
0000
0000
0000
;

//---------------dance-single - ----------------
#NOTES:
     dance-single:
     :
     Medium:
     6:
     0.418,0.478,0.098,0.147,0.000: // measure 1
0000
0000
0000
0000
,  // measure 2
0000
0000
0000
0000
,  // measure 3
1001
0000
0001
0000
0100
0010
0100
0000
,  // measure 4
0001
0000
0010
0000
0100
0010
0100
0000
,  // measure 5
0010
0000
0001
0000
0100
0010
0100
0000
,  // measure 6
0020
2030
3200
0310
,  // measure 7
0001
0000
1000
0000
0100
1000
0100
0000
,  // measure 8
0020
0000
0000
0031
0000
0000
0010
0000
,  // measure 9
0100
1000
0010
1010
,  // measure 10
0100
0001
0010
0011
,  // measure 11
1001
0001
0100
1000
,  // measure 12
0100
0000
0001
0000
1000
0001
1000
0001
,  // measure 13
1000
0001
0010
1000
,  // measure 14
0010
0000
0001
0000
1000
0001
1000
0001
,  // measure 15
1000
0100
0010
0001
,  // measure 16
1000
0010
0100
0001
,  // measure 17
1000
0100
0001
0100
,  // measure 18
1000
0000
0010
0000
0100
0001
0100
0000
,  // measure 19
0010
1000
0001
0010
,  // measure 20
0100
0010
0001
0100
,  // measure 21
0010
1000
0100
0010
,  // measure 22
0001
1000
0001
1000
0200
0000
0310
0000
,  // measure 23
0110
0010
0001
0100
,  // measure 24
0010
1000
0001
0010
,  // measure 25
0001
1000
0100
1000
,  // measure 26
0001
0000
0100
0000
0010
0100
0010
0000
,  // measure 27
0100
0100
0001
0001
,  // measure 28
1000
1000
0010
0010
,  // measure 29
1000
0001
1000
0001
0000
0100
0000
0010
,  // measure 30
0000
1000
0000
0001
0010
0000
0100
0000
,  // measure 31
2000
0000
0000
0001
0000
3001
0000
0000
,  // measure 32
0100
0010
0001
1000
,  // measure 33
0020
0000
0000
0100
0000
0130
0000
0000
,  // measure 34
0010
1000
0001
0100
,  // measure 35
0001
0010
0100
1000
,  // measure 36
0001
0100
0010
1000
,  // measure 37
0001
0010
1000
0010
,  // measure 38
0001
0001
1000
1000
,  // measure 39
1001
0001
0100
0010
,  // measure 40
0100
0000
0001
0000
0010
0100
0010
0000
,  // measure 41
0001
0100
0010
1000
,  // measure 42
0100
0000
0010
0000
0100
1000
0100
0000
,  // measure 43
0010
0001
1000
0010
,  // measure 44
0100
0000
0001
0000
1000
0001
1000
0000
,  // measure 45
0001
0010
0100
1000
,  // measure 46
0010
0000
0100
0000
0001
1000
0001
1000
,  // measure 47
0001
0010
0100
1000
,  // measure 48
0010
0000
0100
0000
0001
1000
0001
0000
,  // measure 49
0010
0100
0010
0001
,  // measure 50
0100
0000
0010
0000
1000
0100
1000
0000
,  // measure 51
0100
0010
0001
0010
,  // measure 52
0100
1000
0010
0100
,  // measure 53
0001
0100
0001
0100
0010
1000
0010
1000
,  // measure 54
0002
1003
0200
0310
,  // measure 55
0001
0100
0010
1000
0010
0100
0001
0000
,  // measure 56
1001
0000
1000
0000
0010
0100
0010
0000
,  // measure 57
1000
0000
0100
0000
0010
0100
0010
0000
,  // measure 58
0100
0000
1000
0000
0010
0100
0010
0000
,  // measure 59
0200
0302
0023
0130
,  // measure 60
1000
0000
0001
0000
0010
0001
0010
0000
,  // measure 61
0200
0000
0000
1300
0000
0000
0100
0000
,  // measure 62
0010
0001
0100
0101
,  // measure 63
0010
1000
0100
1100
,  // measure 64
2002
0000
0000
0000
,  // measure 65
0000
0000
0000
0000
,  // measure 66
3003
0000
0000
0000
;
