#TITLE:PARADISE;
#SUBTITLE:;
#ARTIST:島田奈美;
#TITLETRANSLIT:;
#SUBTITLETRANSLIT:;
#ARTISTTRANSLIT:Nami Shimada;
#CREDIT:Akane;
#BANNER:PARADISE.png;
#BACKGROUND:PARADISE-bg.png;
#LYRICSPATH:;
#CDTITLE:;
#MUSIC:PARADISE.mp3;
#OFFSET:-0.253;
#SAMPLESTART:65.730;
#SAMPLELENGTH:16.420;
#SELECTABLE:YES;
#BPMS:0.000=139.250;
#STOPS:;
#BGCHANGES:;

//---------------dance-single - ----------------
#NOTES:
     dance-single:
     :
     Hard:
     8:
     0.550,0.557,0.339,0.366,0.113:
0000
0000
0000
0000
,
0000
0000
0000
0000
,
0000
0000
0000
0000
,
0000
0000
0000
0000
,
2000
0000
0010
0010
0000
0100
3100
0000
,
0002
0000
0010
0010
0000
0100
0103
0000
,
0001
1000
0001
1000
0100
0000
0020
0000
0000
0000
0100
0000
0130
0000
0000
0000
,
0010
0000
0100
1000
0100
0000
1000
0000
0000
0000
0001
0000
0101
0000
0000
0000
,
1001
0000
0000
0000
1000
0000
0010
0100
0010
0000
1000
0000
0100
0000
0010
0000
,
0000
0000
0001
0000
0100
0000
0010
0100
0010
0000
0100
0000
0001
0000
0010
0000
,
0000
0100
1000
0001
0200
0000
0010
0310
,
0000
0000
0100
0000
0010
0000
1000
0100
1000
0000
0001
0000
0100
0000
0000
0000
,
0110
0000
0000
0000
0010
0000
1000
0001
1000
0000
0001
0000
0010
0000
0100
0000
,
0000
0000
1000
0000
0010
0000
0100
0001
0100
0000
0010
0000
1000
0000
0001
0000
,
0000
0010
0100
1000
0200
0000
0001
0301
,
0000
0000
0100
0000
1000
0000
0010
0100
0010
0000
0100
0001
0100
0000
0010
0000
,
1020
0000
0130
0000
0010
1000
0100
0002
,
0100
0000
1003
0000
0010
0001
0100
2000
,
0100
0000
3001
0000
0010
1000
0100
1000
,
0002
1003
1100
0101
,
2001
0000
3100
0000
1000
0010
0001
0020
,
1000
0000
0130
0000
0010
1000
0100
0020
,
0001
0000
0130
0000
0010
0001
0100
0010
,
0000
0000
1000
0000
0001
0000
0100
0010
0100
0000
0001
0000
0010
0100
0010
0000
,
0200
0000
1000
1000
1300
0000
0100
0010
,
0011
0000
0101
0000
0200
0000
0010
0010
,
0310
0000
0100
0010
1010
0000
1001
0000
,
1000
0000
1100
0000
0001
0100
0001
0000
,
1000
0000
1010
0000
0001
0010
0100
1000
,
0000
0001
1000
0000
0001
0100
0010
0000
,
1000
0000
0100
0000
0010
0000
0000
0000
0001
0000
1000
0000
0010
0100
0010
0000
,
0200
0000
0001
0001
0301
0000
0100
0010
,
1010
0000
0101
0000
0002
0000
0010
0010
,
0013
0000
0001
0010
1100
0000
0101
0000
,
1000
0000
0101
0000
0001
0010
0100
0000
,
1000
0000
1010
0000
0010
0100
0001
1000
,
0000
0001
0010
0000
0100
1000
0001
0000
,
0010
0000
0001
0000
1000
0000
0000
0000
0010
0000
0100
0001
1000
0000
0010
0000
,
1010
0000
0110
0000
0101
0000
0001
2000
,
0000
3200
0000
0310
0000
0001
0100
0010
,
1010
0000
0110
0000
0101
0000
0001
2000
,
0000
3200
0000
0302
0000
0013
0100
0000
,
0110
0000
1010
0000
1001
0000
0001
0200
,
0000
0320
0000
1030
0000
0010
0100
0101
,
0000
0001
0010
1000
0001
0100
1000
0002
,
0000
0000
0000
0000
1003
0000
0000
0000
0001
0000
0100
0000
0010
0000
1000
0001
,
2000
0000
0000
0000
3010
0000
0000
0000
0000
0010
1000
0000
0001
0000
0010
0100
,
0010
0000
0011
0000
1001
0000
1000
0200
,
0000
0320
0000
0031
0000
0100
0010
1000
,
1010
0000
0110
0000
0101
0000
0001
0020
,
0000
2030
0000
3200
0000
0301
0100
0000
,
0110
0000
1010
0000
1001
0000
0001
0200
,
0000
0320
0000
1030
0000
0001
1000
1100
,
0000
0100
0010
0001
0100
0010
1000
0002
,
0000
0000
0000
0000
1003
0000
0000
1000
0010
0000
0100
0000
0001
0000
0010
0100
,
0020
0000
0030
0000
0000
0001
0100
0010
,
2000
0000
0100
0100
0000
0001
3001
0000
,
0002
0000
0100
0100
0000
1000
1003
0000
,
0001
0010
0001
0010
0100
0000
2000
0000
0000
0000
0001
0000
3001
0000
0000
0000
,
1000
0000
0010
0000
0100
0000
0001
0000
1000
0100
1000
0000
0001
0000
0100
0001
,
0200
0000
0010
0010
0000
1000
1300
0000
,
0020
0000
0100
0100
0000
0001
0031
0000
,
0010
0100
0010
0100
0001
0000
2000
0000
0000
0000
0010
0000
3010
0000
0000
0000
,
1000
0000
0010
0100
0001
0000
2002
0000
0000
0000
0000
0000
0000
0000
0000
0000
,
3003
0000
0000
0000
;

//---------------dance-single - ----------------
#NOTES:
     dance-single:
     :
     Beginner:
     1:
     0.096,0.111,0.000,0.000,0.000: // measure 1
0000
0000
0000
0000
,  // measure 2
0000
0000
0000
0000
,  // measure 3
0000
0000
0000
0000
,  // measure 4
0000
0000
0000
0000
,  // measure 5
1000
0000
0000
0000
,  // measure 6
0100
0000
0000
0000
,  // measure 7
0010
0000
0000
0000
,  // measure 8
0001
0000
0000
0000
,  // measure 9
1000
0000
0000
0000
,  // measure 10
0001
0000
0000
0000
,  // measure 11
0100
0000
0100
0000
,  // measure 12
0100
0000
0000
0000
,  // measure 13
0001
0000
0000
0000
,  // measure 14
1000
0000
0000
0000
,  // measure 15
0010
0000
0010
0000
,  // measure 16
0010
0000
0000
0000
,  // measure 17
1000
0000
0000
0000
,  // measure 18
0100
0000
0000
0000
,  // measure 19
0001
0000
0000
0000
,  // measure 20
0100
0000
0100
0000
,  // measure 21
0100
0000
0000
0000
,  // measure 22
1000
0000
0000
0000
,  // measure 23
0010
0000
0000
0000
,  // measure 24
0001
0000
0001
0000
,  // measure 25
0010
0000
0000
0010
,  // measure 26
0000
0000
1000
0000
,  // measure 27
0000
1000
0000
0000
,  // measure 28
0100
0000
0000
0000
,  // measure 29
0010
0000
0000
0000
,  // measure 30
0001
0000
0000
0000
,  // measure 31
1000
0000
0000
0000
,  // measure 32
0010
0000
0000
0010
,  // measure 33
0000
0000
0100
0000
,  // measure 34
0000
0100
0000
0000
,  // measure 35
0001
0000
0000
0000
,  // measure 36
1000
0000
0000
0000
,  // measure 37
0010
0000
0000
0000
,  // measure 38
0100
0000
0000
0000
,  // measure 39
0001
0000
0001
0000
,  // measure 40
0001
0000
0000
0000
,  // measure 41
0010
0000
0010
0000
,  // measure 42
0010
0000
0000
0000
,  // measure 43
0100
0000
0100
0000
,  // measure 44
0100
0000
0000
0000
,  // measure 45
1000
0000
1000
0000
,  // measure 46
1000
0000
0000
0000
,  // measure 47
0001
0000
0000
0000
,  // measure 48
0010
0000
0010
0000
,  // measure 49
0010
0000
0000
0000
,  // measure 50
0100
0000
0100
0000
,  // measure 51
0100
0000
0000
0000
,  // measure 52
1000
0000
1000
0000
,  // measure 53
1000
0000
0000
0000
,  // measure 54
0001
0000
0001
0000
,  // measure 55
0001
0000
0000
0000
,  // measure 56
0100
0000
0000
0000
,  // measure 57
0010
0000
0000
0000
,  // measure 58
1000
0000
0000
0000
,  // measure 59
0001
0000
0000
0000
,  // measure 60
0100
0000
0100
0000
,  // measure 61
0100
0000
0000
0000
,  // measure 62
0001
0000
0000
0000
,  // measure 63
0010
0000
0000
0000
,  // measure 64
0100
0100
0100
0000
;

//---------------dance-single - ----------------
#NOTES:
     dance-single:
     :
     Easy:
     4:
     0.280,0.304,0.044,0.026,0.000: // measure 1
0000
0000
0000
0000
,  // measure 2
0000
0000
0000
0000
,  // measure 3
0000
0000
0000
0000
,  // measure 4
0000
0000
0000
0000
,  // measure 5
1000
0100
0010
0001
,  // measure 6
1000
0010
0100
0001
,  // measure 7
1000
0100
0001
0100
,  // measure 8
1000
0010
0001
0010
,  // measure 9
1000
0000
0001
0100
,  // measure 10
0001
0000
1000
0010
,  // measure 11
1000
0001
0010
0001
,  // measure 12
1000
0000
1001
0000
,  // measure 13
0001
0000
0010
0100
,  // measure 14
1000
0000
0100
0010
,  // measure 15
0001
0100
0010
1000
,  // measure 16
0001
0000
1001
0000
,  // measure 17
0001
0000
0010
0100
,  // measure 18
1000
0000
0100
0010
,  // measure 19
0001
0000
1000
0010
,  // measure 20
0100
0001
0100
0010
,  // measure 21
1000
0000
0001
0100
,  // measure 22
1000
0000
0001
0010
,  // measure 23
1000
0000
0001
0100
,  // measure 24
0010
1000
0001
0000
,  // measure 25
1000
1000
1000
0001
,  // measure 26
0001
0001
0100
0100
,  // measure 27
0100
0010
0000
0100
,  // measure 28
0001
0010
0001
0100
,  // measure 29
0001
0010
0001
0100
,  // measure 30
0010
1000
0010
0100
,  // measure 31
0010
1000
0010
0100
,  // measure 32
0010
0010
0010
1000
,  // measure 33
1000
1000
0001
0001
,  // measure 34
0001
0010
0010
0010
,  // measure 35
0100
1000
0010
1000
,  // measure 36
0100
1000
0010
1000
,  // measure 37
0100
0010
0001
0010
,  // measure 38
0100
0010
0001
0010
,  // measure 39
0100
1000
0001
0010
,  // measure 40
0001
1000
0010
0000
,  // measure 41
0100
0001
0010
0100
,  // measure 42
1000
0001
1000
1000
,  // measure 43
0001
0010
0100
1000
,  // measure 44
0100
0010
0001
0100
,  // measure 45
0010
0010
0100
0100
,  // measure 46
0001
0001
1000
1000
,  // measure 47
0020
0000
0030
0100
,  // measure 48
0010
0100
0001
0010
,  // measure 49
0100
1000
0001
0000
,  // measure 50
1000
0010
0001
0010
,  // measure 51
1000
0100
0001
0001
,  // measure 52
0100
1000
0010
0100
,  // measure 53
0001
0010
0100
1000
,  // measure 54
0001
0100
1000
0010
,  // measure 55
0001
0001
1000
1000
,  // measure 56
2002
3003
0000
0001
,  // measure 57
1001
0001
0010
0100
,  // measure 58
1000
0100
0010
0001
,  // measure 59
1000
0010
0100
0001
,  // measure 60
0100
0010
1000
0010
,  // measure 61
0100
0001
0010
0001
,  // measure 62
0100
0010
1000
0010
,  // measure 63
0100
0001
0010
0100
,  // measure 64
1000
0001
1001
0000
;

//---------------dance-single - ----------------
#NOTES:
     dance-single:
     :
     Medium:
     5:
     0.381,0.390,0.131,0.148,0.000: // measure 1
0000
0000
0000
0000
,  // measure 2
0000
0000
0000
0000
,  // measure 3
0000
0000
0000
0000
,  // measure 4
0000
0000
0000
0000
,  // measure 5
1000
0000
0000
0100
0000
0000
0010
0000
,  // measure 6
0001
0000
0000
0100
0000
0000
0010
0000
,  // measure 7
1000
0001
1000
0002
0000
0000
0103
0000
,  // measure 8
0001
0010
0100
1000
0000
1000
0001
0000
,  // measure 9
1001
0000
0001
0000
0010
0100
0010
0000
,  // measure 10
0001
0000
0100
0000
0010
0100
0010
0000
,  // measure 11
1000
0000
0100
0000
0010
0100
0010
0100
,  // measure 12
1000
0001
0100
1010
,  // measure 13
0010
0000
0100
0000
0001
0010
0001
0000
,  // measure 14
0010
0000
0100
0000
1000
0100
1000
0000
,  // measure 15
0100
0000
0010
0000
0001
1000
0001
1000
,  // measure 16
0001
0100
0010
1000
,  // measure 17
1001
0000
1000
0000
0100
0000
0010
0001
,  // measure 18
0100
0000
0010
0000
1000
0000
0100
1000
,  // measure 19
0010
0000
0100
0000
0001
0000
0010
0100
,  // measure 20
1000
0001
1100
0101
,  // measure 21
1001
0000
0001
0000
0010
0000
0100
1000
,  // measure 22
0001
0000
0010
0000
0001
0000
0100
0010
,  // measure 23
1000
0000
0010
0000
0100
0000
0001
1000
,  // measure 24
0100
0000
0010
0000
0001
1000
0001
1000
,  // measure 25
0002
0100
0103
0020
,  // measure 26
1000
1030
0200
1000
,  // measure 27
1300
0002
0010
0013
,  // measure 28
0001
0100
1000
0100
,  // measure 29
0001
0010
1000
0010
,  // measure 30
0001
0100
0010
1000
,  // measure 31
0001
0000
0010
0000
0100
1000
0001
0000
,  // measure 32
0200
0010
0310
2000
,  // measure 33
0001
3001
0020
0001
,  // measure 34
0031
0200
0010
0310
,  // measure 35
0100
0010
1000
0010
,  // measure 36
0100
0001
1000
0100
,  // measure 37
0010
0001
1000
0001
,  // measure 38
0100
0000
0010
0000
1000
0100
0010
0001
,  // measure 39
1000
0000
0001
0000
0101
0000
0001
0100
,  // measure 40
0000
0010
0000
1000
0000
0010
0100
0000
,  // measure 41
0001
0000
1000
0000
1100
0000
0100
0010
,  // measure 42
0000
0001
0000
0010
0000
0100
1000
0000
,  // measure 43
0001
0000
0100
0000
0101
0000
0001
0100
,  // measure 44
0000
0010
0000
1000
0000
0100
0010
0001
,  // measure 45
0000
1000
0010
0100
0001
0100
0010
2000
,  // measure 46
0000
0000
3001
0000
1000
0100
0010
0000
,  // measure 47
2002
0000
3003
0000
0001
0100
0010
0000
,  // measure 48
1000
0000
0010
0000
0110
0000
0100
0001
,  // measure 49
0000
0010
0000
0100
0000
1000
0001
0000
,  // measure 50
1000
0000
0001
0000
0011
0000
0001
0010
,  // measure 51
0000
0100
0000
1000
0000
0001
1000
0000
,  // measure 52
0010
0000
0100
0000
1001
0000
0001
0010
,  // measure 53
0000
0100
0000
1000
0000
0010
0100
0001
,  // measure 54
0000
1000
0100
0010
0001
0010
0100
2000
,  // measure 55
0000
0000
3001
0000
1000
0010
0100
0000
,  // measure 56
1001
0000
0000
0000
0000
0001
0010
0100
,  // measure 57
1000
0000
0000
0010
0000
0000
0100
0000
,  // measure 58
0001
0000
0000
0010
0000
0000
0100
0000
,  // measure 59
1000
0001
1000
0002
0000
0000
0103
0000
,  // measure 60
0001
0010
0100
0000
0010
0100
1000
0000
,  // measure 61
0010
0000
0000
1000
0000
0000
0100
0000
,  // measure 62
0010
0000
0000
0001
0000
0000
0100
0000
,  // measure 63
0010
1000
0010
2000
0000
0000
3001
0000
,  // measure 64
1000
0100
0010
2002
0000
0000
0000
0000
,  // measure 65
3003
0000
0000
0000
;
