#TITLE:Hormiga obrera;
#SUBTITLE:;
#ARTIST:Shawn The Horny Master;
#TITLETRANSLIT:;
#SUBTITLETRANSLIT:;
#ARTISTTRANSLIT:;
#CREDIT:silenttype01;
#BANNER:ZIv_Summer_2012.png;
#BACKGROUND:ZIv_Summer_2012-bg.png;
#LYRICSPATH:;
#CDTITLE:ziv_sc_2012_cdtitle.png;
#MUSIC:Hormiga obrera.mp3;
#OFFSET:-0.380;
#SAMPLESTART:29.898;
#SAMPLELENGTH:14.800;
#SELECTABLE:YES;
#DISPLAYBPM:130.000;
#BPMS:0.000=130.000,95.000=260.000,96.000=130.000;
#STOPS:87.500=0.231
,220.000=0.923
;
#BGCHANGES:;

//---------------dance-single - ----------------
#NOTES:
     dance-single:
     :
     Easy:
     3:
     0.215,0.314,0.225,0.101,0.000:
0000
0000
0000
0000
,
0000
0000
0000
0000
,
0000
0000
0000
0000
,
0000
0000
0000
0000
,
1001
0000
0000
0000
,
1001
0000
0000
0000
,
0110
0000
0000
0000
,
1001
0000
0000
0000
,
1001
1000
0000
0001
,
0100
0010
0000
0010
,
1000
0001
0000
0001
,
1000
0100
0000
0100
,
0010
0001
0000
0001
,
1000
0100
0000
0100
,
0110
0000
0110
0000
,
1001
0000
1001
0000
,
0100
0010
0100
0000
,
0100
0010
0100
0000
,
0100
0010
0100
0000
,
0100
0010
0100
0000
,
1000
0001
1000
0000
,
0001
1000
0001
0000
,
0000
0010
0000
0100
0000
0000
0000
0110
,
0000
0000
0000
0000
,
1000
1000
1000
1000
,
0001
0001
0001
0001
,
0100
0100
0100
0100
,
0010
0010
0010
0010
,
1000
1000
0001
0001
,
0100
0100
0010
0010
,
0100
1001
1001
1001
,
1001
0000
0000
0000
,
0020
0000
0000
0030
,
0002
0000
0000
0003
,
0200
0000
0000
0300
,
0020
0000
0000
0030
,
2000
0000
0000
3000
,
0200
0000
0000
0300
,
0002
0000
0000
0003
,
0100
0000
0100
0000
,
2100
0100
3100
0000
,
0102
0100
0103
0000
,
0120
0100
0130
0000
,
2001
0001
3001
0000
,
0000
0100
0000
0100
,
0000
0010
0000
0010
,
0000
1000
0000
0001
,
0100
0100
1001
1001
,
2002
0000
0000
0000
,
0000
0000
0000
0000
,
3003
0000
0000
0000
,
0000
0000
0000
0000
,
1001
0100
0100
0100
,
0100
0100
0100
0100
,
1000
0001
1000
0001
,
1000
0000
1000
0100
,
0010
0000
0001
0010
,
0100
0000
1000
0001
,
1000
0000
0001
1000
,
0001
0000
1000
0100
,
0001
0000
0001
0100
,
1000
0000
1000
0010
,
0001
0000
0001
0010
,
1000
0000
1001
0000
,
0000
0000
1001
0000
,
0000
0000
1001
0000
,
0000
0000
1001
0000
,
1001
1001
1001
0000
;

//---------------dance-single - ----------------
#NOTES:
     dance-single:
     :
     Medium:
     5:
     0.326,0.445,0.380,0.116,0.027:
0000
0000
0000
0000
,
0000
0000
0000
0000
,
0000
0000
0000
0000
,
0000
0000
0000
0000
,
0010
0000
0000
0000
0000
0000
0000
1000
,
0001
0000
0000
0000
0000
0000
0000
0000
0000
0000
0000
0000
0000
0200
0000
0000
,
0310
0000
0000
0000
0000
0000
0000
0010
,
1000
0000
0000
0000
0000
0000
0000
0000
0100
0000
0000
0100
0000
0000
0100
0000
,
0010
0000
0001
0000
0100
0000
0010
1000
,
0100
0000
0010
0000
0001
0000
0100
0010
,
1000
0000
0001
0000
0100
0000
1000
0100
,
0001
0000
1000
0000
0001
0000
1000
0100
,
0001
0000
0100
0000
0010
0000
0001
0100
,
0010
0000
1000
0000
0100
0000
0001
0100
,
1000
0000
1001
0000
,
1001
0000
0000
0000
,
1001
0001
0100
0010
,
0001
0000
0010
0000
0100
0000
0010
0010
,
0010
1000
0100
0010
,
1000
0000
0010
0000
0100
0000
0001
0100
,
1100
0010
0001
0100
,
1000
0000
0100
0000
0001
0000
0010
0110
,
0000
0100
0000
1000
0000
0001
0000
0100
,
0000
0000
0000
0000
,
1000
1100
0001
0101
,
1000
0000
1010
0000
0001
0000
0011
0001
,
0100
0110
0001
1001
,
1000
0000
1100
0000
0100
0000
0110
0100
,
0010
0011
0001
0101
,
0100
0000
1010
0000
0001
0000
0100
0110
,
0000
0011
0101
1100
,
1001
0000
0000
0000
,
2000
0010
0100
3010
,
0002
1000
0100
1003
,
0200
0001
1000
0301
,
0020
1000
0001
1030
,
0200
0001
0010
1300
,
0200
1000
0010
0301
,
0020
1000
0100
0031
,
0020
0001
0100
1030
,
1010
0101
0011
1100
,
1001
0110
1001
0110
,
1000
0100
0001
0100
,
1000
0001
0100
1000
,
0100
0001
0000
0001
,
0000
1000
0000
1000
,
0000
0001
0000
0001
,
2000
3200
0310
1001
,
2002
0000
0000
0000
,
0000
0000
0000
0000
,
3003
0000
0000
0000
,
0000
0000
0000
0000
0000
0000
0000
0000
0000
0000
0000
0010
0000
0000
0010
0000
,
0010
0100
0100
0100
,
0100
0100
0100
0100
,
0010
0000
0000
1000
0000
0000
0001
0000
0000
0010
0000
0000
0002
0000
0000
0000
,
1003
0000
0001
0011
,
0100
1100
1000
1010
,
0100
0000
0101
0100
0010
0000
0110
0000
,
1000
0000
1001
0000
0001
0010
0001
0010
,
0100
0001
0100
1000
0100
0000
1100
0000
,
1000
1010
0010
0101
,
1000
0000
0010
0100
0110
0000
1100
0000
,
1010
0011
0101
1100
,
0110
1001
0010
0000
,
0000
0000
0000
1000
0001
0000
0000
0000
,
0000
0000
0000
0000
0000
0200
0000
0000
0310
0000
0000
0000
0000
0000
0000
0000
,
0000
0000
0000
0010
1000
0000
0000
0000
,
0100
0000
0000
0100
0000
0000
0100
0000
0110
0000
0000
0000
0000
0000
0000
0000
;

//---------------dance-single - ----------------
#NOTES:
     dance-single:
     :
     Hard:
     8:
     0.484,0.550,0.194,0.225,0.601:
0000
0000
0000
0000
,
0000
0000
0000
0000
,
0000
0000
0000
0000
,
0000
0000
0000
0000
,
0010
0000
0000
0000
0000
0000
0000
0001
,
1000
0000
0000
0000
0000
0000
0000
0000
0000
0000
0000
0000
0000
0200
0000
0000
,
0310
0000
0000
0000
0000
0000
0000
0010
,
0001
0000
0000
0000
0000
0000
0000
0000
0001
0000
0000
0001
0000
0000
0001
0000
,
1000
0000
0100
0000
0010
0000
0001
0010
,
1000
0000
0000
0000
0100
0000
0000
0000
0001
0000
0000
0000
0010
0001
0000
0000
,
0110
0000
0100
0000
1000
0000
0001
0010
,
0100
0000
0000
0000
1000
0000
0000
0000
0001
0000
0000
1000
0000
0000
1000
0000
,
0010
0000
0100
0000
1000
0000
0001
0010
,
1000
0000
0000
0000
1000
0000
0000
0000
0001
0000
0000
0000
0100
0010
0000
0000
,
0110
0000
0110
0000
,
1001
0000
0000
0000
0000
0000
1000
0100
0010
0001
1000
0100
,
0010
0000
0000
0001
0000
0100
0000
0010
0000
1000
0000
0001
0000
0001
0100
0000
,
0010
0000
0000
1000
0000
0100
0000
0001
0000
0100
0000
0100
1000
0000
0020
0000
,
0130
0000
0000
0001
0000
0010
0000
0100
0000
1000
0000
0001
0000
0001
0100
0000
,
0010
0000
0000
1000
0000
0100
0000
0001
0000
0100
0000
0100
0000
0000
0020
0000
,
0130
0000
0000
1000
0000
0010
0000
0100
0000
0001
0000
1000
0000
1000
0010
0000
,
0100
0000
0000
0001
0000
0010
0000
1000
0000
0010
0000
0010
0001
0000
2000
0000
,
3010
1000
0000
0100
0000
0010
0000
0001
0000
1000
0000
1000
0010
0000
0100
0000
,
0000
0001
0000
0010
0000
1000
0000
0010
0000
0010
0000
0000
0000
0000
0000
0000
,
0001
0000
0100
1000
0000
0100
0000
0100
0000
0001
0000
0001
0010
0000
0100
1000
,
0010
0000
1000
0010
0000
0010
0000
0100
0000
0100
0000
0001
0100
0000
0020
0000
,
1030
0000
0100
0001
0000
0100
0000
0100
0000
1000
0000
1000
0010
0000
0100
0001
,
0010
0000
0001
0010
0000
0010
0000
0100
0000
0100
0000
1000
0100
0000
0020
0000
,
0031
0000
0010
1000
0000
0010
0000
0010
0000
0001
0000
0001
0100
0000
0010
1000
,
0100
0000
1000
0100
0000
0100
0000
0010
0000
0010
0000
0001
0010
0000
0002
0000
,
0000
0003
0101
0000
1100
0000
1010
0000
,
1001
0000
0000
0000
0000
0000
0000
0000
0000
0000
0000
0001
0100
0000
0100
0000
,
0010
1000
0001
0000
0100
1000
0100
0000
,
0010
0000
1000
0000
0100
0000
0100
0000
0001
0000
0100
0000
1000
0000
0100
0010
,
0001
0000
0000
0000
1000
0000
0100
0000
0010
0000
0001
0000
0100
0000
0001
0010
,
0200
0000
0000
2300
0000
0000
3020
0000
0002
0030
0000
0203
0000
0000
1300
0000
,
0010
0010
1000
0000
0001
0100
0100
0010
,
1000
0000
0100
0000
0001
0000
1000
0000
0002
0000
0000
0203
0000
0000
1300
0000
,
2000
0001
0100
0001
,
3020
0000
0000
0000
1000
0000
0000
0000
0001
0000
0000
0100
0000
0000
0100
0000
,
0130
0000
0101
0000
0010
1000
1100
0000
,
0010
0001
0101
0000
0010
1000
1100
0010
,
0001
0100
0101
0000
0001
0100
1100
0000
,
1000
0000
0100
0000
0101
0000
0000
0000
0100
0000
0000
0100
0000
0000
0100
0000
,
1001
0000
0000
0000
0010
0000
0001
0000
2000
0000
0000
3200
0000
0000
0302
0000
,
0200
0003
0000
0302
0000
0000
0203
0000
0000
0000
0301
0000
0100
0000
1000
0000
,
0020
1000
0001
0100
,
1030
0001
1000
0001
1000
0001
1000
0000
0000
1001
0000
0000
,
2002
0000
0000
0000
,
0000
0000
0000
0000
,
3003
0000
0000
0000
,
0000
0000
0000
0000
0000
0000
0000
0000
0000
0000
0000
1010
0000
0000
1010
0000
,
0101
0100
0100
0100
,
0100
0000
0000
0000
0100
0000
0000
0000
0100
0000
0000
0000
0100
0000
0000
0001
,
1000
0000
0000
0000
0000
0000
0100
0000
0000
1000
0000
0000
0000
0000
0000
0001
0000
0000
1000
0000
0000
0000
0000
0000
0100
0000
0000
1000
0000
0000
0000
0000
0000
0001
0000
0000
1000
0000
0000
0000
1000
0000
0000
0000
1000
0000
0000
0000
,
1000
0000
0000
0000
0000
0000
0000
0000
0010
0000
1000
0010
0000
1000
0000
1000
,
0000
0100
0000
0100
0001
0000
1000
0010
0001
0000
0010
0001
0000
0001
0000
1000
,
0000
1000
0000
0100
1000
0000
0020
0000
1030
0000
0001
0100
0000
0001
0000
0001
,
0000
0010
0000
0010
1000
0000
0001
0100
1000
0000
0100
1000
0000
1000
0000
0001
,
0000
0001
0000
0010
1000
0000
0020
0000
0130
0000
1000
0010
0000
1000
0000
1000
,
0000
0100
0000
0100
0001
0000
1000
0010
0001
0000
0010
0001
0000
0001
0000
1000
,
0000
1000
0000
0100
1000
0000
0020
0000
0130
0000
0010
0001
0000
0010
0000
1000
,
0000
0100
0000
0010
0000
0001
1000
0100
0010
0000
0001
0010
0000
1000
0000
0010
,
0000
0100
0000
0010
0000
0000
0000
0000
1001
0000
0000
0000
0000
0000
0000
0000
,
0000
0000
0000
0100
1001
0000
0000
0000
,
0000
0000
0000
0000
0000
0200
0000
0000
0310
0000
0000
0000
0000
0000
0000
0000
,
0000
0000
0000
0010
1001
0000
0000
0000
,
0100
0000
0000
0100
0000
0000
0100
0000
0110
0000
0000
0000
0000
0000
0000
0000
;

//---------------dance-double - Copied from ----------------
#NOTES:
     dance-double:
     Copied from:
     Challenge:
     1:
     0.451,0.524,0.039,0.016,0.671: // measure 1
00000000
00000000
00000000
00000000
,  // measure 2
00000000
00000000
00000000
00000000
,  // measure 3
00000000
00000000
00000000
00000000
,  // measure 4
00000000
00000000
00000000
00000000
,  // measure 5
00100000
00000000
00000000
00000000
00000000
00000000
00000000
00010000
,  // measure 6
10000000
00000000
00000000
00000000
00000000
00000000
00000000
00000000
00000000
00000000
00000000
00000000
00000000
02000000
00000000
00000000
,  // measure 7
03100000
00000000
00000000
00000000
00000000
00000000
00000000
00100000
,  // measure 8
00010000
00000000
00000000
00000000
00000000
00000000
00000000
00000000
00010000
00000000
00000000
00010000
00000000
00000000
00010000
00000000
,  // measure 9
10000000
00000000
01000000
00000000
00100000
00000000
00010000
00100000
,  // measure 10
10000000
00000000
00000000
00000000
01000000
00000000
00000000
00000000
00010000
00000000
00000000
00000000
00100000
00010000
00000000
00000000
,  // measure 11
01100000
00000000
01000000
00000000
10000000
00000000
00010000
00100000
,  // measure 12
01000000
00000000
00000000
00000000
10000000
00000000
00000000
00000000
00010000
00000000
00000000
10000000
00000000
00000000
10000000
00000000
,  // measure 13
00100000
00000000
01000000
00000000
10000000
00000000
00010000
00100000
,  // measure 14
10000000
00000000
00000000
00000000
10000000
00000000
00000000
00000000
00010000
00000000
00000000
00000000
01000000
00100000
00000000
00000000
,  // measure 15
01100000
00000000
01100000
00000000
,  // measure 16
10010000
00000000
00000000
00000000
00000000
00000000
00010000
00010000
00010000
00010000
00010000
00010000
,  // measure 17
10000000
00000000
00010000
10000000
00000000
10000000
00000000
10000000
00000000
10000000
00000000
10000000
00000000
10000000
01000000
10000000
,  // measure 18
01000000
00000000
10000000
00010000
00000000
00010000
00000000
00010000
00000000
00010000
00000000
00010000
01000000
00000000
00100000
00000000
,  // measure 19
01000000
00000000
00010000
10000000
00000000
10000000
00000000
10000000
00000000
10000000
00000000
10000000
00000000
10000000
01000000
10000000
,  // measure 20
01000000
00000000
10000000
01000000
00000000
10000000
00000000
10000000
00000000
10000000
00000000
10000000
00000000
00000000
10000000
00000000
,  // measure 21
00010000
00000000
10000000
00010000
00000000
10000000
00000000
10000000
00000000
10000000
00000000
10000000
00000000
10000000
01000000
10000000
,  // measure 22
01000000
00000000
10000000
00010000
00000000
10000000
00000000
10000000
00000000
10000000
00000000
10000000
00100000
00000000
00100000
00000000
,  // measure 23
00100000
10000000
00000000
10000000
00000000
10000000
00000000
10000000
00000000
10000000
00000000
10000000
01000000
10000000
01000000
00000000
,  // measure 24
00100000
01000000
00000000
01000000
00000000
01000000
00000000
01000000
00000000
01000000
00000000
00000000
00000000
00000000
00000000
00000000
,  // measure 25
10000000
00000000
00010000
10000000
00000000
00010000
00000000
10000000
00000000
00010000
00000000
10000000
00010000
00000000
10000000
00010000
,  // measure 26
10000000
00000000
01000000
00100000
00000000
00010000
00000000
10000000
00000000
01000000
00000000
10000000
01000000
00000000
00010000
00000000
,  // measure 27
10000000
00000000
00010000
10000000
00000000
00010000
00000000
10000000
00000000
00010000
00000000
10000000
00010000
00000000
10000000
00010000
,  // measure 28
10000000
00000000
01000000
00100000
00000000
00010000
00000000
10000000
00000000
01000000
00000000
10000000
01000000
00000000
00010000
00000000
,  // measure 29
10000000
00000000
00010000
10000000
00000000
00010000
00000000
10000000
00000000
00010000
00000000
10000000
00010000
00000000
10000000
00010000
,  // measure 30
10000000
00000000
01000000
00100000
00000000
00010000
00000000
10000000
00000000
01000000
00000000
10000000
01000000
00000000
00020000
00000000
,  // measure 31
00000000
00000000
10030000
01000000
00000000
00010000
00000000
10000000
00000000
00100000
00000000
00010000
00000000
10000000
00010000
10000000
,  // measure 32
00100000
00000000
01000000
00100000
00000000
10000000
00000000
00010000
00000000
01000000
00000000
00010000
01000000
00000000
01000000
00000000
,  // measure 33
00100000
10000000
00010000
00100000
,  // measure 34
01000000
00000000
00000000
00000000
10000000
00000000
00000000
00000000
00100000
00000000
00000000
00000000
10000000
00000000
00010000
00100000
,  // measure 35
01000000
00000000
00000000
00000000
10000000
00000000
00000000
00000000
00100000
00000000
00000000
00000000
10000000
00000000
00010000
00100000
,  // measure 36
01000000
00000000
00000000
10000000
00000000
00000000
00010000
00000000
01000000
00000000
00000000
00100000
00000000
00000000
00010000
00000000
,  // measure 37
00100000
00000000
01000000
10000000
00010000
00000000
00100000
01000000
,  // measure 38
10000000
00000000
00000000
00000000
00010000
00000000
01000000
00000000
00100000
00000000
00000000
00100000
00000000
00000000
00100000
00000000
,  // measure 39
00100000
10000000
00010000
00100000
,  // measure 40
01000000
00000000
00000000
00000000
10000000
00000000
00000000
00000000
00100000
00000000
00000000
01000000
00000000
00000000
01000000
00000000
,  // measure 41
01000000
00010000
00100000
01000000
,  // measure 42
10000000
00000000
00010000
00000000
01000000
00100000
10000000
00010000
,  // measure 43
10000000
00100000
00010000
01000000
,  // measure 44
10000000
00000000
00000000
00000000
00100000
00000000
00000000
00000000
01000000
00000000
00000000
00010000
00000000
00000000
00010000
00000000
,  // measure 45
00100000
00000000
00000000
00000000
01000000
00000000
10000000
00000000
00010000
00000000
00000000
00100000
00000000
00000000
01000000
00000000
,  // measure 46
10000000
00000000
00000000
00010000
00000000
00000000
00100000
00000000
00000000
00000000
10000000
00000000
01000000
00000000
00010000
00000000
,  // measure 47
00100000
10000000
00010000
01000000
,  // measure 48
10000000
00010000
10000000
00010000
10000000
00010000
01000000
00000000
00000000
00100000
00000000
00000000
,  // measure 49
00100000
00000000
01000000
00000000
00000000
00000000
00000000
00000000
00000000
01000000
00000000
00000000
00000000
00000000
00000000
00000000
,  // measure 50
00000000
00000000
00000000
01000000
00000000
00000000
00000000
00000000
00000000
00000000
00000000
00000000
00000000
01000000
00000000
00000000
00000000
00000000
00000000
00000000
00000000
00000000
00000000
00000000
,  // measure 51
00000000
00000000
00000000
01000000
00000000
00000000
00000000
00000000
00000000
00000000
00000000
00000000
00000000
01000000
00000000
00000000
00000000
00000000
00000000
00000000
00000000
00000000
00000000
00000000
,  // measure 52
00000000
00000000
00000000
00000000
00000000
00000000
01000000
00000000
00000000
00000000
00000000
00000000
00000000
00000000
00000000
00000000
00000000
00000000
00000000
00000000
00000000
00000000
00000000
00000000
00000000
00000000
01000000
00000000
00000000
00000000
00000000
00000000
00000000
01000000
00000000
00000000
00000000
00000000
00000000
00000000
00000000
00000000
01000000
00000000
00000000
00000000
00000000
00000000
,  // measure 53
01000000
01000000
01000000
01000000
,  // measure 54
01000000
01000000
01000000
01000000
,  // measure 55
10000000
00000000
00000000
00000000
00000000
00000000
01000000
00000000
00000000
10000000
00000000
00000000
00000000
00000000
00000000
01000000
00000000
00000000
10000000
00000000
00000000
00000000
00000000
00000000
01000000
00000000
00000000
10000000
00000000
00000000
00000000
00000000
00000000
01000000
00000000
00000000
10000000
00000000
00000000
00000000
10000000
00000000
00000000
00000000
10000000
00000000
00000000
00000000
,  // measure 56
10000000
00000000
00000000
00000000
00000000
00000000
00000000
00000000
10000000
00000000
01000000
10000000
00000000
01000000
00000000
01000000
,  // measure 57
00000000
01000000
00000000
01000000
10000000
00000000
01000000
10000000
01000000
00000000
10000000
01000000
00000000
01000000
00000000
01000000
,  // measure 58
00000000
01000000
00000000
01000000
10000000
00000000
10000000
00000000
00010000
00000000
10000000
00010000
00000000
10000000
00000000
10000000
,  // measure 59
00000000
10000000
00000000
10000000
00010000
00000000
10000000
00010000
10000000
00000000
00010000
10000000
00000000
00010000
00000000
10000000
,  // measure 60
00000000
00010000
00000000
10000000
00010000
00000000
00100000
00000000
00010000
00000000
10000000
00010000
00000000
10000000
00000000
00010000
,  // measure 61
00000000
10000000
00000000
00010000
10000000
00000000
00010000
10000000
00010000
00000000
10000000
00010000
00000000
10000000
00000000
00010000
,  // measure 62
00000000
10000000
00000000
00010000
10000000
00000000
00100000
00000000
01000000
00000000
10000000
01000000
00000000
01000000
00000000
01000000
,  // measure 63
00000000
01000000
00000000
01000000
00000000
10000000
00010000
10000000
00010000
00000000
01000000
00100000
00000000
00100000
00000000
00100000
,  // measure 64
00000000
00100000
00000000
00100000
00000000
00000000
00000000
00000000
10000000
00000000
00000000
00000000
00000000
00000000
00000000
00000000
,  // measure 65
00000000
00000000
00000000
00010000
10000000
00000000
00000000
00000000
,  // measure 66
00000000
00000000
00000000
00000000
00000000
00010000
00000000
00000000
10000000
00000000
00000000
00000000
00000000
00000000
00000000
00000000
,  // measure 67
00000000
00000000
00000000
00010000
10000000
00000000
00000000
00000000
,  // measure 68
01000000
00000000
00000000
01000000
00000000
00000000
01000000
00000000
11110000
00000000
00000000
00000000
00000000
00000000
00000000
00000000
;
