#VERSION:0.81;
#TITLE:Hawaiian Roller Coaster Ride;
#SUBTITLE:;
#ARTIST:Jump5;
#TITLETRANSLIT:;
#SUBTITLETRANSLIT:;
#ARTISTTRANSLIT:;
#GENRE:;
#ORIGIN:;
#CREDIT:;
#BANNER:hawaiian-banner.png;
#BACKGROUND:hawaiian-bg.png;
#PREVIEWVID:;
#JACKET:hawaiian-jacket.png;
#CDIMAGE:;
#DISCIMAGE:;
#LYRICSPATH:;
#CDTITLE:cdtitle.png;
#MUSIC:Hawaiian Roller Coaster Ride.mp3;
#OFFSET:-0.105;
#SAMPLESTART:13.003;
#SAMPLELENGTH:25.000;
#SELECTABLE:YES;
#BPMS:0.000=222.001;
#STOPS:;
#DELAYS:;
#WARPS:;
#TIMESIGNATURES:0.000=4=4;
#TICKCOUNTS:0.000=4;
#COMBOS:0.000=1;
#SPEEDS:0.000=1.000=0.000=0;
#SCROLLS:0.000=1.000;
#FAKES:;
#LABELS:0.000=Song Start;
#BGCHANGES:;
#KEYSOUNDS:;
#ATTACKS:
;

//---------------dance-single - Blank----------------
#NOTEDATA:;
#CHARTNAME:;
#STEPSTYPE:dance-single;
#DESCRIPTION:Blank;
#CHARTSTYLE:;
#DIFFICULTY:Hard;
#METER:9;
#RADARVALUES:0.651,0.671,0.369,0.351,0.000,405.000,39.000,37.000,0.000,0.000,0.000,0.000,0.000,0.651,0.671,0.369,0.351,0.000,405.000,39.000,37.000,0.000,0.000,0.000,0.000,0.000;
#CREDIT:;
#NOTES:
// measure 0
0000
0000
0000
0000
,  // measure 1
0000
0001
0100
0000
0010
1000
0001
0100
,  // measure 2
0001
0010
0001
0100
0010
0000
0000
0000
,  // measure 3
0000
0010
1000
0000
0001
0100
0001
0010
,  // measure 4
0001
0000
0001
0100
0000
0100
0000
0010
,  // measure 5
1000
0000
1000
0010
0000
0010
0000
0100
,  // measure 6
0001
0010
0001
0100
,  // measure 7
0010
1000
0001
0100
,  // measure 8
0001
0000
0001
0100
0000
0100
0000
0001
,  // measure 9
0010
0000
0010
0001
0000
0001
0000
0000
,  // measure 10
0200
0320
2030
3002
,  // measure 11
0203
0302
0023
2030
,  // measure 12
3001
0010
0000
0001
0000
0100
0000
0010
,  // measure 13
1000
0000
0010
0100
0000
0000
0000
0000
,  // measure 14
0001
0100
0001
0010
0001
0000
0100
0000
,  // measure 15
0010
1000
0010
0000
,  // measure 16
0001
0000
0001
0100
0000
0100
0000
0001
,  // measure 17
0010
0000
0001
0100
0000
0000
0000
0000
,  // measure 18
0010
1000
0000
0010
0100
0000
1001
0000
,  // measure 19
0101
1010
0110
0100
,  // measure 20
0001
0000
0000
0100
0000
0000
0010
0000
,  // measure 21
1000
0000
0010
0100
0000
0000
0001
0000
,  // measure 22
0100
0000
0001
0010
0000
0000
0001
0000
,  // measure 23
0100
0001
1000
0010
0100
0000
0001
0000
,  // measure 24
0001
0000
1000
0010
0100
0000
0010
1000
,  // measure 25
0000
0001
0000
0100
0001
0000
0010
0000
,  // measure 26
0001
0000
0100
0000
0010
0000
1000
0010
,  // measure 27
0000
0100
0001
0000
1000
0000
0001
0000
,  // measure 28
0002
0203
0320
2030
,  // measure 29
3002
0203
0302
1003
,  // measure 30
1200
1300
0021
0031
,  // measure 31
0201
0301
2010
3010
,  // measure 32
1010
0000
0001
0100
0000
0100
0000
0001
,  // measure 33
1000
0000
0010
0001
0000
0000
0001
0000
,  // measure 34
0100
0001
0010
0001
0100
0000
0010
1000
,  // measure 35
0000
0001
0100
0000
2002
0000
3003
0000
,  // measure 36
0001
0000
0100
0001
0010
0000
0001
0100
,  // measure 37
0000
0010
0000
1000
0102
0000
0103
0000
,  // measure 38
0001
0000
0001
0000
0010
0000
0001
0100
,  // measure 39
0000
0010
2100
0000
0010
0000
3100
0000
,  // measure 40
0011
0000
0001
0000
0100
0000
0010
1000
,  // measure 41
0010
0000
0001
0100
0001
0000
0000
0001
,  // measure 42
0000
0001
0000
0010
0001
0000
0100
0010
,  // measure 43
0000
1001
0000
0100
0010
0000
1001
0000
,  // measure 44
1000
0100
1000
0100
1000
0000
0010
0100
,  // measure 45
0010
0000
0001
0100
0001
0000
0001
0000
,  // measure 46
0001
0100
0001
0010
0001
0000
0001
0000
,  // measure 47
0100
0010
1000
0100
1000
0000
0010
0000
,  // measure 48
0100
0000
0001
0100
0000
0001
0100
0000
,  // measure 49
0001
0100
0010
0000
,  // measure 50
0001
1000
0000
0001
1000
0000
0001
0000
,  // measure 51
1000
0010
0110
0000
,  // measure 52
0001
0000
0100
0001
0000
0010
0000
0001
,  // measure 53
0101
1010
0101
0000
,  // measure 54
0001
0100
0010
1000
0001
0000
0100
0000
,  // measure 55
0001
0100
0010
0000
,  // measure 56
0001
0000
0100
1000
0000
1000
0000
0010
,  // measure 57
0110
1001
0101
0000
,  // measure 58
0001
0100
0000
0001
0010
0000
0001
0000
,  // measure 59
0100
0010
1001
0001
,  // measure 60
0101
0000
0001
0101
0000
0000
0001
0000
,  // measure 61
1100
0000
0100
1100
0000
0000
0010
0000
,  // measure 62
0110
0000
0010
0110
0000
0000
0110
0000
,  // measure 63
0001
1000
0010
0100
0001
0000
0101
0000
,  // measure 64
0001
0000
0001
0010
0001
0000
0100
0010
,  // measure 65
0000
1001
0000
0100
1000
0000
0010
0000
,  // measure 66
0100
0000
0001
0000
0100
0001
0010
0001
,  // measure 67
0000
0100
0010
0000
1000
0000
0001
0000
,  // measure 68
0001
0000
0002
2000
0000
3003
0010
0000
,  // measure 69
0100
0000
0002
0020
0000
0033
0001
0000
,  // measure 70
0100
0000
0020
2000
0000
3030
0001
0000
,  // measure 71
0100
0000
0002
0020
0000
0033
0010
0000
,  // measure 72
0100
0000
0010
1000
0001
0000
0001
0100
,  // measure 73
0000
0010
0000
1000
0010
0000
0100
0000
,  // measure 74
0001
0000
0100
0000
0001
0000
0010
0001
,  // measure 75
0000
0100
0010
0000
1001
0000
0110
0000
,  // measure 76
0001
0000
0100
0001
,  // measure 77
0010
0001
0100
0001
,  // measure 78
1000
0010
0100
0001
,  // measure 79
2001
0000
0100
3000
2010
0000
0010
3000
,  // measure 80
0100
0000
0001
0010
0001
0000
0100
0010
,  // measure 81
0000
0010
1000
0001
0100
0001
0010
0001
,  // measure 82
0100
0010
1000
0001
0100
0000
0100
0001
,  // measure 83
0000
0001
0100
0010
1000
0010
0100
0001
,  // measure 84
0010
0001
0100
0010
0100
0000
0010
1000
,  // measure 85
0000
0100
0001
0010
0100
0000
0010
0000
,  // measure 86
0001
1000
0010
0100
,  // measure 87
2010
0000
0001
3000
0201
0000
0001
0300
,  // measure 88
2002
0000
3003
0000
;

//---------------dance-single - Blank----------------
#NOTEDATA:;
#CHARTNAME:;
#STEPSTYPE:dance-single;
#DESCRIPTION:Blank;
#CHARTSTYLE:;
#DIFFICULTY:Medium;
#METER:7;
#RADARVALUES:0.445,0.584,0.237,0.057,0.000,298.000,25.000,6.000,0.000,0.000,0.000,0.000,0.000,0.445,0.584,0.237,0.057,0.000,298.000,25.000,6.000,0.000,0.000,0.000,0.000,0.000;
#CREDIT:;
#OFFSET:-0.105;
#BPMS:0.000=222.040
;
#STOPS:;
#DELAYS:;
#WARPS:;
#TIMESIGNATURES:0.000=4=4
;
#TICKCOUNTS:0.000=4
;
#COMBOS:0.000=1
;
#SPEEDS:0.000=1.000=0.000=0
;
#SCROLLS:0.000=1.000
;
#FAKES:;
#LABELS:0.000=Song Start
;
#NOTES:
0000
0000
0000
0000
,
0000
0000
0000
0000
,
2002
0000
0000
0000
,
0000
0000
0000
3003
,
0001
0000
0000
0001
0000
0000
0001
0000
,
1000
0000
0000
1000
0000
0000
1000
0000
,
0010
0001
0100
0010
,
0100
0001
1000
0100
,
0001
0000
0000
0001
0000
0000
0001
0000
,
0010
0000
0000
0010
0000
0000
0010
0000
,
0001
1000
0010
0001
,
0100
1000
0001
0100
,
0001
1000
0001
1000
,
0010
0100
0011
0000
,
0100
0001
0100
0001
0100
0000
0100
0000
,
0010
1000
0010
0000
,
0100
1000
0010
0100
,
0010
1000
0001
0000
,
0010
1000
0010
1000
0010
0000
1000
0000
,
0001
0100
0010
0000
,
0001
0000
0100
0010
0000
0000
1000
0000
,
0001
0000
0100
0001
0000
0000
0010
0000
,
0001
0000
0100
0001
0000
0000
1000
0000
,
0010
0000
0100
0000
,
0001
0000
1000
0000
0001
0000
0000
0100
,
0000
0010
0000
0000
0100
0000
0001
0000
,
0010
0000
0001
0000
0100
0000
0000
0001
,
0000
0010
0001
0100
,
0010
1000
0001
0100
,
0001
0100
0010
0001
,
0100
0010
1000
0100
,
1100
0000
0110
0000
,
0011
0000
0001
0000
,
1000
0010
0100
0001
,
0010
0001
0100
0000
,
0100
0001
0010
0001
,
1000
0010
1000
0100
,
1000
0010
0110
0000
,
0001
0100
0001
0010
,
0001
0100
0011
0011
,
0100
0010
1000
0100
,
1000
0010
0100
0000
,
0001
0100
0001
0010
,
0001
1000
0001
1000
,
1001
1001
1001
0110
,
0110
1010
1010
0000
,
0001
0100
0001
0010
,
0100
0001
0010
0001
,
0100
0000
0000
0010
0000
0000
1000
0000
,
0001
0100
1001
0000
,
1001
0000
1001
0000
,
0001
1000
1001
0000
,
0010
0000
0000
0100
0000
0000
0000
0000
,
0010
0100
0001
0000
,
0010
0001
0100
0010
,
1000
0010
1000
0000
,
0001
0000
0000
0100
0000
0001
0000
0000
,
0010
0001
0100
0000
,
0010
0000
0000
0010
0000
0000
0100
0000
,
0001
0100
0001
0020
,
0001
0000
0000
0001
0030
0000
0200
0000
,
0010
0000
0000
0010
0300
0000
2000
0000
,
0100
0000
0000
0100
3000
0000
0020
0000
,
0001
0000
0031
0000
,
0100
0000
0001
1000
0010
0000
0000
0010
,
0000
0100
0000
0001
0010
0000
0000
0000
,
0001
0000
0100
0000
0010
0000
0000
1000
,
0000
0001
0100
0000
0010
0000
0000
0000
,
0001
0100
0010
1000
,
0001
0100
0001
0010
,
0001
0100
0010
1000
,
1001
0000
1001
0000
,
0110
0000
0010
0000
1000
0000
0000
0010
,
0000
0100
0000
0001
0010
0000
0000
0000
,
0001
0000
0100
0000
0010
0000
0000
1000
,
0000
0001
0100
0000
0010
0000
0000
0000
,
1000
0001
0100
0010
,
0001
0100
0001
0010
,
0100
1000
1000
0010
,
1000
0010
0100
0001
,
0100
0001
0010
0001
,
0100
0001
0100
0010
,
1000
0010
0100
0010
,
0100
0001
0100
0010
,
0001
0100
0001
0010
,
0100
1000
0100
0010
,
0100
0001
0010
0001
,
0101
0000
1010
0000
,
1001
0000
0000
0000
;

//---------------dance-single - Blank----------------
#NOTEDATA:;
#CHARTNAME:;
#STEPSTYPE:dance-single;
#DESCRIPTION:Blank;
#CHARTSTYLE:;
#DIFFICULTY:Easy;
#METER:4;
#RADARVALUES:0.288,0.333,0.133,0.085,0.000,190.000,14.000,9.000,0.000,0.000,0.000,0.000,0.000,0.288,0.333,0.133,0.085,0.000,190.000,14.000,9.000,0.000,0.000,0.000,0.000,0.000;
#CREDIT:;
#OFFSET:-0.105;
#BPMS:0.000=222.040
;
#STOPS:;
#DELAYS:;
#WARPS:;
#TIMESIGNATURES:0.000=4=4
;
#TICKCOUNTS:0.000=4
;
#COMBOS:0.000=1
;
#SPEEDS:0.000=1.000=0.000=0
;
#SCROLLS:0.000=1.000
;
#FAKES:;
#LABELS:0.000=Song Start
;
#NOTES:
0000
0000
0000
0000
,
0000
0000
0000
0000
,
0000
0000
0000
0000
,
0000
0000
0000
0000
,
0001
0000
0001
0000
,
1000
0000
1000
0000
,
0010
0100
0010
0000
,
0010
0100
0010
0000
,
0001
0000
0001
0000
,
0010
0000
0010
0000
,
0001
0100
0010
0000
,
0001
0100
0010
0000
,
1000
0001
0100
0010
,
1000
0000
0001
0000
,
0100
0001
0010
0000
,
0100
0000
0001
0000
,
0010
0000
1000
0000
,
0100
0001
0010
0000
,
0100
0000
0010
0000
,
1000
0001
0100
0000
,
0010
0000
0010
0000
,
0100
0000
0100
0000
,
0001
0000
1000
0000
,
2002
0000
0000
3003
,
0010
0000
0010
0000
,
0001
0000
0001
0000
,
0100
0010
1000
0000
,
0100
1000
0010
0000
,
0100
0000
0001
0000
,
0100
0001
0010
0000
,
0001
0100
0010
0000
,
1001
0000
1001
0000
,
0110
0000
0010
0000
,
0010
0000
0100
0000
,
0100
0001
1000
0000
,
0100
0000
0100
0000
,
0010
0100
0001
0000
,
0001
0100
0010
0000
,
1000
0001
0100
0000
,
0010
0000
0001
0000
,
0100
0010
0100
0000
,
1001
0000
1001
0000
,
0010
0000
0010
0000
,
0001
0100
0001
0000
,
1000
0001
1000
0000
,
0010
0100
0010
0000
,
0001
1000
0100
0000
,
0010
0100
0001
0000
,
1001
0000
1001
0000
,
0011
0000
1100
0000
,
0220
0000
0000
0330
,
2002
0000
0000
3003
,
0100
0000
0010
0000
,
0001
0000
0100
0000
,
0001
0010
0100
0000
,
1000
0010
0100
0000
,
0001
0000
0010
0000
,
0100
0010
1000
0000
,
0100
0000
0001
0000
,
0100
0010
0001
0000
,
0100
0000
0000
0000
,
0100
0000
0000
0000
,
0001
0000
0000
0000
,
1000
0000
0010
0000
,
0100
0000
0100
0000
,
0100
0000
0100
0000
,
0001
0000
0001
0000
,
0001
0000
0001
0000
,
1000
0000
1000
0000
,
0010
0000
0010
0000
,
0100
0000
0001
0000
,
0100
0000
0100
0000
,
1000
0000
0010
0000
,
0100
0000
0100
0000
,
0001
0000
1000
0000
,
0010
0000
0010
0000
,
0100
0000
0001
0000
,
0010
0000
0001
0000
,
0100
0000
0001
0000
,
2001
0000
0001
3000
,
2002
3000
1000
0003
,
0010
0000
0100
0000
,
0001
0000
0010
0000
,
0001
0000
1000
0000
,
0010
0000
0100
0000
,
0001
0000
0010
0000
,
0001
0000
1000
0000
,
1000
0000
0010
0000
,
0001
0000
0000
0000
;

//---------------dance-single - Blank----------------
#NOTEDATA:;
#CHARTNAME:;
#STEPSTYPE:dance-single;
#DESCRIPTION:Blank;
#CHARTSTYLE:;
#DIFFICULTY:Beginner;
#METER:2;
#RADARVALUES:0.145,0.165,0.057,0.000,0.000,101.000,6.000,0.000,0.000,0.000,0.000,0.000,0.000,0.145,0.165,0.057,0.000,0.000,101.000,6.000,0.000,0.000,0.000,0.000,0.000,0.000;
#CREDIT:;
#OFFSET:-0.105;
#BPMS:0.000=222.040
;
#STOPS:;
#DELAYS:;
#WARPS:;
#TIMESIGNATURES:0.000=4=4
;
#TICKCOUNTS:0.000=4
;
#COMBOS:0.000=1
;
#SPEEDS:0.000=1.000=0.000=0
;
#SCROLLS:0.000=1.000
;
#FAKES:;
#LABELS:0.000=Song Start
;
#NOTES:
0000
0000
0000
0000
,
0000
0000
0000
0000
,
0000
0000
0000
0000
,
0000
0000
0000
0000
,
1000
0000
0000
0000
,
0000
0000
0000
0000
,
0001
0000
0000
0000
,
0000
0000
0000
0000
,
0010
0000
0000
0000
,
0000
0000
0000
0000
,
0010
0000
0000
0000
,
0000
0000
0000
0000
,
0100
0000
0000
0000
,
0001
0000
0000
0000
,
0010
0000
0010
0000
,
0010
0000
0000
0000
,
0100
0000
0000
0000
,
1000
0000
0000
0000
,
0010
0000
0010
0000
,
0010
0000
0000
0000
,
0001
0000
0000
0000
,
0010
0000
0000
0000
,
0100
0000
0000
0000
,
1000
0000
0000
0000
,
0001
0000
0001
0000
,
0001
0000
0001
0000
,
1000
0000
1000
0000
,
1000
0000
1000
0000
,
0010
0000
0010
0000
,
0010
0000
0010
0000
,
0100
0000
0100
0000
,
0100
0000
0100
0000
,
1001
0000
0000
0000
,
0000
0000
0000
0000
,
0110
0000
0000
0000
,
0000
0000
0000
0000
,
0001
0000
0000
0000
,
1000
0000
0000
0000
,
0010
0000
0000
0000
,
0001
0000
0000
0000
,
0100
0000
0000
0000
,
0010
0000
0010
0000
,
0010
0000
0000
0000
,
0001
0000
1000
0000
,
0010
0000
0000
0000
,
0010
0000
0000
0000
,
0100
0000
0000
0000
,
0100
0000
0000
0000
,
0001
0000
0001
0000
,
0010
0000
0010
0000
,
0100
0000
0000
0000
,
0001
0000
0000
0000
,
0100
0000
0010
0000
,
1000
0000
0000
0000
,
0010
0000
0010
0000
,
0010
0000
0000
0000
,
0100
0000
0000
0000
,
0001
0000
0000
0000
,
1000
0000
0000
0000
,
0001
0000
0000
0000
,
0010
0000
0000
0000
,
0001
0000
0000
0000
,
1000
0000
0000
0000
,
0010
0000
0000
0000
,
0001
0000
0100
0000
,
0010
0000
0000
0000
,
0100
0000
0010
0000
,
0100
0000
0000
0000
,
0010
0000
0000
0000
,
0010
0000
0000
0000
,
0100
0000
0000
0000
,
0001
0000
0000
0000
,
0110
0000
0000
0000
,
0110
0000
0000
0000
,
1001
0000
0000
0000
,
1001
0000
0000
0000
,
0010
0000
0010
0000
,
0010
0000
0010
0000
,
0100
0000
0100
0000
,
0100
0000
0100
0000
,
0100
0000
0000
0000
,
0001
0000
0000
0000
,
1000
0000
0000
0000
,
0010
0000
0000
0000
,
0001
0000
0000
0000
,
0100
0000
0000
0000
,
0010
0000
0010
0000
,
0010
0000
0000
0000
;
