#TITLE:radio hardcore;
#SUBTITLE:;
#ARTIST:italobrothers;
#TITLETRANSLIT:;
#SUBTITLETRANSLIT:;
#ARTISTTRANSLIT:;
#GENRE:;
#CREDIT:;
#BANNER:radio hardcore-bn.png;
#BACKGROUND:radio hardcore-bg.png;
#LYRICSPATH:;
#CDTITLE:;
#MUSIC:radio hardcore.mp3;
#OFFSET:-0.400;
#SAMPLESTART:100.000;
#SAMPLELENGTH:12.000;
#SELECTABLE:YES;
#BPMS:0.000=150.000
;
#STOPS:
;
#BGCHANGES:;
#KEYSOUNDS:;
#ATTACKS:;

//---------------dance-single - Blank----------------
#NOTES:
     dance-single:
     :
     Hard:
     8:
     0.579,0.493,0.237,0.424,0.102,416.000,29.000,52.000,0.000,0.000,0.000,0.579,0.493,0.237,0.424,0.102,416.000,29.000,52.000,0.000,0.000,0.000: // measure 0
0000
0000
0000
0000
,  // measure 1
0000
0000
0000
0000
0000
0000
0000
0001
,  // measure 2
1000
0010
1000
0100
0010
0001
0100
0000
,  // measure 3
0010
1000
0001
1000
0100
0010
0001
0000
,  // measure 4
1000
0010
0001
0010
1000
0000
0001
0100
,  // measure 5
0010
1000
0001
2000
0000
3020
0000
0130
,  // measure 6
0001
0000
0011
0001
1000
0000
1010
1000
,  // measure 7
0001
0000
0010
0100
1000
0200
0000
1300
,  // measure 8
0001
0000
0100
0010
0100
0000
0001
0010
,  // measure 9
0200
0000
0000
0000
0000
0000
0300
1000
,  // measure 10
2100
0000
0000
3001
0100
0000
0010
0200
,  // measure 11
0000
0000
0000
0000
0310
1000
0001
2000
,  // measure 12
0000
0020
3000
0000
0130
0000
0001
0200
,  // measure 13
0000
0000
0310
0000
0010
1000
0100
0010
,  // measure 14
0001
0000
0100
0000
0010
1000
0000
0002
,  // measure 15
0000
0000
0013
0000
0001
1000
0001
0200
,  // measure 16
0000
0320
0000
0000
1030
0001
0100
0000
,  // measure 17
0220
0000
0000
0330
,  // measure 18
1000
0100
1000
0000
0001
0100
0010
0200
,  // measure 19
0001
0000
0310
0000
0001
0100
0001
2000
,  // measure 20
0100
0000
3001
0000
0010
1000
0010
0100
,  // measure 21
0010
0000
1000
0100
0001
0100
1000
0001
,  // measure 22
0010
0001
0100
0000
0010
0100
0010
2000
,  // measure 23
0001
0000
3010
0000
1000
0001
0100
0010
,  // measure 24
0100
0001
0100
0000
0001
1000
0100
0000
,  // measure 25
0020
0100
0031
0001
,  // measure 26
2000
0000
3020
0000
0030
0000
0100
0001
,  // measure 27
0020
0032
0003
1000
,  // measure 28
0020
0000
1030
0200
1000
0000
1300
0010
,  // measure 29
1000
0001
0100
0000
0001
0000
1000
0000
,  // measure 30
0020
0000
0230
0000
0300
0000
0001
0010
,  // measure 31
0002
0203
0300
0010
,  // measure 32
2000
0000
3001
0020
0001
0000
0130
0000
,  // measure 33
0001
1000
0010
0100
0010
1000
0001
0010
,  // measure 34
0100
0000
1100
0000
0001
1000
0001
0200
,  // measure 35
0000
0320
1000
0000
1030
0001
0010
0100
,  // measure 36
1000
0000
0101
0000
0001
1000
0001
0010
,  // measure 37
0000
0010
0100
1000
0001
0100
0001
1000
,  // measure 38
0100
0000
1001
0000
0010
0001
0010
0002
,  // measure 39
0000
1003
0010
0100
0001
1000
0001
0010
,  // measure 40
0000
0001
1000
0010
0010
1000
0100
0010
,  // measure 41
0000
0001
0100
0001
0010
1000
0010
0100
,  // measure 42
2100
0000
0000
3010
,  // measure 43
1001
0000
0010
0100
0001
1000
0001
0000
,  // measure 44
0010
0001
1000
0010
0200
0000
0301
1000
,  // measure 45
0001
0001
0100
0020
0000
2030
0000
3001
,  // measure 46
0100
0000
0101
0001
0010
0000
1100
1000
,  // measure 47
0010
0000
0100
0010
1000
0200
0000
1300
,  // measure 48
0001
1000
0010
0100
0001
0000
0010
0001
,  // measure 49
0000
0000
0000
0100
0000
0000
0100
0000
0000
0100
0000
0000
0001
0000
1000
0000
0001
0000
1000
0000
0001
0000
1000
0000
,  // measure 50
0001
0000
0001
0010
0000
0000
0001
0000
1000
0100
0000
0000
,  // measure 51
1000
0000
0010
0100
0000
0100
0001
0000
0000
1001
0000
0000
,  // measure 52
0010
0000
1000
0001
0000
0000
0100
0000
0001
1000
0000
0000
,  // measure 53
0010
0000
2000
0000
0000
3001
0010
0000
0001
0100
0000
0010
,  // measure 54
0100
0000
0100
0001
0000
2000
0000
0000
3100
1000
0000
0100
,  // measure 55
0010
0000
0010
0001
0000
0001
0100
0000
0000
0110
0000
0001
,  // measure 56
1000
0000
1000
0001
0000
0010
0001
0000
0002
0000
0000
1003
,  // measure 57
0100
0110
2002
3003
,  // measure 58
0020
0000
0000
0000
0000
0000
0000
1030
,  // measure 59
1010
0000
1001
0000
1000
0010
0100
0001
,  // measure 60
1000
0000
0001
0000
0010
0100
1000
0000
,  // measure 61
1100
0000
0101
0000
1000
0100
0001
0100
,  // measure 62
1000
0000
0010
0100
0001
1000
0001
0000
,  // measure 63
0011
0000
1100
0000
0001
0100
0010
1000
,  // measure 64
0100
0000
0010
0000
0100
1000
0010
0001
,  // measure 65
0010
1000
0001
0000
0010
0100
1000
0000
,  // measure 66
2002
0000
3003
0010
,  // measure 67
0101
0000
1010
0000
0001
1000
1000
0100
,  // measure 68
0010
0000
0110
0000
0001
0100
1000
0100
,  // measure 69
0002
0000
0013
0002
0100
0000
1003
0100
,  // measure 70
1000
0001
0100
0001
0010
0100
1000
0001
,  // measure 71
0101
0000
1100
0000
0010
1000
0001
0100
,  // measure 72
0001
0000
0011
0000
1000
0100
0010
0100
,  // measure 73
2000
0000
3010
0200
0001
0000
0310
1000
,  // measure 74
0010
0100
0001
0100
1000
0100
0001
1000
,  // measure 75
2002
0000
3003
0000
;

//---------------dance-single - Blank----------------
#NOTES:
     dance-single:
     :
     Medium:
     6:
     0.436,0.367,0.188,0.318,0.037,312.000,23.000,39.000,0.000,0.000,0.000,0.436,0.367,0.188,0.318,0.037,312.000,23.000,39.000,0.000,0.000,0.000: // measure 0
0000
0000
0000
0000
,  // measure 1
0000
0000
0000
0000
,  // measure 2
0010
0000
0001
1000
0001
0000
0100
0000
,  // measure 3
0000
0001
1000
0000
0100
1000
0010
0000
,  // measure 4
0000
0000
0100
0000
0110
0000
0000
0001
,  // measure 5
2000
0000
3100
1000
0000
0001
0000
0010
,  // measure 6
0100
1001
0010
1001
,  // measure 7
0100
1100
0010
0101
,  // measure 8
0010
0000
1000
0001
1000
0000
0020
0200
,  // measure 9
0000
0000
0000
0330
,  // measure 10
1001
0000
0001
0000
1000
0100
1000
0020
,  // measure 11
0000
0000
0000
0000
0100
0000
0130
0001
,  // measure 12
1000
0000
1000
0000
0100
0010
0001
2000
,  // measure 13
0000
0000
0000
0000
0001
0000
3001
1000
,  // measure 14
0010
0000
0100
0000
0010
1000
1000
0002
,  // measure 15
0000
0000
0000
0000
0010
0000
0013
0001
,  // measure 16
1000
0000
0010
0000
0100
0001
1000
0000
,  // measure 17
0200
0000
0000
0300
,  // measure 18
1001
0000
0010
0000
1000
0001
1000
0000
,  // measure 19
0010
0100
0001
0010
,  // measure 20
0001
0000
1000
0000
0100
0010
0001
0000
,  // measure 21
1000
0000
0100
1000
0100
0010
0100
0000
,  // measure 22
1001
0000
0001
0000
1000
0010
0100
0000
,  // measure 23
0002
1003
0010
0001
,  // measure 24
0010
0000
1000
0000
0001
0100
0001
0000
,  // measure 25
2000
0000
3001
1000
,  // measure 26
0020
0000
0230
0000
0300
0000
0001
1000
,  // measure 27
0001
0100
0000
0010
,  // measure 28
2000
0000
0000
3020
0000
0000
0130
0001
,  // measure 29
0200
0020
0330
1000
,  // measure 30
0002
0000
0023
0000
0030
0000
0100
1000
,  // measure 31
0001
0100
0000
0001
,  // measure 32
0020
0000
0000
0032
0000
0000
1003
0000
,  // measure 33
0010
1000
0100
0000
0100
0000
0100
0000
,  // measure 34
1100
0000
1100
0000
0010
0100
0001
0000
,  // measure 35
1000
0000
0010
0000
0100
0001
0010
0000
,  // measure 36
0011
0000
0011
0000
0001
1000
0001
0000
,  // measure 37
0100
0010
1000
0010
,  // measure 38
1001
0000
1001
0000
0010
1000
0001
0000
,  // measure 39
0010
0100
1000
0001
,  // measure 40
0110
0000
0110
0000
0001
0100
0001
0000
,  // measure 41
1000
0100
0010
0001
,  // measure 42
0200
0000
0300
1001
,  // measure 43
0010
0000
1000
0000
0001
0100
0001
0000
,  // measure 44
1000
0100
0020
0030
,  // measure 45
0001
0000
1000
0001
0000
0010
0000
0001
,  // measure 46
1000
0110
0001
0110
,  // measure 47
1000
0000
0100
0000
0010
0000
0001
1000
,  // measure 48
0000
0010
0100
0000
0010
0000
0100
0010
,  // measure 49
0000
1000
0001
0000
0220
0000
0330
0000
,  // measure 50
0001
1000
0010
1000
,  // measure 51
0100
0000
0010
0001
0000
2000
0000
0000
0000
3001
0000
0000
,  // measure 52
0100
0110
0010
0110
,  // measure 53
0001
0000
0010
0000
0000
0200
0000
0000
0000
1300
0000
0000
,  // measure 54
0001
0000
1000
0001
0000
0000
1000
0000
0001
1000
0000
0000
,  // measure 55
0010
0000
0000
0100
0000
0002
0000
0000
0000
1003
0000
0000
,  // measure 56
0010
0000
0000
1000
0000
0000
0001
0000
0010
0000
0000
0100
,  // measure 57
2000
3200
0302
0103
,  // measure 58
1000
0000
0000
0000
0000
0000
0000
0001
,  // measure 59
0100
0010
1000
0001
,  // measure 60
0100
0010
0100
0001
,  // measure 61
0010
0000
0100
0000
1000
0010
0100
0001
,  // measure 62
1000
0000
0001
0000
0100
0000
0001
0010
,  // measure 63
0100
1000
0001
0100
,  // measure 64
0010
1000
0001
1000
,  // measure 65
0100
0000
0010
0000
0100
1000
0001
0000
,  // measure 66
0220
0000
0330
0001
,  // measure 67
2000
0000
3200
0000
1300
0000
0010
0100
,  // measure 68
0002
0023
0130
1000
,  // measure 69
0001
0000
0100
0010
0100
0000
0001
0000
,  // measure 70
1000
0100
0010
0000
0001
0000
1000
0000
,  // measure 71
0020
0000
0230
0000
0301
0000
1000
0001
,  // measure 72
2000
3200
0310
0001
,  // measure 73
1000
0000
0010
0100
0010
0000
1000
0001
,  // measure 74
0010
0000
0001
0000
1000
0000
0010
1000
,  // measure 75
0001
0000
0000
0000
;

//---------------dance-single - Blank----------------
#NOTES:
     dance-single:
     :
     Easy:
     4:
     0.297,0.275,0.098,0.122,0.000,228.000,12.000,15.000,0.000,0.000,0.000,0.297,0.275,0.098,0.122,0.000,228.000,12.000,15.000,0.000,0.000,0.000: // measure 0
0000
0000
0000
0000
,  // measure 1
0000
0000
0000
0000
,  // measure 2
1000
0100
0010
0001
,  // measure 3
0000
0001
0010
0100
,  // measure 4
0000
1000
0020
0000
,  // measure 5
0130
0001
1000
0001
,  // measure 6
0010
1001
0000
0110
,  // measure 7
0000
0101
0000
1100
,  // measure 8
0001
1000
0100
0020
,  // measure 9
0002
0000
0000
0033
,  // measure 10
1000
0000
0010
0100
,  // measure 11
0001
0000
0010
0001
,  // measure 12
1000
0000
0100
0100
,  // measure 13
2000
0000
3010
0000
,  // measure 14
0100
0000
0010
1000
,  // measure 15
0100
0000
0010
0001
,  // measure 16
1000
0000
0001
0100
,  // measure 17
0020
0000
0000
0030
,  // measure 18
1001
0001
1000
0100
,  // measure 19
0010
0000
0001
1000
,  // measure 20
0010
0100
0010
1000
,  // measure 21
0100
0000
1000
1000
,  // measure 22
0100
0010
0001
0010
,  // measure 23
0100
0000
0010
0100
,  // measure 24
1000
0001
0100
0010
,  // measure 25
0100
0000
0000
0001
,  // measure 26
1000
0001
0000
0010
,  // measure 27
0001
1000
0000
0010
,  // measure 28
2000
0000
3200
0000
,  // measure 29
0310
0001
0000
1000
,  // measure 30
0001
0100
0000
0010
,  // measure 31
0100
0010
0000
1000
,  // measure 32
0002
0000
0023
0000
,  // measure 33
0031
1000
0010
0000
,  // measure 34
0110
0010
1000
0010
,  // measure 35
0100
0001
1000
0001
,  // measure 36
0010
0100
1000
0100
,  // measure 37
0010
0001
0100
0010
,  // measure 38
0100
0001
0010
0001
,  // measure 39
1000
0010
1000
0010
,  // measure 40
0100
0001
1000
0001
,  // measure 41
0010
0100
1000
0001
,  // measure 42
0000
0000
0000
0100
,  // measure 43
0100
0010
0100
0001
,  // measure 44
0000
1000
0100
0000
,  // measure 45
1000
0001
0100
0010
,  // measure 46
0000
0110
0000
0101
,  // measure 47
0000
1010
0000
1001
,  // measure 48
1000
0100
0010
0000
,  // measure 49
0001
0001
0200
0000
,  // measure 50
0310
0010
1000
1000
,  // measure 51
0001
0010
0100
0000
,  // measure 52
0010
0010
0001
0001
,  // measure 53
1000
0001
0100
0000
,  // measure 54
0010
0000
0100
0010
,  // measure 55
1000
0000
0001
0100
,  // measure 56
0002
0000
2003
0000
,  // measure 57
3010
0010
0020
0000
,  // measure 58
0030
0000
0000
0000
,  // measure 59
0100
0001
1000
0010
,  // measure 60
0100
0010
1000
0001
,  // measure 61
0010
0001
0100
0010
,  // measure 62
1000
0000
0010
0010
,  // measure 63
1000
0100
1000
0001
,  // measure 64
0100
0010
0100
0001
,  // measure 65
0010
0100
1000
0001
,  // measure 66
2002
0000
3003
0001
,  // measure 67
1000
0001
0000
0010
,  // measure 68
0001
1000
0000
0010
,  // measure 69
1000
1000
0100
0100
,  // measure 70
0010
0001
0000
1000
,  // measure 71
0001
0100
0000
0010
,  // measure 72
1000
0010
0000
0100
,  // measure 73
0001
0001
1000
0100
,  // measure 74
1000
0001
0001
0100
,  // measure 75
0110
0000
0000
0000
;

//---------------dance-single - Blank----------------
#NOTES:
     dance-single:
     :
     Beginner:
     1:
     0.113,0.122,0.024,0.098,0.000,82.000,3.000,12.000,0.000,0.000,0.000,0.113,0.122,0.024,0.098,0.000,82.000,3.000,12.000,0.000,0.000,0.000: // measure 0
0000
0000
0000
0000
,  // measure 1
0000
0000
0000
0000
,  // measure 2
0010
0000
0000
0000
,  // measure 3
0010
0000
0000
0000
,  // measure 4
1000
0000
0000
0000
,  // measure 5
2000
0000
3000
0000
,  // measure 6
0000
0100
0000
0100
,  // measure 7
0000
0100
0000
0100
,  // measure 8
0000
0000
0000
0000
,  // measure 9
0020
0000
0030
0000
,  // measure 10
1001
0000
0000
0000
,  // measure 11
0000
0000
0000
0000
,  // measure 12
0100
0000
0000
0000
,  // measure 13
0000
0000
0001
0000
,  // measure 14
0001
0000
0000
0000
,  // measure 15
0000
0000
0010
0000
,  // measure 16
0020
0000
0000
0000
,  // measure 17
0030
0000
0000
0000
,  // measure 18
0110
0000
0000
0000
,  // measure 19
1000
0000
0000
0000
,  // measure 20
0001
0000
0000
0000
,  // measure 21
0010
0000
0000
0000
,  // measure 22
0001
0000
0000
0000
,  // measure 23
1000
0000
0000
0000
,  // measure 24
0100
0000
0000
0000
,  // measure 25
0010
0000
0000
0000
,  // measure 26
0001
0001
0000
0000
,  // measure 27
1000
1000
0000
0000
,  // measure 28
0200
0000
0000
0000
,  // measure 29
0300
0000
0000
0000
,  // measure 30
0010
0010
0000
0000
,  // measure 31
0100
0100
0000
0000
,  // measure 32
0002
0000
0000
0000
,  // measure 33
0003
0000
0000
0000
,  // measure 34
1001
0000
0000
0000
,  // measure 35
1000
0000
0000
0000
,  // measure 36
0100
0000
0000
0000
,  // measure 37
0010
0000
0000
0000
,  // measure 38
0001
0000
0000
0000
,  // measure 39
1000
0000
0000
0000
,  // measure 40
0010
0000
0000
0000
,  // measure 41
0100
0000
0000
0000
,  // measure 42
0010
0000
0000
0100
,  // measure 43
0100
0000
0000
0000
,  // measure 44
0001
0000
0000
0000
,  // measure 45
0020
0000
0030
0000
,  // measure 46
0000
0001
0000
0001
,  // measure 47
0000
0001
0000
0001
,  // measure 48
0000
0001
0000
0001
,  // measure 49
0000
0000
0100
0000
,  // measure 50
0100
0000
0000
0000
,  // measure 51
0100
0000
0000
0000
,  // measure 52
0010
0000
0000
0000
,  // measure 53
0010
0000
0000
0000
,  // measure 54
1000
0000
0000
0000
,  // measure 55
0001
0000
0000
0000
,  // measure 56
1000
0000
0000
0000
,  // measure 57
0200
0000
0000
0000
,  // measure 58
0300
0000
0000
0000
,  // measure 59
0010
0000
0000
0000
,  // measure 60
0001
0000
0000
0000
,  // measure 61
1000
0000
0000
0000
,  // measure 62
0100
0000
0000
0000
,  // measure 63
1000
0000
0000
0000
,  // measure 64
0010
0000
0000
0000
,  // measure 65
0100
0000
0000
0000
,  // measure 66
0002
0000
0003
0000
,  // measure 67
0001
0001
0000
0000
,  // measure 68
1000
1000
0000
0000
,  // measure 69
0200
0000
0300
0000
,  // measure 70
0020
0000
0030
0000
,  // measure 71
0100
0100
0000
0000
,  // measure 72
0010
0010
0000
0000
,  // measure 73
0002
0000
0003
0000
,  // measure 74
0020
0000
0030
0000
,  // measure 75
0100
0000
0000
0000
;
