#TITLE:Zoot Suit Riot;
#SUBTITLE:;
#ARTIST:Cherry Poppin' Daddies;
#TITLETRANSLIT:;
#SUBTITLETRANSLIT:;
#ARTISTTRANSLIT:;
#CREDIT:;
#BANNER:Zoot Suit Riot.png;
#BACKGROUND:Zoot Suit Riot-bg.png;
#LYRICSPATH:;
#CDTITLE:;
#MUSIC:Zoot Suit Riot.mp3;
#OFFSET:-0.384;
#SAMPLESTART:52.510;
#SAMPLELENGTH:17.220;
#SELECTABLE:YES;
#BPMS:0.000=184.000;
#STOPS:;
#BGCHANGES:;

//---------------dance-single - ----------------
#NOTES:
     dance-single:
     :
     Hard:
     8:
     0.647,0.583,0.496,0.274,0.755:
0000
0000
0000
0000
,
0000
0000
0000
0000
,
0000
0000
0000
0000
,
0000
0000
0000
0000
,
1000
0000
1000
0100
0000
0000
0001
0000
0001
0100
0000
0000
,
1000
0000
1000
0010
0000
0010
0000
0000
0100
0001
0000
0000
,
1001
0000
0001
0100
0000
0100
0010
0000
0010
1000
0000
1000
,
0002
0000
0000
1000
0000
0000
1003
0000
0001
1000
0000
0000
,
0001
0102
0010
1003
,
0010
0000
0000
0011
0000
0000
0001
0000
0001
0100
0000
0000
,
0010
1000
0100
0001
,
0100
0000
0000
0110
0000
0000
0010
0000
0010
0001
0000
0000
,
1000
0012
0100
1003
,
0100
0000
0000
0101
0000
0000
0001
0000
0001
1000
0000
0000
,
0010
0100
0001
1000
,
0010
0000
0100
0000
0000
1001
0000
0000
0001
1000
0000
0000
,
0001
2100
0100
3010
,
0001
0000
0000
0011
0000
0000
0010
0000
0010
0100
0000
0000
,
1000
0010
0001
0010
,
1000
0000
0000
1001
0000
0000
0001
0000
0001
0100
0000
0000
,
0010
2100
0100
3010
,
0001
0000
0000
1001
0000
0000
0001
0000
0001
0100
0000
0000
,
0010
1000
0100
0001
,
0100
0000
1000
0000
0000
1001
0000
0000
0001
0100
0000
0000
,
0010
0000
0000
1010
0000
0000
1000
0000
1000
0001
0000
0000
,
0100
0000
0010
0000
0000
1000
0000
0000
0001
0100
0000
0000
,
0001
0000
0000
0011
0000
0000
0010
0000
0010
0100
0000
0000
,
1000
0000
0001
0000
0000
0100
0000
0000
0010
1000
0000
0000
,
0100
0011
0100
1010
,
0100
0000
0001
0000
0000
1000
0000
0000
0001
0100
0000
0000
,
0010
0000
0000
1001
0000
0000
1000
0000
0001
0000
0000
0000
,
1000
0000
0010
0000
0000
1010
0000
0000
0010
0100
0000
0100
,
0001
0101
0100
0110
,
0010
1010
1000
1001
,
2000
3200
0302
0023
,
1030
0000
0000
0001
0000
0001
0100
0000
0100
0010
0000
0010
,
1000
0000
0000
1001
0000
0000
0001
0000
0100
0000
0000
0100
,
0001
1000
1100
0110
,
0010
0000
0002
0000
0003
0200
0000
0300
0010
0000
0000
0010
,
1000
0000
0000
0001
0000
0001
0100
0000
0100
0010
0000
0010
,
1000
0000
0000
1001
0000
0000
1000
0000
1000
0100
0000
0000
,
0020
0000
0000
0001
0000
0031
0000
0000
0010
0100
0000
0000
,
0110
0000
0000
0100
0000
0100
1000
0000
1000
0010
0000
0010
,
0100
0000
0000
0001
0000
0001
1000
0000
1000
0100
0000
0100
,
0001
0000
0000
0101
0000
0000
0100
0000
0100
1000
0000
0000
,
0020
0000
0000
0100
0000
0130
0000
0000
0010
0100
0000
0100
,
0001
0000
0000
1000
0000
1000
0200
0000
0000
0320
0000
0000
,
0031
0000
0000
1000
0000
1000
0001
0000
0001
0100
0000
0100
,
0010
0000
0000
1001
0000
0000
1000
0000
1000
0100
0000
0000
,
0020
0000
0000
0100
0000
0130
0000
0000
0010
0100
0000
0000
,
1100
0000
0000
1000
0000
1000
0010
0000
0010
0001
0000
0001
,
0010
0000
0000
1000
0000
1000
0100
0000
0100
0001
0000
0001
,
0100
0000
0000
1001
0000
0000
0001
0000
0001
0100
0000
0000
,
0020
0000
0000
1000
0000
1030
0000
0000
0010
0100
0000
0100
,
0001
0000
0000
0010
0000
0010
0200
0000
0000
2300
0000
0000
,
3010
0000
0010
0100
0000
0100
0001
0000
0001
1000
0000
1100
,
0000
0000
1000
0010
0000
1010
0000
0000
0010
0100
0000
0110
,
0000
0000
0100
0001
0000
0101
0000
0000
0001
0010
0000
0200
,
0000
0000
1300
0010
0000
0200
0000
0000
0301
1000
0000
0100
,
0000
0000
0010
0001
0000
0001
0100
0000
0100
0010
0000
0110
,
0000
0000
0010
1000
0000
1010
0000
0000
1000
0100
0000
1100
,
0000
0000
0100
0010
0000
0110
0000
0000
0010
0001
0000
0200
,
0000
0000
0310
1000
0000
0002
0000
0000
0103
0010
0000
1000
,
0000
0000
0100
0010
0000
0010
0001
0000
0001
1000
0000
1001
,
0000
0000
1000
0010
0000
1010
0000
0000
0010
0001
0000
0011
,
0000
0000
0001
0100
0000
0101
0000
0000
0100
1000
0000
0020
,
0000
0000
0130
0001
0000
2000
0000
0000
3100
0010
0000
0001
,
0000
0000
0100
0010
0000
0010
1000
0000
1000
0001
0000
0101
,
0000
0000
0001
0100
0000
1100
0000
0000
1000
0010
0000
1010
,
0000
0000
0010
0001
0000
0011
0000
0000
0001
1000
0000
0002
,
0000
0000
0103
0010
0000
2000
0000
0000
3100
0010
0000
0001
,
0000
0000
0100
0010
0000
0010
1000
0000
1000
0001
0000
0101
;

//---------------dance-single - ----------------
#NOTES:
     dance-single:
     :
     Easy:
     4:
     0.408,0.438,0.324,0.132,0.010: // measure 1
0000
0000
0000
0000
,  // measure 2
0000
0000
0000
0000
,  // measure 3
0000
0000
0000
0000
,  // measure 4
0000
0000
0000
0000
,  // measure 5
1000
0100
0010
0001
,  // measure 6
1000
0010
0100
0001
,  // measure 7
1001
0000
0000
0000
,  // measure 8
0120
0100
0030
0100
,  // measure 9
0010
0110
0010
1000
,  // measure 10
0100
1000
0001
0010
,  // measure 11
0001
0100
0010
1000
,  // measure 12
0001
0100
0001
1000
,  // measure 13
0010
1010
0010
0100
,  // measure 14
0001
0010
0001
0100
,  // measure 15
0010
1000
0100
0010
,  // measure 16
0001
0000
0000
0000
1000
0000
0000
0000
0000
0001
0000
0000
0000
0000
0000
0000
0000
0000
1000
0000
0000
0000
0000
0000
,  // measure 17
0010
0110
0100
0001
,  // measure 18
0010
0001
0100
0010
,  // measure 19
1000
0100
0001
0100
,  // measure 20
1000
0010
0001
0010
,  // measure 21
1000
1001
0001
0010
,  // measure 22
0100
0010
0001
0100
,  // measure 23
0010
1000
0100
0010
,  // measure 24
0001
0000
0000
0000
1000
0000
0000
0000
0000
0001
0000
0000
0000
0000
0000
0000
0000
0000
0100
0000
0000
0000
0000
0000
,  // measure 25
0010
1000
0010
1000
,  // measure 26
0001
0100
0001
0000
,  // measure 27
1000
0100
1000
0100
,  // measure 28
0010
0001
0010
0000
,  // measure 29
0001
0100
0010
1000
,  // measure 30
0001
0010
0100
0000
,  // measure 31
1000
0001
0010
0001
,  // measure 32
0100
0010
1000
0000
,  // measure 33
0100
1000
0010
1000
,  // measure 34
0200
0000
1300
0000
,  // measure 35
0001
0010
0001
0100
,  // measure 36
0001
0000
0101
0000
,  // measure 37
0001
0010
0100
0010
,  // measure 38
0002
0000
1003
1000
,  // measure 39
0001
0100
0010
1000
,  // measure 40
0001
0001
1000
1000
,  // measure 41
0100
0010
0001
0100
,  // measure 42
0010
0110
0110
0000
,  // measure 43
0010
1000
0100
0001
,  // measure 44
0200
0000
1300
0000
,  // measure 45
0010
1000
0100
0010
,  // measure 46
0001
1001
1001
1000
,  // measure 47
0010
0001
0100
1000
,  // measure 48
0001
0001
1000
1000
,  // measure 49
0010
1000
0100
0010
,  // measure 50
0001
1001
1001
0000
,  // measure 51
1000
0010
0001
0100
,  // measure 52
2000
0000
3100
0000
,  // measure 53
1000
0010
0001
0010
,  // measure 54
0000
1001
1001
0001
,  // measure 55
0100
1000
0010
0001
,  // measure 56
1000
1000
0001
0001
,  // measure 57
0101
0000
1010
0000
,  // measure 58
1100
0000
0011
0000
,  // measure 59
0002
0103
0020
1030
,  // measure 60
0001
0010
0100
1000
,  // measure 61
1100
0000
0011
0000
,  // measure 62
0101
0000
1010
0000
,  // measure 63
0002
0013
0200
1300
,  // measure 64
0001
0100
0010
1000
,  // measure 65
1010
0000
0101
0000
,  // measure 66
0011
0000
1100
0000
,  // measure 67
2000
3100
0002
0103
,  // measure 68
1000
0010
0001
0010
,  // measure 69
0011
0000
0101
0000
,  // measure 70
1010
0000
1001
0000
,  // measure 71
2000
3100
0002
0013
,  // measure 72
1000
0001
0100
0010
,  // measure 73
1001
0000
0000
0000
;

//---------------dance-single - ----------------
#NOTES:
     dance-single:
     :
     Medium:
     7:
     0.533,0.546,0.304,0.425,0.223: // measure 1
0000
0000
0000
0000
,  // measure 2
0000
0000
0000
0000
,  // measure 3
0000
0000
0000
0000
,  // measure 4
0000
0000
0000
0000
,  // measure 5
1000
1100
0100
0110
,  // measure 6
0010
0011
0001
0101
,  // measure 7
0110
0000
0000
0000
,  // measure 8
2001
0010
3010
1000
,  // measure 9
0001
1001
0001
0100
,  // measure 10
0010
0000
0000
1000
0000
0000
0001
0000
0001
1000
0000
0000
,  // measure 11
0001
0100
1000
0100
,  // measure 12
0001
0010
1000
0010
,  // measure 13
0001
1001
1000
0100
,  // measure 14
0001
0100
1000
0010
,  // measure 15
0001
0001
0010
0010
,  // measure 16
1000
0000
0000
0000
0001
0000
0000
0000
0000
0100
0000
0000
0000
0000
0000
0000
0100
0000
0010
0000
0000
0000
0000
0000
,  // measure 17
1000
1001
1000
0100
,  // measure 18
0001
0100
1000
0010
,  // measure 19
0001
0010
1000
0100
,  // measure 20
0010
0000
0000
0001
0000
0000
1000
0000
1000
0100
0000
0000
,  // measure 21
0010
0011
0001
0100
,  // measure 22
0010
1000
0001
0010
,  // measure 23
0001
0001
1000
1000
,  // measure 24
0010
0000
0100
0000
0000
0001
0000
0000
0001
1000
0000
0000
,  // measure 25
0001
0100
1000
0100
,  // measure 26
0001
0010
1010
0000
,  // measure 27
0010
0001
0100
0010
,  // measure 28
1000
0100
1100
0000
,  // measure 29
0010
0001
0100
0001
,  // measure 30
0010
0100
1100
0000
,  // measure 31
0011
0000
0000
0011
0000
0000
1000
0000
0100
0000
0000
0000
,  // measure 32
0010
0000
0000
0000
0001
0000
0000
0000
0000
0100
0000
0000
0000
0000
0000
0000
0100
0000
0010
0000
0000
0000
0000
0000
,  // measure 33
1000
1100
0001
0101
,  // measure 34
1000
1010
0001
0011
,  // measure 35
0020
0230
2300
3002
,  // measure 36
0103
0000
0000
0101
0000
0000
0001
0000
0001
1000
0000
0000
,  // measure 37
0010
1010
0010
0110
,  // measure 38
0100
0101
0001
0011
,  // measure 39
0010
0000
0000
0000
0100
0000
0000
0000
0000
1000
0000
0000
0000
0000
0000
0010
0000
0000
0000
0000
0000
0000
0100
0000
,  // measure 40
0001
0000
0000
1001
0000
0000
1000
0000
1000
0001
0000
0001
,  // measure 41
1000
0000
0000
1001
0000
0000
1000
0000
1000
0010
0000
0000
,  // measure 42
0200
0000
0000
0001
0000
0301
0000
0000
0000
0100
0000
0000
,  // measure 43
0001
0000
0000
0010
0000
0000
0100
0000
0100
1000
0000
1000
,  // measure 44
0001
0000
0000
1000
0000
0000
0001
0000
0001
0100
0000
0000
,  // measure 45
0010
0000
0000
1001
0000
0000
1000
0000
1000
0010
0000
0000
,  // measure 46
0200
0000
0000
0001
0000
0301
0000
0000
0000
0101
0000
0000
,  // measure 47
0200
0320
2030
3200
,  // measure 48
0320
0000
0000
0031
0000
0000
0010
0000
0010
0100
0000
0000
,  // measure 49
1000
0000
0000
1001
0000
0000
0001
0000
0001
0100
0000
0000
,  // measure 50
0020
0000
0000
1000
0000
1030
0000
0000
0000
0010
0000
0000
,  // measure 51
0100
0000
0000
0001
0000
0000
1000
0000
1000
0010
0000
0010
,  // measure 52
0100
0000
0000
0001
0000
0000
0010
0000
0010
0100
0000
0000
,  // measure 53
1000
0000
0000
1001
0000
0000
0001
0000
0001
0010
0000
0000
,  // measure 54
0200
0000
0000
1000
0000
1300
0000
0000
0000
0100
0000
0000
,  // measure 55
0020
0032
2003
3020
,  // measure 56
0130
0000
0000
0001
0000
0000
1000
0000
0000
0010
0000
2000
,  // measure 57
0000
3100
0000
0002
0000
0103
0000
2000
,  // measure 58
0000
3010
0000
0002
0000
0013
0000
2000
,  // measure 59
0000
3100
0000
0020
0000
0031
0000
1000
,  // measure 60
0000
0000
0001
1000
0000
1000
0010
0000
0000
0100
0000
0002
,  // measure 61
0000
0013
0000
2000
0000
3010
0000
0002
,  // measure 62
0000
0103
0000
2000
0000
3100
0000
0002
,  // measure 63
0000
0013
0000
0200
0000
1300
0000
0001
,  // measure 64
0000
0000
1000
0010
0000
0010
1000
0000
0000
0001
0000
0200
,  // measure 65
0000
0310
0000
2000
0000
3010
0000
0002
,  // measure 66
0000
0013
0000
2000
0000
3100
0000
0002
,  // measure 67
0000
0103
0000
2000
0000
3010
0000
0001
,  // measure 68
0000
0000
1000
0100
0000
0100
0010
0000
0000
0001
0000
0200
,  // measure 69
0000
1300
0000
0020
0000
0031
0000
0200
,  // measure 70
0000
0310
0000
2000
0000
3100
0000
0002
,  // measure 71
0000
0013
0000
2000
0000
3001
0000
0100
,  // measure 72
0000
0000
0100
0010
0000
0010
1000
0000
1000
0001
0000
0100
;

//---------------dance-single - ----------------
#NOTES:
     dance-single:
     :
     Beginner:
     2:
     0.171,0.219,0.010,0.000,0.000: // measure 1
0000
0000
0000
0000
,  // measure 2
0000
0000
0000
0000
,  // measure 3
0000
0000
0000
0000
,  // measure 4
0000
0000
0000
0000
,  // measure 5
1000
0000
0000
0000
,  // measure 6
0001
0000
0000
0000
,  // measure 7
0100
0000
0000
0000
,  // measure 8
0010
0000
0000
0010
,  // measure 9
0010
0000
0010
0000
,  // measure 10
1000
0000
1000
0000
,  // measure 11
0001
0000
0001
0000
,  // measure 12
0100
0000
0100
0000
,  // measure 13
0001
0000
0001
0000
,  // measure 14
0010
0000
0010
0000
,  // measure 15
0100
0000
0100
0000
,  // measure 16
1000
1000
1000
0000
,  // measure 17
0001
0000
0001
0000
,  // measure 18
0100
0000
0100
0000
,  // measure 19
0010
0000
0010
0000
,  // measure 20
1000
0000
1000
0000
,  // measure 21
0100
0000
0100
0000
,  // measure 22
0010
0000
0010
0000
,  // measure 23
0001
0000
0001
0000
,  // measure 24
0100
0100
0100
0000
,  // measure 25
0010
0000
0000
0000
,  // measure 26
1000
0000
0000
0000
,  // measure 27
0001
0000
0001
0000
,  // measure 28
0001
0000
0000
0000
,  // measure 29
1000
0000
0000
0000
,  // measure 30
0100
0000
0000
0000
,  // measure 31
0010
0000
0010
0000
,  // measure 32
0010
0000
0000
0000
,  // measure 33
0100
0000
0000
0000
,  // measure 34
0001
0000
0000
0000
,  // measure 35
0100
0000
0100
0000
,  // measure 36
0100
0000
0000
0000
,  // measure 37
0010
0000
0000
0000
,  // measure 38
1000
0000
0000
0000
,  // measure 39
0001
0000
0001
0000
,  // measure 40
0001
0000
0000
0000
,  // measure 41
0010
0000
0010
0000
,  // measure 42
0000
0100
0000
0000
,  // measure 43
1000
0000
1000
0000
,  // measure 44
1000
0000
0000
0000
,  // measure 45
0001
0000
0001
0000
,  // measure 46
0000
0010
0000
0000
,  // measure 47
0100
0000
0100
0000
,  // measure 48
0100
0000
0000
0000
,  // measure 49
1000
0000
1000
0000
,  // measure 50
0000
0010
0000
0000
,  // measure 51
0100
0000
0100
0000
,  // measure 52
0100
0000
0000
0000
,  // measure 53
0001
0000
0001
0000
,  // measure 54
0000
0010
0000
0000
,  // measure 55
0100
0000
0100
0000
,  // measure 56
0100
0000
0100
0000
,  // measure 57
1000
0000
1000
0000
,  // measure 58
0001
0000
0001
0000
,  // measure 59
0100
0000
0100
0000
,  // measure 60
0010
0000
0010
0000
,  // measure 61
1000
0000
1000
0000
,  // measure 62
0100
0000
0100
0000
,  // measure 63
0001
0000
0001
0000
,  // measure 64
0100
0000
0100
0000
,  // measure 65
1000
0000
1000
0000
,  // measure 66
0010
0000
0010
0000
,  // measure 67
0001
0000
0001
0000
,  // measure 68
0010
0000
0010
0000
,  // measure 69
1000
0000
1000
0000
,  // measure 70
0100
0000
0100
0000
,  // measure 71
0001
0000
0001
0000
,  // measure 72
0010
0000
0010
0000
,  // measure 73
1001
0000
0000
0000
;
