#TITLE:You Are a Pirate;
#SUBTITLE:;
#ARTIST:LAZYTOWN;
#TITLETRANSLIT:;
#SUBTITLETRANSLIT:;
#ARTISTTRANSLIT:;
#GENRE:;
#CREDIT:;
#BANNER:[12th Week] - You Are a Pirate.png;
#BACKGROUND:[12th Week] - You Are a Pirate-bg.png;
#LYRICSPATH:;
#CDTITLE:cdtitle.png;
#MUSIC:[12th Week] - You Are a Pirate.mp3;
#OFFSET:1.845;
#SAMPLESTART:4.098;
#SAMPLELENGTH:10.029;
#LASTBEATHINT:1.690;
#SELECTABLE:YES;
#BPMS:0.000=120.000
;
#STOPS:176.000=2.000
;
#BGCHANGES:4.000=[12th Week] - You Are a Pirate.avi=1.000=0=0=1=====,
99999=-nosongbg-=1.000=0=0=0 // don't automatically add -songbackground-
;
#KEYSOUNDS:;
#ATTACKS:;

//---------------dance-single - ----------------
#NOTES:
     dance-single:
     :
     Hard:
     7:
     0.445,0.364,0.453,0.195,0.350,278.000,51.000,22.000,0.000,0.000,0.000,0.445,0.364,0.453,0.195,0.350,278.000,51.000,22.000,0.000,0.000,0.000: // measure 0
0000
0000
0000
0000
,  // measure 1
0000
0000
0000
0000
,  // measure 2
0000
0000
0000
0000
,  // measure 3
0110
0000
0000
1001
0000
0000
1000
0001
1000
0001
0000
0000
,  // measure 4
1000
0000
0100
0010
0000
0010
0001
0000
0001
1000
0000
0000
,  // measure 5
0001
0000
0100
0010
0000
0010
0100
0000
0001
1000
0000
0000
,  // measure 6
1200
0000
0000
0310
0000
0000
0001
0000
1000
0000
0000
0000
,  // measure 7
0002
0100
1003
1001
,  // measure 8
1000
0000
0000
0010
0100
0010
0100
0000
0001
1000
0000
0000
,  // measure 9
0001
0011
0110
1100
,  // measure 10
1000
0000
0000
0100
0010
0100
0010
0000
0001
1000
0000
0000
,  // measure 11
1010
0110
0102
1003
,  // measure 12
0100
0000
0000
0010
0001
0010
0001
0000
0001
1000
0000
0000
,  // measure 13
0010
0110
0101
1001
,  // measure 14
1000
0000
0000
0100
1000
0100
0010
0000
0000
0011
0000
0000
,  // measure 15
0001
0000
0010
0100
0000
1000
0002
0000
0000
1003
0000
0000
,  // measure 16
0110
0000
0000
0000
1001
0000
0000
1000
0000
0000
0001
0000
0100
0000
0000
0000
,  // measure 17
0010
0000
0100
0000
0001
0000
0000
1000
0000
0000
0100
0000
0010
0000
0000
0000
,  // measure 18
0100
0000
1000
0000
0001
0000
0000
1001
0000
0000
1000
0000
0010
0000
0000
0000
,  // measure 19
0110
0000
0000
0000
1001
0000
0000
1000
0001
0000
1000
0000
0000
0000
0000
0000
,  // measure 20
0020
0000
0000
0030
,  // measure 21
0110
0000
0000
1001
0000
0000
0001
1000
0001
1000
0000
0000
,  // measure 22
0001
0000
0010
0100
0000
0100
1000
0000
1000
0001
0000
0000
,  // measure 23
1000
0000
0010
0100
0000
0100
0010
0000
1000
0001
0000
0000
,  // measure 24
0021
0000
0000
0130
0000
0000
1000
0000
0001
0000
0000
0000
,  // measure 25
0110
0000
0000
1001
0000
0000
1000
0001
1000
0001
0000
0000
,  // measure 26
1000
0000
0010
0100
0000
0100
0001
0000
0001
1000
0000
0000
,  // measure 27
0001
0000
0010
0100
0000
0100
0010
0000
0001
1000
0000
0000
,  // measure 28
1020
0000
0000
0130
0000
0000
0001
0000
1000
0000
0000
0000
,  // measure 29
0020
1000
0031
0210
,  // measure 30
0301
0000
0000
0100
0010
0100
0010
0000
1000
0001
0000
0000
,  // measure 31
1000
1100
0110
0011
,  // measure 32
0001
0000
0000
0010
0100
0010
0100
0000
1000
0001
0000
0000
,  // measure 33
0101
0110
2010
3001
,  // measure 34
0010
0000
0000
0100
1000
0100
1000
0000
1000
0001
0000
0000
,  // measure 35
0100
0110
1010
1001
,  // measure 36
0001
0000
0000
0010
0001
0010
0100
0000
0100
1000
0000
0000
,  // measure 37
1000
0000
0100
0010
0000
0002
0000
2000
0000
3003
0000
0000
,  // measure 38
0110
0000
0000
0000
1001
0000
0000
0001
0000
0000
1000
0000
0010
0000
0000
0000
,  // measure 39
0100
0000
0010
0000
1000
0000
0000
0001
0000
0000
0010
0000
0100
0000
0000
0000
,  // measure 40
0010
0000
0001
0000
1000
0000
0000
1001
0000
0000
0001
0000
0100
0000
0000
0000
,  // measure 41
0110
0000
0000
0000
1001
0000
0000
0001
1000
0000
0001
0000
0000
0000
0000
0000
,  // measure 42
0110
0000
0110
0000
0100
0010
0100
0000
,  // measure 43
0001
0010
0100
1000
0020
0000
0032
0000
,  // measure 44
0000
0003
0000
0000
0000
0000
0000
0000
0000
0000
0000
0000
0000
0000
0000
0000
0100
0000
0000
0000
0000
0000
0000
0000
0010
0000
0000
0000
0000
0000
0000
0000
,  // measure 45
1001
0000
0000
0110
0000
0000
0010
0100
0001
1000
0000
0000
,  // measure 46
0001
0000
0010
0100
0000
0100
1000
0000
1000
0001
0000
0000
,  // measure 47
1000
0000
0010
0100
0000
0100
0010
0000
1000
0001
0000
0000
,  // measure 48
0021
0000
0000
0130
0000
0000
1000
0000
0001
0000
0000
0000
,  // measure 49
0110
1001
1000
0002
,  // measure 50
0023
2030
3200
0301
,  // measure 51
0010
0000
0010
0100
0000
0100
0010
0000
0001
1000
0000
0000
,  // measure 52
1020
0000
0000
0130
0000
0000
0001
0000
1000
0000
0000
0000
,  // measure 53
2002
0000
0000
3003
,  // measure 54
1001
0000
1000
0100
0000
0010
0001
0000
1001
0000
0000
0000
;

//---------------dance-single - ----------------
#NOTES:
     dance-single:
     :
     Medium:
     5:
     0.333,0.314,0.311,0.257,0.080,199.000,35.000,29.000,0.000,0.000,0.000,0.333,0.314,0.311,0.257,0.080,199.000,35.000,29.000,0.000,0.000,0.000:
0000
0000
0000
0000
,
0000
0000
0000
0000
,
0000
0000
0000
0000
,
0010
0000
0000
0010
0000
0000
1000
0000
1000
0001
0000
0000
,
1000
0100
0010
0001
,
0100
0000
0000
0100
0000
0000
0010
0000
1000
0001
0000
0000
,
1100
0110
2002
3003
,
2000
0001
0002
3003
,
0001
0000
0000
0100
0000
0100
0010
0000
0000
0000
0000
0000
,
0010
1000
0100
0001
,
0010
0000
0000
1000
0000
1000
0001
0000
0000
0000
0000
0000
,
1100
0011
0102
0000
,
1003
0000
0000
0010
0000
0010
0100
0000
0000
0000
0000
0000
,
0100
0001
0010
1000
,
0100
0000
0000
0001
0000
0001
0010
0000
0000
0000
0000
0000
,
1100
0011
2002
3003
,
1000
0000
0001
0000
0010
0100
0010
0000
,
0002
1000
2003
0001
,
3001
0000
1000
0000
0100
0010
0100
0000
,
1001
0110
2002
0000
,
3003
0000
0000
0000
,
0100
0000
0000
0100
0000
0000
1000
0000
1000
0001
0000
0000
,
1000
0010
0100
0001
,
0010
0000
0000
0010
0000
0000
0100
0000
1000
0001
0000
0000
,
1010
0110
2002
3003
,
0100
0000
0000
0100
0000
0000
0001
0000
0001
1000
0000
0000
,
0001
0010
0100
1000
,
0010
0000
0000
0010
0000
0000
0100
0000
0001
1000
0000
0000
,
0011
0110
2002
3003
,
0002
1000
2000
3003
,
1000
0000
0000
0010
0000
0010
0100
0000
0000
0000
0000
0000
,
0100
0001
0010
1000
,
0100
0000
0000
0001
0000
0001
1000
0000
0000
0000
0000
0000
,
0011
1100
2010
0000
,
3001
0000
0000
0100
0000
0100
0010
0000
0000
0000
0000
0000
,
0010
1000
0100
0001
,
0010
0000
0000
1000
0000
1000
0100
0000
0000
0000
0000
0000
,
0011
1100
2002
3003
,
0001
0000
1000
0000
0100
0010
0100
0000
,
2000
0001
3002
1000
,
1003
0000
0001
0000
0010
0100
0010
0000
,
1001
0110
2002
0000
,
3003
0000
1000
0000
0010
0100
0001
0000
,
1000
0100
0010
0100
1000
0000
0002
0000
,
0000
0003
0000
0000
0000
0000
0000
0000
0000
0000
0000
0000
0000
0000
0000
0000
0000
0000
0000
0000
0000
0000
0000
0000
0000
0000
0000
0000
0000
0000
0000
0000
,
0010
0000
0000
0010
0000
0000
0001
0000
0001
1000
0000
0000
,
0001
0100
0010
1000
,
0100
0000
0000
0100
0000
0000
0010
0000
0001
1000
0000
0000
,
0101
0110
2002
3003
,
0010
0000
0000
0010
0000
0000
1000
0000
1000
0001
0000
0000
,
1000
0100
0010
0001
,
0100
0000
0000
0100
0000
0000
0010
0000
1000
0001
0000
0000
,
1100
0110
2002
0000
,
3003
0000
0100
0000
,
0010
0110
1001
0000
;

//---------------dance-single - ----------------
#NOTES:
     dance-single:
     :
     Easy:
     4:
     0.247,0.242,0.257,0.106,0.000,154.000,29.000,12.000,0.000,0.000,0.000,0.247,0.242,0.257,0.106,0.000,154.000,29.000,12.000,0.000,0.000,0.000:
0000
0000
0000
0000
,
0000
0000
0000
0000
,
0000
0000
0000
0000
,
0010
0010
1001
0000
,
1000
0100
0010
0001
,
0100
0100
1001
0000
,
0001
1000
0001
0000
,
0020
0000
0030
0000
,
0100
1000
1001
0000
,
0001
0100
0010
1000
,
0001
0010
0110
0000
,
0100
1000
0002
0003
,
1000
0100
0011
0000
,
0010
0100
1000
0001
,
0100
0010
0101
0000
,
0100
0001
2000
3000
,
0100
0110
1001
0000
,
1000
1000
0001
0001
,
0100
0110
1001
0000
,
1000
0002
2000
3003
,
0000
0000
0000
0000
,
0010
0010
1001
0000
,
0001
0100
0010
1000
,
0100
0100
1001
0000
,
1000
0001
1000
0000
,
0100
0100
1001
0000
,
0001
0010
0100
1000
,
0010
0010
1001
0000
,
1000
0001
1000
0000
,
0200
0000
0300
0000
,
0010
0001
1001
0000
,
1000
0010
0100
0001
,
1000
0100
0110
0000
,
0010
0001
2000
3000
,
0001
0010
1100
0000
,
0100
0010
0001
1000
,
0010
0100
1010
0000
,
0010
1000
0002
0003
,
0010
0110
1001
0000
,
0001
0001
1000
1000
,
0010
0110
1001
0000
,
0001
2000
0002
3003
,
0000
0000
1000
0000
,
0010
0010
0100
0200
,
0000
0300
0000
0000
0000
0000
0000
0000
0000
0000
0000
0000
0000
0000
0000
0000
0000
0000
0000
0000
0000
0000
0000
0000
0000
0000
0000
0000
0000
0000
0000
0000
0000
0000
0000
0000
0000
0000
0000
0000
0000
0000
0000
0000
0000
0000
0000
0000
0000
0000
0000
0000
0000
0000
0000
0000
0000
0000
0000
0000
0000
0000
0000
0000
,
0100
0100
1001
0000
,
1000
0010
0100
0001
,
0010
0010
1001
0000
,
0001
1000
0001
0000
,
0010
0010
1001
0000
,
1000
0100
0010
0001
,
0100
0100
1001
0000
,
0001
1000
0001
0000
,
0020
0000
0030
0000
,
1001
0110
1001
0000
;

//---------------dance-single - ----------------
#NOTES:
     dance-single:
     :
     Beginner:
     2:
     0.170,0.169,0.106,0.000,0.000,122.000,12.000,0.000,0.000,0.000,0.000,0.170,0.169,0.106,0.000,0.000,122.000,12.000,0.000,0.000,0.000,0.000:
0000
0000
0000
0000
,
0000
0000
0000
0000
,
0000
0000
0000
0000
,
0100
0000
0100
0000
,
0010
0010
0010
0000
,
0001
0000
0001
0000
,
0100
0100
0100
0000
,
0010
0000
1001
0000
,
1000
0000
1000
0000
,
0100
0100
0100
0000
,
0001
0000
0001
0000
,
0010
0010
0010
0000
,
1000
0000
1000
0000
,
0010
0010
0010
0000
,
0001
0000
0001
0000
,
0100
0100
0100
0000
,
0110
0000
1001
0000
,
1000
1000
0001
0000
,
0110
0000
1001
0000
,
0001
0001
1000
0000
,
0000
0000
0000
0000
,
0100
0000
0100
0000
,
0010
0010
0010
0000
,
0001
0000
0001
0000
,
0100
0100
0100
0000
,
0010
0000
0010
0000
,
0100
0100
0100
0000
,
1000
0000
1000
0000
,
0010
0010
0010
0000
,
1001
0000
0000
0000
,
0001
0000
0001
0000
,
0010
0010
0010
0000
,
1000
0000
1000
0000
,
0100
0100
0100
0000
,
0001
0000
0001
0000
,
0100
0100
0100
0000
,
1000
0000
1000
0000
,
0010
0010
0010
0000
,
0110
0000
1001
0000
,
0001
0001
1000
0000
,
0110
0000
1001
0000
,
1000
1000
0001
0000
,
0110
0000
0000
0000
,
1000
1000
0001
0001
,
0000
0000
0000
0000
,
0010
0000
0010
0000
,
0100
0100
0100
0000
,
1000
0000
1000
0000
,
0010
0010
0010
0000
,
0100
0000
0100
0000
,
0010
0010
0010
0000
,
0001
0000
0001
0000
,
0100
0100
0100
0000
,
0110
0000
0000
0000
,
1000
0001
1000
0000
;

//---------------dance-double - ----------------
#NOTES:
     dance-double:
     :
     Challenge:
     7:
     0.465,0.388,0.399,0.248,0.413,294.000,45.000,28.000,0.000,0.000,0.000,0.465,0.388,0.399,0.248,0.413,294.000,45.000,28.000,0.000,0.000,0.000:
00000000
00000000
00000000
00000000
,
00000000
00000000
00000000
00000000
,
00000000
00000000
00000000
00000000
,
01100000
00000000
00000000
10010000
00000000
00000000
10000000
00000000
00010000
00100000
00000000
00000000
,
00100000
00000000
00001000
00010000
00000000
00010000
00000100
00000000
00000100
00001000
00000000
00000000
,
00000100
00000000
00000010
00000001
00000000
00000100
00000010
00000000
00000010
00001000
00000000
00000000
,
00000101
00000000
00000000
00001010
00000000
00000000
00001200
00000000
00020300
00000000
00000000
00000000
,
00031000
00010000
01000000
11000000
,
10000000
00000000
00000000
00100000
01000000
00010000
00100000
00000000
00100000
00001000
00000000
00001000
,
00010000
00000000
00010000
00000010
00000000
00001000
00000100
00000000
00000000
00020100
00000000
00000000
,
00031000
00000000
00000000
00010000
01000000
10000000
00010000
00000000
01000000
00100000
00000000
00000000
,
10100000
00101000
00010200
00000310
,
00000001
00000000
00000000
00000100
00000010
00001000
00000100
00000000
00000100
00010000
00000000
00010000
,
00001000
00000000
00001000
01000000
00000000
00010000
00100000
00000000
00000000
00102000
00000000
00000000
,
00013000
00000000
00000000
00001000
00000010
00000001
00001000
00000000
00000000
00000110
00000000
00000001
,
00000100
00000000
00000000
00010100
00000000
00001000
00200000
00000000
00000000
01300000
00000000
00000000
,
11000000
00000000
00000000
00000000
00120000
00000000
00000000
01030000
00000000
00000000
01000000
00000000
00001000
00000000
00000000
00000000
,
00010000
00000000
00000100
00000000
00000010
00000000
00000000
00001000
00000000
00000000
00000010
00000000
00000001
00000000
00000000
00000000
,
00001000
00000000
00000100
00000000
00010000
00000000
00000000
00101000
00000000
00000000
00010000
00000000
01000000
00000000
00000000
00000000
,
01100000
00000000
00000000
00000000
10010000
00000000
00000000
10000000
00010000
00000000
01000000
00000000
00000000
00000000
00000000
00000000
,
00002000
00023000
00030200
00000310
,
00000110
00000000
00000000
00001001
00000000
00000000
00000001
00000000
00001000
00000100
00000000
00000000
,
00000100
00000000
00010000
00001000
00000000
00001000
00100000
00000000
00100000
00010000
00000000
00000000
,
00100000
00000000
01000000
10000000
00000000
00100000
01000000
00000000
01000000
00010000
00000000
00000000
,
10100000
00000000
00000000
01010000
00000000
00000000
00210000
00000000
00302000
00000000
00000000
00000000
,
00013000
00000000
00000000
00000100
00000000
00000000
00000010
00000001
00000010
00000100
00000000
00000000
,
00001000
00000000
00000100
00010000
00000000
01000000
10000000
00000000
00010000
01000000
00000000
00000000
,
00100000
00000000
01000000
00010000
00000000
00100000
00001000
00000000
00001000
01000000
00000000
00000000
,
01100000
00000000
00000000
10010000
00000000
00000000
20000000
00000000
30020000
00000000
00000000
00000000
,
00230000
00302000
00003020
00000031
,
00000001
00000000
00000000
00000100
00000010
00001000
00000100
00000000
00000100
00010000
00000000
00010000
,
00001000
00000000
00001000
01000000
00000000
00010000
00100000
00000000
00000000
00102000
00000000
00000000
,
00013000
00000000
00000000
00001000
00000010
00000001
00001000
00000000
00000010
00000100
00000000
00000000
,
00000101
00010100
00201000
01300000
,
10000000
00000000
00000000
00100000
01000000
00010000
00100000
00000000
00100000
00001000
00000000
00001000
,
00010000
00000000
00010000
00000010
00000000
00001000
00000100
00000000
00000000
00020100
00000000
00000000
,
00031000
00000000
00000000
00010000
01000000
10000000
00010000
00000000
00100000
01000000
00000000
10000000
,
00100000
00000000
00000000
00101000
00000000
00010000
00000000
00000200
00000000
00000310
00000000
00000000
,
00000011
00000000
00000000
00000000
00002100
00000000
00000000
00003010
00000000
00000000
00000010
00000000
00010000
00000000
00000000
00000000
,
00001000
00000000
00100000
00000000
01000000
00000000
00000000
00010000
00000000
00000000
01000000
00000000
10000000
00000000
00000000
00000000
,
00010000
00000000
00100000
00000000
00001000
00000000
00000000
00010100
00000000
00000000
00001000
00000000
00000010
00000000
00000000
00000000
,
00000110
00000000
00000000
00000000
00001001
00000000
00000000
00000001
00001000
00000000
00000010
00000000
00000000
00000000
00000000
00000000
,
00000100
00000000
00000001
00000000
00000010
00000100
00001000
00000000
,
00000100
00010000
01000000
10000000
00100000
00000000
02000000
00000000
,
00000000
03000000
00000000
00000000
00000000
00000000
00000000
00000000
00000000
00000000
00000000
00000000
00000000
00000000
00000000
00000000
00000000
00000000
00000000
00000000
00000000
00000000
00000000
00000000
00000000
00000000
00000000
00000000
00000000
00000000
00000000
00000000
,
01100000
00000000
00000000
10010000
00000000
00000000
10000000
00000000
00010000
01000000
00000000
00000000
,
01000000
00000000
00001000
00010000
00000000
00010000
00000010
00000000
00000010
00001000
00000000
00000000
,
00000010
00000000
00000100
00000001
00000000
00000010
00000100
00000000
00000100
00001000
00000000
00000000
,
00000011
00000000
00000000
00001100
00000000
00000000
00001020
00000000
00020030
00000000
00000000
00000000
,
00031000
00000000
00000000
00001000
00000000
00000000
00100000
00010000
00100000
00010000
00000000
00000000
,
00010000
00000000
01000000
00001000
00000000
00000100
00000001
00000000
00001000
00000100
00000000
00000000
,
00000010
00000000
00000100
00001000
00000000
00000010
00010000
00000000
00010000
00000100
00000000
00000000
,
00000110
00000000
00000000
00001001
00000000
00000000
00000002
00000000
00002003
00000000
00000000
00000000
,
00003020
00000000
00000000
00000030
,
00001010
00000000
00001000
00000100
00000000
00000100
00010000
00000000
00011000
00000000
00000000
00000000
;
