#TITLE:夢について TYPE A;
#SUBTITLE:;
#ARTIST:小野秀幸 feat. natsuki;
#TITLETRANSLIT:YUME NI TSUITE TYPE A;
#SUBTITLETRANSLIT:;
#ARTISTTRANSLIT:HIDEYUKI ONO feat. natsuki;
#CREDIT:DigiMindAxel;
#BANNER:YUME NI TSUITE TYPE A.png;
#BACKGROUND:YUME NI TSUITE TYPE A-bg.png;
#LYRICSPATH:YUME NI TSUITE TYPE A.lrc;
#CDTITLE:pop'n music.png;
#MUSIC:YUME NI TSUITE TYPE A.mp3;
#OFFSET:-12.800;
#SAMPLESTART:55.114;
#SAMPLELENGTH:12.000;
#SELECTABLE:YES;
#BPMS:0.000=156.000;
#STOPS:;
#BGCHANGES:;

//---------------dance-single - ----------------
#NOTES:
     dance-single:
     :
     Easy:
     3:
     0.187,0.240,0.075,0.053,0.000:
1001
0000
1000
0000
,
0001
0000
1000
0000
,
0020
0000
0130
0010
,
0100
0000
0001
0000
,
1000
0000
0100
0000
,
0010
0000
0100
0000
,
0010
0000
0001
1000
,
0001
0000
0010
0000
,
0100
0000
1000
0000
,
0001
0000
1000
0000
,
0010
0000
0100
0010
,
0100
0000
0001
0000
,
0010
0000
0100
0000
,
0010
0000
0001
0000
,
1000
0000
0010
0100
,
0010
0000
1000
0000
,
0100
0000
0010
0000
,
0100
0000
1000
0000
,
0010
0000
0110
0000
,
0100
0000
0100
0000
,
0100
0000
0001
0000
,
0001
0000
0001
0000
,
1000
0100
0010
0000
,
0010
0000
0010
0000
,
0010
0000
0001
0000
,
0001
0000
0220
0000
,
0000
0000
0330
0000
,
0000
0000
1000
0100
,
1000
0000
0001
1000
,
0001
0000
0010
0000
,
0100
0000
0010
0000
,
0001
0000
0100
0010
,
0100
0000
0010
1000
,
0010
0000
0100
0000
,
0001
0000
0010
0000
,
0100
0000
0110
0000
,
1000
0000
0100
0000
,
0010
0000
1001
0000
,
0010
0000
0100
0000
,
0000
0000
1001
0000
,
1000
0000
1000
0000
,
0000
0000
0000
0000
,
0010
0100
0010
0000
,
0100
0010
0100
0000
,
0001
1000
0001
0000
,
1000
0001
1000
0000
,
0100
1000
0100
0000
,
0010
0001
0010
0000
,
0100
0010
0100
0000
,
0010
0100
0220
0000
,
0330
0000
0000
0000
;

//---------------dance-single - ----------------
#NOTES:
     dance-single:
     :
     Medium:
     6:
     0.340,0.372,0.171,0.128,0.043:
1001
0000
0000
0000
1000
0000
0000
0001
,
0000
0001
0000
0100
0000
0010
0100
0000
,
0000
0000
0001
0010
,
0100
0010
0001
1000
,
0100
0010
0100
1000
,
0010
0100
0010
1000
,
0100
0000
0010
0001
,
0010
0100
1000
1000
,
0001
0001
0100
0010
,
1000
0100
0020
0000
,
0031
0000
0100
0010
,
1000
1100
0000
0010
,
0100
0001
0010
0100
,
1000
0010
0100
0001
,
1000
0000
0010
0100
,
0001
0011
1000
1000
,
0001
0001
0010
0100
,
1000
0010
0100
0001
,
1000
0110
1001
0200
,
1300
0000
0000
0200
0000
0000
1300
0000
0000
0010
0000
0001
,
0100
0000
0020
0130
,
0020
0130
0001
1000
,
0100
0010
1001
0020
,
0031
0000
0000
0020
0000
0000
0031
0000
0000
0100
0000
0010
,
1000
0000
0020
0130
,
0020
0000
0000
0130
0000
0000
1002
0000
0000
0000
0000
0200
,
0000
0000
0000
0000
0000
0303
0000
0000
1001
0000
0000
1001
,
0000
0000
0000
0000
1001
0000
0000
0000
0000
0000
0000
0000
0100
0000
0000
0001
0000
0000
0100
0000
0000
0000
0000
0000
,
0010
0000
1010
0000
0100
0001
0010
0000
,
0100
0000
0010
0000
0001
0010
0100
0000
,
0010
0100
1000
0000
0010
0000
0100
0000
,
0001
0000
1000
0000
0010
1000
0010
0000
,
0100
0000
0101
0000
0010
1000
0100
0000
,
0010
0000
0100
0000
1000
0100
0010
0000
,
0100
0010
0001
0000
1001
0000
0010
0100
,
0010
1000
0100
0010
0001
0000
0000
0000
,
1001
0000
0000
0100
0000
0100
0000
0010
,
0000
1000
0100
0010
0001
0000
0000
0000
,
1001
0000
0000
0100
0000
0200
0000
0000
,
0000
0300
0110
0000
,
0100
0000
0000
0010
0000
0010
0000
0100
,
0000
0001
0010
0100
0000
0000
0000
0000
,
1000
0100
0001
0100
,
1000
0100
0001
0100
,
1000
0010
0001
0010
,
1000
0010
0001
0010
,
1000
0010
0100
0001
,
0100
1000
0100
0001
,
0010
1000
0010
0001
,
0100
0000
0000
0010
0000
0000
1000
0000
0001
0000
1000
0000
;

//---------------dance-single - ----------------
#NOTES:
     dance-single:
     :
     Hard:
     8:
     0.521,0.478,0.213,0.394,0.203: // measure 1
1001
0000
0000
0000
1100
0000
0000
0001
,  // measure 2
0000
0100
0000
0001
0000
1000
0100
0010
,  // measure 3
0000
0000
0000
0000
1002
0000
1003
0010
,  // measure 4
0100
0000
0100
0000
0000
0001
0010
0100
,  // measure 5
1000
0000
1000
0000
0002
0000
0000
1003
,  // measure 6
0100
0000
0001
0000
0200
0000
0000
1300
,  // measure 7
0001
0010
0100
0000
2001
0000
3001
0100
,  // measure 8
0010
0000
0010
0000
1000
0100
0001
0000
,  // measure 9
0001
0100
1000
0000
0200
0000
0320
0000
,  // measure 10
0230
0000
2300
0000
3002
0000
0000
0103
,  // measure 11
0001
0010
0100
0000
0120
0000
1030
0100
,  // measure 12
0001
0100
1000
0000
0000
0001
1000
0100
,  // measure 13
0010
0000
0100
0000
2000
0000
3100
0001
,  // measure 14
0200
0000
1300
0100
0020
0000
0000
0031
,  // measure 15
1000
0100
0010
0100
2000
0000
3001
0010
,  // measure 16
1000
0010
0001
0000
1002
0000
0203
0000
,  // measure 17
0320
0000
0230
0000
0301
0100
1000
0000
,  // measure 18
1000
0100
0001
0000
0010
0100
0010
0001
,  // measure 19
1000
0100
1000
0010
0100
0010
0100
0000
0001
1000
0000
0000
,  // measure 20
0010
0000
0001
0100
0000
0000
0010
0000
1000
0100
0010
0001
,  // measure 21
0100
0000
0020
0000
0000
1030
0001
0000
0000
0010
0000
0001
,  // measure 22
0100
0000
0000
0010
0000
1000
0001
0000
0100
0010
0000
1000
,  // measure 23
0100
0000
0010
0001
0000
0000
1001
0000
0001
0100
0000
0000
,  // measure 24
0010
0000
1000
0100
0000
0000
1000
0000
0001
0010
0100
1000
,  // measure 25
0001
0000
0200
0000
0000
0301
1000
0000
0000
0100
0000
1000
,  // measure 26
0010
0000
0000
0100
0000
0001
2000
0000
0000
0000
0000
3010
,  // measure 27
0000
0000
0100
0001
0010
0100
1000
0000
1001
0000
0000
1001
,  // measure 28
0000
0000
0000
0000
1001
0000
0000
0000
0000
0000
0000
0000
0001
0000
0000
1000
0000
0000
0010
0000
0000
1000
0000
0000
,  // measure 29
0002
0000
0103
0000
0010
1000
0001
0010
,  // measure 30
0200
0000
0310
0000
0002
0000
1003
0100
,  // measure 31
0020
0000
0130
1000
0010
0100
0001
0010
,  // measure 32
0100
1000
0001
0000
1000
0001
0010
0001
,  // measure 33
2000
0000
3001
0000
1000
0100
0001
0000
,  // measure 34
0001
0100
1000
0000
1002
0000
1003
0100
,  // measure 35
0020
0000
0130
0010
0002
0000
0000
1000
,  // measure 36
1003
0010
0100
0001
1001
0000
0000
0000
,  // measure 37
0101
0000
0000
0110
0000
0110
0000
0200
,  // measure 38
0000
0301
0010
0100
1001
0000
0000
0000
,  // measure 39
1010
0000
0000
1001
0000
2000
0000
0000
,  // measure 40
3010
0100
0010
1000
0100
0010
0002
0000
0000
0003
0000
0000
,  // measure 41
0001
0000
0000
0001
0100
0100
0010
1000
,  // measure 42
1000
0001
0100
0010
0000
0000
0000
0000
,  // measure 43
1000
0100
1000
0001
0200
0000
1300
0100
,  // measure 44
0010
1000
0001
2000
0000
3001
0010
1000
,  // measure 45
0010
0001
1000
0001
0000
0010
0100
1000
,  // measure 46
0001
0100
0001
1000
0010
0001
0010
1000
,  // measure 47
0001
0001
0000
0100
0000
0001
0010
1000
,  // measure 48
0020
0000
0130
1000
0002
0000
1003
0100
,  // measure 49
1000
0001
0100
1000
0100
0001
0010
0200
,  // measure 50
0000
0000
0000
1000
0000
0000
0000
0000
0000
1300
0000
0000
0010
0000
0000
0000
1001
0000
0000
0000
1001
0000
0000
0000
;

//---------------dance-single - ----------------
#NOTES:
     dance-single:
     :
     Beginner:
     1:
     0.052,0.079,0.021,0.000,0.000:
1001
0000
0000
0000
,
0000
0000
0000
0000
,
0000
0000
1000
0000
,
0000
0000
0000
0000
,
0000
0000
0010
0000
,
0000
0000
0000
0000
,
0000
0000
0100
0000
,
0000
0000
0000
0000
,
0000
0000
0001
0000
,
0000
0000
0000
0000
,
0000
0000
1000
0000
,
0000
0000
0000
0000
,
0000
0000
0001
0000
,
0000
0000
0000
0000
,
0000
0000
1000
0000
,
0000
0000
0000
0000
,
0000
0000
0100
0000
,
0000
0000
0000
0000
,
0000
0000
0010
0000
,
0000
0000
0000
0000
,
0000
0000
0010
0000
,
0000
0000
0000
0000
,
0000
0000
1001
0000
,
0000
0000
0000
0000
,
0000
0000
0100
0000
,
0000
0000
0100
0000
,
0000
0000
0000
0000
,
0000
0000
0001
0000
,
0000
0000
0000
0000
,
0000
0000
1000
0000
,
0000
0000
0000
0000
,
0000
0000
0001
0000
,
0000
0000
0010
0000
,
0000
0000
0001
0000
,
0000
0000
0010
0000
,
0000
0000
0100
0000
,
0000
0000
0000
0000
,
0000
0000
1000
0000
,
0000
0000
0000
0000
,
0000
0000
0010
0000
,
0000
0000
0000
0000
,
0000
0000
0000
0000
,
0100
0000
0000
0000
,
0010
0000
0000
0000
,
0100
0000
0000
0000
,
0010
0000
0000
0000
,
1000
0000
0000
0000
,
0001
0000
0000
0000
,
1000
0000
0000
0000
,
0001
0000
1000
0000
;
