#TITLE:Star Command;
#SUBTITLE:;
#ARTIST:zircon;
#TITLETRANSLIT:;
#SUBTITLETRANSLIT:;
#ARTISTTRANSLIT:;
#GENRE:;
#CREDIT:;
#MENUCOLOR:PURPLE;
#METERTYPE:DDR X;
#BANNER:Star Command.png;
#BACKGROUND:Star Command-bg.png;
#LYRICSPATH:;
#CDTITLE:;
#MUSIC:Star Command.mp3;
#OFFSET:-0.100;
#SAMPLESTART:12.440;
#SAMPLELENGTH:15.000;
#SELECTABLE:YES;
#LISTSORT:;
#DISPLAYBPM:155.000;
#BPMS:0.000=155.000,160.000=116.250,166.000=155.000,174.000=116.250,192.000=155.020;
#STOPS:;
#BGCHANGES:;
#ATTACKS:;

//---------------dance-single - ----------------
#NOTES:
     dance-single:
     :
     Hard:
     16:
     0.894,0.857,0.488,0.198,1.000:
1000
0000
1000
0000
1000
0100
0010
0000
0010
0000
0010
0100
,
1000
0000
0001
0000
0001
0100
0010
0000
1000
0000
1000
0100
,
0001
0000
0100
0000
0010
0100
1000
0000
0001
0000
1000
0001
,
0100
0000
0001
0000
0000
0000
0001
0000
1000
0000
0000
0000
,
0010
1000
0010
1000
0001
1000
0001
0010
0001
0010
0100
1000
,
0010
1000
0010
1000
0001
1000
0001
0010
0100
1000
0001
0010
,
0100
0010
0100
0010
0001
0010
0001
1000
0001
1000
0010
1000
,
0010
0000
0100
0000
0001
0000
0100
0001
0100
0000
0001
0000
0010
0000
0100
0000
1000
0000
0010
0000
0000
0000
0000
0000
,
1010
0000
1002
0000
0000
0000
1000
0000
0000
1003
0001
0010
,
0100
0000
0000
0110
0000
0000
1001
0000
0000
1000
0010
1000
,
0001
0000
0010
0000
0000
0000
0011
0000
0001
0100
0010
0100
,
0001
0000
0101
0000
1001
0000
1000
0000
1100
0000
0110
0000
,
0011
0000
2001
0000
0000
0000
0001
0000
0000
3001
1000
0100
,
0010
0000
0100
0000
0011
0000
0001
0000
0010
0000
0100
0000
,
2000
0000
0000
3001
1000
0010
1000
0000
0000
0100
0010
0001
,
2000
3200
0320
0032
,
1003
0100
1000
0100
0001
0100
0001
0100
0001
0100
1000
0100
,
1000
0010
1000
0010
0001
0010
0001
0010
0001
0010
1000
0010
,
1000
0100
0010
0001
0100
0010
1000
0010
0100
0001
0010
0100
,
1000
0001
1000
1000
0001
1000
0001
1000
0001
0001
1000
0001
,
0020
0000
0000
0000
0000
0000
0130
0000
0000
0100
0010
0001
,
1000
0001
1000
0000
0001
0000
0010
0000
0100
0000
1000
0000
0001
0000
0010
0000
0100
0000
1000
0000
0001
0000
1000
0000
,
0001
0000
1010
0000
0001
0100
0001
0000
1010
0000
0001
1000
,
0100
0000
0011
0000
1000
0100
2000
0000
3010
0000
0100
0001
,
0100
0000
0000
0011
0000
0000
0100
0000
0000
1010
1000
0100
,
2000
3002
0023
0230
,
0310
0000
0220
0000
0000
0000
0000
0000
0000
0030
0000
0000
,
1300
0000
2002
0000
0000
0000
0000
0000
0000
3003
0000
0000
,
1000
0001
0100
0010
0100
0010
0100
0001
1000
0100
1000
0100
,
1000
0010
0100
0001
0010
0100
1000
0001
0010
0100
0010
0100
,
1000
0001
1000
0001
0010
0001
0010
0100
1000
0010
0100
0001
,
1000
0001
1000
0001
0010
0001
0010
0100
1000
0100
0010
0001
,
1000
0000
0001
0100
0001
0100
0010
1000
0010
1010
0000
0000
,
0001
0000
1000
0100
1000
0100
0010
0001
0010
0011
0000
0000
,
2002
3003
0022
0033
,
2200
0000
0000
3300
0000
0000
1000
0001
0000
1001
0000
0000
,
1000
0100
0010
0001
0100
0010
1000
0010
0100
0001
0010
0100
,
1000
0100
0010
0001
0100
0010
1000
0100
1000
0010
0100
0010
,
0100
0001
0010
0100
1000
0010
0100
0001
1000
0100
1000
0001
,
0100
0010
0100
0010
1000
0100
0001
0000
0200
0000
0000
0000
,
1300
0000
0100
1000
0100
1000
0100
0000
0010
0000
0001
0000
0001
0000
0100
0001
,
0100
0001
0100
0000
0010
0000
1000
0000
1010
0000
0000
0000
0011
0000
0000
0000
,
1010
0000
0000
0011
0000
0000
0001
0000
1001
0000
0110
0000
,
1010
0000
0000
0000
0000
0000
0000
0000
0101
0000
0000
0000
0000
0000
0000
0000
0011
0000
0000
0000
0000
0000
0000
0000
1100
0000
0000
0000
0000
0000
1100
0000
0000
0000
0000
0000
1000
0000
0000
0100
0000
0000
0010
0000
0000
0000
0000
0000
,
0011
0000
0001
1000
0100
0000
1100
0000
1000
0100
0010
0000
0011
0000
1100
0000
,
1001
0000
0001
0000
0100
0001
0010
0000
0110
0000
0010
0100
1000
0000
0001
0000
,
1001
0000
1010
0000
0101
0000
0011
0000
1100
0000
1000
0000
0001
0100
0001
0000
,
1000
0000
0001
0000
0011
0000
0010
0000
0100
1000
0010
0000
0100
0001
0100
0000
,
0010
1000
0010
1000
0001
1000
0001
0010
0001
0010
0100
0010
,
0100
1000
0010
1000
0100
0001
0100
1000
0010
0100
0001
0010
,
0100
0000
1000
0000
0010
1000
0100
0000
1000
0000
0010
1000
,
0010
0000
0100
0000
0010
1000
0010
0000
0100
0000
0010
1000
,
0001
0000
0001
0000
0010
0001
0010
0000
0010
0000
0010
0100
,
1000
0000
1010
0000
0010
0100
1000
0000
1010
0000
0010
0100
,
1000
0000
0001
1000
0100
0010
0001
0000
0001
1000
0100
0010
,
0001
0000
1000
0001
0100
0010
1000
0000
1000
0001
0100
0010
,
1000
0000
0100
0010
0100
0010
0001
0000
0100
0010
0100
0010
,
1000
0000
0010
0100
0010
0100
0001
0000
0010
0100
0010
0100
,
1000
0000
0010
0100
0001
1000
0010
0000
0010
0100
0001
1000
,
0010
0000
0010
0100
1000
0001
0010
0000
0010
0100
1000
0001
,
0010
0000
0100
0010
0001
1000
0010
0000
0100
0010
1000
0001
,
0010
0000
0100
0010
0001
1000
0010
0000
1010
0000
0101
0000
,
0011
0000
0001
0010
0100
1000
0100
0000
1000
0010
0100
0001
,
0100
0000
0000
0000
0001
0000
1000
0000
0100
0000
0010
0000
0100
0000
0000
0000
0100
0000
1000
0100
1000
0100
1000
0100
,
1000
0000
0000
0000
0000
0000
0001
0100
0001
0100
0001
0100
0001
0000
0000
0000
0000
0000
1000
0000
0010
0000
0100
0000
,
0001
0000
0000
0001
0010
0100
1000
0001
1000
0001
0010
0100
,
1000
0010
1000
0100
0010
0100
1000
0010
1000
0100
0010
0100
,
1000
0001
1000
0100
0010
0100
0010
0001
0100
0010
1000
0100
,
0010
0001
1000
0100
1000
0100
1000
0010
1000
0100
1000
0100
,
0010
0000
0001
0000
0100
0000
0010
1000
0010
0000
0100
0000
0001
0000
0010
0000
0100
0000
0010
0000
0100
0000
1000
0000
,
0001
0100
0001
0010
0100
0010
0100
1000
0100
1000
0010
1000
,
0001
0010
0001
0010
0100
0010
0100
1000
0010
0100
0001
0010
,
0011
0000
0011
0000
0001
0010
0100
0000
0110
0000
0010
0100
,
1000
0000
1001
0000
1000
0001
0100
0000
0101
0000
0001
0010
,
0110
0000
0000
0000
;

//---------------dance-single - ----------------
#NOTES:
     dance-single:
     :
     Medium:
     11:
     0.589,0.612,0.265,0.182,0.773:
1000
0000
1000
0000
0000
0000
0001
0000
0001
0000
0000
0000
,
0010
0000
0010
0000
0000
0000
0100
0000
0100
0000
0000
0000
,
1000
0000
1000
0000
0000
0000
0001
0000
0001
0000
0000
0000
,
0010
0000
0001
0000
0000
0000
1000
0000
0010
0000
0000
0000
,
1000
0010
1000
0001
0000
0000
0001
0010
0001
1000
0000
0000
,
1000
0100
1000
0001
0000
0000
0001
0100
0001
1000
0001
1000
,
0010
1000
0010
1000
0000
0000
0001
0010
0001
0010
0000
0000
,
0010
0000
0100
1000
0000
0001
0100
0000
0010
1000
0000
0000
,
1001
0000
1001
0000
0000
0000
0000
0000
0000
1000
0100
0010
,
0002
0000
0000
0000
0000
0000
0013
0000
0000
0000
0010
0100
,
1000
0000
0001
0000
0000
0000
1001
0000
1000
0010
1000
0010
,
0100
0000
0001
0000
0010
0000
0100
0000
1000
0000
0100
0000
,
0010
0000
0002
0000
0000
0000
0000
0000
0000
1003
0000
0100
,
1000
0000
0010
0000
1000
0000
0001
0000
0100
0000
0001
0000
,
1000
0000
0000
0001
0100
0001
0100
0000
0000
0010
1000
0010
,
2000
3200
0320
0032
,
1003
0000
0001
0100
0000
0000
0001
0000
1000
0100
0000
0000
,
1000
0000
0001
0010
0000
0000
0001
1000
0001
1000
0000
0000
,
0001
0000
1000
0100
0000
0000
1000
0000
0001
0100
0000
0000
,
0001
0000
1000
0010
0000
0000
1000
0001
1000
0001
0000
0000
,
2002
0000
0000
0000
0000
0000
3003
0000
0000
1000
0100
0010
,
0002
0000
1003
0001
0010
0100
1000
0010
1000
0010
1000
0100
,
0010
0000
0011
0000
0000
0000
0100
0000
1100
0000
0000
0000
,
0010
0000
1010
0000
0000
0000
0100
0000
0101
0000
0001
0010
,
0100
0000
0000
0110
0000
0000
0110
0000
0000
1000
0100
0010
,
0200
2300
3020
0230
,
0301
0000
1000
0000
0000
0000
0000
0000
0000
0000
0000
0000
,
1000
0000
0001
0000
0000
0000
0000
0000
0000
0000
0000
0000
,
0010
0000
0001
0010
0000
0000
0100
0000
1000
0100
0000
0000
,
0010
0000
0100
1000
0000
0000
0010
0000
0100
0001
0000
0000
,
0010
0000
1000
0010
0000
0000
0100
0000
0001
0100
0000
0000
,
0010
0000
0100
0001
0000
0000
0010
0000
0100
1000
0000
0000
,
0001
0000
0000
1000
0100
1000
0100
1000
0100
1000
0000
0000
,
1000
0000
0000
0001
0100
0001
0100
0001
0100
0001
0000
0000
,
2000
0000
3002
0000
,
0023
0000
0230
0000
,
1300
0100
1000
0100
0000
0000
0010
0100
0010
0100
0000
0000
,
1000
0100
1000
0100
0000
0000
1000
0001
0100
0010
0000
0000
,
0001
0100
0001
0100
0000
0000
0010
0100
0010
0100
0000
0000
,
0001
0100
0001
0100
0000
0000
0101
0000
1001
0000
0000
0000
,
1000
0100
0010
0001
0010
0100
1000
0010
,
0100
0001
0010
0100
1000
0000
0110
0000
,
0110
0110
0010
1001
,
1001
0000
1001
0000
1000
0010
0100
0100
,
0001
0010
0100
0100
1000
0010
1010
1010
,
1000
0001
0100
0100
0001
1000
0100
0100
,
1000
1010
1010
1001
0001
0001
0010
0100
,
0100
1000
0010
0010
0100
0001
0001
1000
,
0100
0000
0100
0010
0000
0000
0010
0000
0010
0100
0000
0000
,
0100
0000
0100
1000
0000
0000
1000
0000
1000
0001
0000
0000
,
0001
0000
0010
0000
0010
0000
0100
0000
0010
0000
0010
0000
,
0100
0000
1000
0000
1000
0000
0010
0000
1000
0000
1000
0000
,
0001
0000
0100
0000
0100
0000
0010
0000
0100
0000
0100
0000
,
0001
0000
0010
0000
0010
0000
1000
0000
0010
0000
0010
0000
,
0100
0000
0000
1000
0100
0010
0001
0000
0000
0001
0010
0100
,
1000
0000
0000
1000
0010
0100
0001
0000
0000
0001
0010
0100
,
1000
0000
0001
0000
0001
0000
1000
0000
0001
0000
0001
0000
,
0001
0000
1000
0000
1000
0000
0001
0000
1000
0000
1000
0000
,
0010
0000
0100
0000
0100
0000
0001
0000
0100
0000
0100
0000
,
0010
0000
1000
0000
1000
0000
0100
0000
1000
0000
1000
0000
,
0001
0000
0010
0000
0010
0000
0100
0000
0010
0000
0010
0000
,
0001
0000
1000
0000
0100
0000
0010
0000
0001
0000
0010
0000
,
0001
0010
0100
1000
0000
0000
0001
0010
0100
1000
0000
0000
,
1000
0010
0100
0001
0000
0000
1000
0010
0100
0002
0000
0000
,
1003
2000
3001
0002
,
0013
0020
0130
0200
,
1300
0000
0000
1100
0000
0000
0001
0000
0000
0101
0000
0100
,
0010
0000
0000
1010
0000
0000
0001
0000
0000
0011
0000
0010
,
0100
1100
0001
0101
,
0001
1000
0010
1000
0100
1000
0100
0010
0100
0001
0000
0000
,
0101
0000
0000
0000
0000
0100
1000
0000
0000
0000
0000
1000
,
0010
0000
0000
0000
0000
0010
0100
0000
0000
0101
0000
0000
,
1001
0000
0000
0000
0000
1000
0100
0000
0000
0000
0000
0100
,
0010
0000
0010
0000
0010
0100
1000
0000
1000
0000
1000
0001
,
0100
0000
0000
0000
;

//---------------dance-single - ----------------
#NOTES:
     dance-single:
     :
     Easy:
     8:
     0.361,0.489,0.215,0.223,0.178: // measure 1
0000
0000
0000
0000
,  // measure 2
0000
0000
0000
0000
,  // measure 3
0000
0000
0000
0000
,  // measure 4
0000
0000
0000
0000
,  // measure 5
1000
0010
0100
0100
,  // measure 6
0001
0010
0100
0100
,  // measure 7
1000
0001
0100
0001
,  // measure 8
0010
0100
1000
0010
,  // measure 9
1010
0000
0000
0000
0000
0000
1001
0000
0000
0001
0010
0100
,  // measure 10
1000
0000
0001
0000
,  // measure 11
1001
0000
0000
0000
0000
0000
1010
0000
0000
1000
0010
0100
,  // measure 12
0001
0000
0000
0000
0001
0000
1000
0000
0000
0000
1000
0000
,  // measure 13
0010
0100
0001
0010
,  // measure 14
0100
0010
0110
0110
,  // measure 15
1001
0000
0000
1000
0100
0010
0001
0000
0000
1000
0000
0000
,  // measure 16
0002
0023
0230
2300
,  // measure 17
3100
0010
0100
1000
,  // measure 18
0100
0010
0100
0001
,  // measure 19
0100
1000
0010
0100
,  // measure 20
0001
0010
0100
1000
,  // measure 21
1001
0000
0000
0000
0000
0000
0000
0000
0000
1000
0100
0010
,  // measure 22
0002
1003
1000
0100
,  // measure 23
2000
3001
0001
0100
,  // measure 24
0010
0000
0010
0000
0000
0000
0100
0000
0100
0000
0000
0000
,  // measure 25
1000
0001
1000
0001
,  // measure 26
0020
0230
2300
3002
,  // measure 27
0103
0000
0101
0000
,  // measure 28
1000
0000
1000
0000
0000
0000
0000
0000
0000
1010
0000
0000
,  // measure 29
1000
0010
0100
0001
,  // measure 30
0010
0100
0010
0100
,  // measure 31
1000
0001
0010
0100
,  // measure 32
1000
0001
1000
0001
,  // measure 33
1001
0000
0010
0010
,  // measure 34
1001
0000
0100
0100
,  // measure 35
2000
0000
3020
0000
,  // measure 36
0230
0000
0302
0000
,  // measure 37
1003
0100
0010
0001
0000
0000
0001
0000
0000
0000
0000
0000
,  // measure 38
0001
0010
0100
1000
0000
0000
1000
0000
0000
0000
0000
0000
,  // measure 39
0010
0100
0010
0100
0000
0000
0010
0000
0000
0000
0000
0000
,  // measure 40
0100
0010
0100
0010
0000
0000
0020
0000
0000
0000
0000
0000
,  // measure 41
0000
0000
0000
0000
,  // measure 42
0000
0000
0130
0100
,  // measure 43
0100
0000
0000
0100
0000
0000
0001
0000
0010
0000
0100
0000
,  // measure 44
1000
1001
2200
0000
,  // measure 45
3300
0202
0000
0303
,  // measure 46
2020
0000
3030
0022
,  // measure 47
0000
0033
2002
0000
,  // measure 48
3003
0220
0000
0330
,  // measure 49
0010
0001
0100
1000
,  // measure 50
0010
0001
0100
1000
,  // measure 51
0010
0000
1000
0000
0000
0000
0010
0000
1000
0000
0000
0000
,  // measure 52
0001
0000
0100
0000
0000
0000
0001
0000
0100
0000
0000
0000
,  // measure 53
0010
0000
0001
0000
0000
0000
0010
0000
0001
0000
0000
0000
,  // measure 54
1000
0000
0100
0000
0000
0000
1000
0000
0100
0000
0000
0000
,  // measure 55
0010
0001
0100
0001
,  // measure 56
0010
1000
0100
1000
,  // measure 57
0010
0100
0001
1000
,  // measure 58
0100
0010
0001
1000
,  // measure 59
0001
0000
0001
0000
0000
0000
1000
0000
1000
0000
0000
0000
,  // measure 60
0010
0000
0010
0000
0000
0000
0100
0000
0100
0000
0000
0000
,  // measure 61
0001
0000
1000
0000
0000
0000
1000
0000
0001
0000
0000
0000
,  // measure 62
0010
0000
0100
0000
0000
0000
0100
0000
0010
0000
0000
0000
,  // measure 63
0001
0010
0100
1000
,  // measure 64
0010
0000
0000
0100
0000
0000
0001
0000
0000
1000
0100
0010
,  // measure 65
0001
0000
0001
0000
,  // measure 66
0001
0000
0011
0000
,  // measure 67
0010
0000
0110
0000
,  // measure 68
0100
0000
0110
1001
,  // measure 69
1000
0000
1001
0000
,  // measure 70
0001
0000
1001
1000
,  // measure 71
0010
1000
0010
1000
,  // measure 72
0001
0100
0001
0010
,  // measure 73
0100
1000
0100
1000
,  // measure 74
0010
0000
0100
0000
0000
0000
0001
0000
1000
0000
0000
0000
,  // measure 75
1001
0000
0000
0000
;
