#TITLE:SABER WING;
#SUBTITLE:;
#ARTIST:TAG;
#TITLETRANSLIT:;
#SUBTITLETRANSLIT:;
#ARTISTTRANSLIT:;
#GENRE:;
#CREDIT:;
#BANNER:SABER WING.png;
#BACKGROUND:SABER WING-bg.png;
#LYRICSPATH:;
#CDTITLE:cdtitle.png;
#MUSIC:SABER WING.mp3;
#OFFSET:0.537;
#SAMPLESTART:0.820;
#SAMPLELENGTH:12.980;
#SELECTABLE:YES;
#DISPLAYBPM:74.000:222.000;
#BPMS:0.000=222.000
,223.000=444.000
,235.000=74.003
,251.000=222.000
;
#STOPS:98.000=0.541,
144.000=0.180,
144.333=0.180,
144.667=0.180,
250.667=1.622
;
#BGCHANGES:0.000=[12th Week] - SABER WING.avi=1.000=1=0=0=StretchNoLoop==CrossFade==,
99999=-nosongbg-=1.000=0=0=0 // don't automatically add -songbackground-
;
#KEYSOUNDS:;
#ATTACKS:;

//---------------dance-single - Rygon----------------
#NOTES:
     dance-single:
     :
     Hard:
     9:
     0.709,1.000,0.558,0.350,0.118,429.000,59.000,37.000,0.000,0.000,0.000,0.709,1.000,0.558,0.350,0.118,429.000,59.000,37.000,0.000,0.000,0.000:
0000
0000
0000
0000
,
0000
0000
1000
0000
0000
0001
0100
0010
,
2000
3000
0101
0010
,
0000
1000
0100
0010
0002
0000
0003
0000
,
1100
0000
0010
0000
0000
0100
1000
0001
,
0100
0010
1000
2100
,
0000
3010
0102
0000
,
0010
0000
1003
0000
0000
0001
0010
0100
,
1000
0000
0011
0100
,
0000
1000
0010
0100
0002
0000
0003
0000
,
1010
0000
0100
0000
0000
0010
0000
0010
,
1000
0001
0010
0000
0100
0000
2000
0000
,
3200
0320
0032
0100
,
0103
0000
0010
0000
0100
0001
1000
0000
,
0100
0000
0000
0010
0100
1000
0010
0000
,
1000
1100
0012
1000
,
1003
0000
0001
0000
1000
0001
0100
0000
,
0010
0000
0000
0100
0010
1000
0100
0000
,
0010
0011
1200
0010
,
0310
0000
0100
0000
1000
0001
1000
0000
,
0010
0000
0000
0100
1000
0100
0001
0000
,
1000
0100
0021
0230
,
2300
0000
3001
0000
0100
0010
0100
0000
,
1000
0000
0000
0100
0010
0100
0001
0000
,
0010
0110
1002
1003
,
0001
0010
0100
0000
0001
0000
0100
0000
,
1100
0000
1000
0000
0010
0100
0001
1000
,
0100
0010
0011
0001
,
0100
0010
1000
0000
0001
0000
1000
0000
,
0100
0012
0100
0103
,
2010
0100
3100
0010
,
0100
1000
0001
0000
0100
0000
0010
0000
,
1010
0000
1000
0000
0010
0100
0001
0010
,
0001
1000
0010
0110
,
0000
1001
0000
0001
1000
0000
0100
0000
,
0010
0021
0100
1030
,
0010
0000
0010
0000
0010
0000
1000
0000
0000
0100
0000
0000
0001
0000
0000
0100
0000
0000
1000
0000
0000
0000
0000
0000
,
0001
0000
0001
0000
1000
0100
0001
0100
,
1000
0000
0001
0000
1000
0000
0001
0100
,
1000
0100
0001
0000
1000
0000
1000
0000
,
0001
0100
1000
0100
0001
0000
1000
0000
,
0001
0000
1000
0010
0001
0010
1000
0000
,
0001
0000
0001
0000
1000
0010
0001
0010
,
1000
0000
0001
0000
1000
0000
0001
0010
,
1000
0010
0001
0000
1000
0000
1000
0000
,
0001
0010
1000
0010
0001
0000
1000
0000
,
0001
0000
1000
0100
0010
0100
1000
0010
,
0100
0000
0100
0000
0001
0100
0001
0010
,
0100
1000
0010
0000
0100
0000
0001
0100
,
0010
0100
0001
0010
0100
0000
0100
0000
,
1000
0100
1000
0010
0100
0001
0010
0000
,
0100
0000
1100
0000
1000
0100
0010
0000
,
0011
0000
0001
0100
0010
0000
1010
0000
,
1000
0001
0010
0000
0110
0000
0010
0100
,
1000
0020
0000
0000
,
1030
0001
1000
0001
1000
0001
0200
0000
,
0000
0000
0000
0000
,
0000
0000
0000
0000
,
0000
0000
0000
0000
0000
0000
0000
0000
0000
0310
0000
0010
,
1000
0000
0000
0000
1000
0000
0001
0000
0000
0000
1000
0100
0020
0000
0000
0000
0000
0000
0031
0000
0000
0000
0001
0000
,
1000
0000
0000
0000
1000
0000
0010
0000
0000
0000
0010
0100
0001
0000
0000
0000
1000
0000
1100
0000
0010
0000
0001
0000
,
0101
0010
1000
1010
0100
0001
0011
0000
0000
1100
0010
0001
,
0101
0010
1000
1100
0010
0001
0101
1010
1001
1000
0000
0000
,
0001
0100
1000
0000
0001
0000
0010
1000
,
0001
1100
0110
0011
,
1002
2003
3002
1003
,
0001
0010
1000
0000
0001
0000
0100
1000
,
0001
1010
0110
0101
,
2001
3002
2003
3001
,
1000
0100
0001
0000
1000
0000
0010
0001
,
1000
0101
0110
1010
,
2001
3002
2003
3001
,
1000
0010
0001
0000
1000
0000
0100
0001
,
1000
0011
0110
1100
,
1002
2003
3002
1003
,
0100
1000
0100
0010
0001
0000
0100
0001
,
0100
0010
1000
0000
1010
0000
0110
0000
,
0102
0010
0023
0130
,
1000
0010
0001
0010
1000
0000
0001
0010
,
1000
0010
0001
0000
1100
0000
0011
0000
,
0120
2030
3001
1001
,
1000
0001
0000
0001
0100
0000
0010
0000
,
1000
0000
1001
0000
0001
1000
0000
1000
,
0100
0000
0010
0000
0001
0000
1000
0100
,
1000
0100
1000
0100
0001
0100
0001
0100
,
0001
0100
1000
0100
0010
0001
0100
0010
,
0001
0000
0000
0000
;

//---------------dance-single - Rygon----------------
#NOTES:
     dance-single:
     :
     Challenge:
     10:
     0.820,1.000,0.747,0.416,0.132,484.000,79.000,44.000,0.000,0.000,0.000,0.820,1.000,0.747,0.416,0.132,484.000,79.000,44.000,0.000,0.000,0.000: // measure 0
0000
0000
0000
0000
,  // measure 1
0000
0000
0001
0000
0000
1000
0100
0001
,  // measure 2
0100
1000
1010
0010
,  // measure 3
0000
0001
0010
1000
0100
0000
0010
0000
,  // measure 4
0011
0000
0001
0000
0000
1000
0010
0001
,  // measure 5
0010
1000
0001
0012
,  // measure 6
1000
0103
2010
0001
,  // measure 7
3100
0000
0001
0000
0000
1000
0010
0001
,  // measure 8
0010
1000
1100
0010
,  // measure 9
0000
0001
0010
1000
0010
0000
0001
0000
,  // measure 10
0101
0000
1010
0000
0000
1000
0010
1000
,  // measure 11
0100
1100
0110
0012
,  // measure 12
0100
1003
2010
0100
,  // measure 13
3001
0000
0100
0000
0000
1000
0001
0100
,  // measure 14
0010
0000
0000
1000
0100
0010
0100
0000
,  // measure 15
1100
0011
2001
3002
,  // measure 16
2003
0000
3001
0000
0000
0100
0010
1000
,  // measure 17
0100
0000
0000
0001
0100
1000
0010
0000
,  // measure 18
0101
1010
2100
0010
,  // measure 19
0100
0000
3001
0000
0000
0010
1000
0010
,  // measure 20
0001
0000
0000
1000
0010
0001
0010
0000
,  // measure 21
1010
0101
0021
0230
,  // measure 22
2300
0000
3010
0000
0000
0100
0001
0100
,  // measure 23
1000
0000
0000
0100
0001
1000
0100
0000
,  // measure 24
0011
1100
2001
3001
,  // measure 25
0100
0010
1000
0100
0001
0000
0100
0000
,  // measure 26
1100
0000
1000
0000
0010
0100
0001
1000
,  // measure 27
0100
0011
1100
0001
,  // measure 28
1000
0100
0001
1000
0010
0000
0001
0000
,  // measure 29
0101
2010
0100
3010
,  // measure 30
0102
0010
0103
0010
,  // measure 31
0001
0010
1000
0010
0100
0000
1000
0000
,  // measure 32
1010
0000
0110
0000
0100
0001
0010
1000
,  // measure 33
0010
0011
1100
1010
,  // measure 34
1000
0001
0000
0001
0010
0100
1000
0010
,  // measure 35
0100
0001
0020
0000
0000
0000
0130
0000
,  // measure 36
1000
0000
0100
0000
0001
0000
0100
0000
0000
1000
0000
0000
0001
0000
0000
0100
0000
0000
1000
0000
0000
0100
0000
0000
,  // measure 37
0010
0000
2010
0000
3100
0001
1000
0010
,  // measure 38
0100
1000
0010
0000
0201
0000
0310
1000
,  // measure 39
0001
0010
1000
0010
0001
0000
1200
0000
,  // measure 40
0301
0100
0010
0001
0100
0010
0001
0000
,  // measure 41
2010
0000
3100
0010
1000
0001
0100
1000
,  // measure 42
0010
0000
0120
0000
0130
0010
0001
1000
,  // measure 43
0100
0001
0010
0000
0210
0000
0301
0100
,  // measure 44
1000
0001
0100
1000
0100
0000
0201
0000
,  // measure 45
0310
1000
0100
0001
0100
1000
0001
0000
,  // measure 46
0201
0000
0310
1000
0100
0010
1000
0010
,  // measure 47
0001
0100
0010
0100
0001
1000
0100
0010
,  // measure 48
0001
0100
0010
0000
0210
0000
0301
1000
,  // measure 49
0100
0001
0100
1000
0010
0001
1000
0100
,  // measure 50
0001
0010
0100
1000
0010
0100
0001
0000
,  // measure 51
1100
0000
1000
0100
0010
0001
0100
0010
,  // measure 52
0001
0010
1000
0100
0010
0001
0100
1000
,  // measure 53
0100
0001
0010
1000
0010
0001
0100
0010
,  // measure 54
1000
0100
0020
0000
0000
0000
0000
0000
,  // measure 55
0031
1000
0001
1000
0001
1000
0200
0000
,  // measure 56
0000
0000
0000
0000
,  // measure 57
0000
0000
0000
0000
,  // measure 58
0000
0000
0000
0000
0000
0000
0000
0000
0000
0000
0000
0000
0000
0000
0000
0000
0000
0000
0310
0000
0000
0010
0001
0000
,  // measure 59
0100
0000
0000
0100
0010
0000
1000
0000
0100
0000
0010
0001
0020
0000
0000
0000
0000
0000
0031
0000
0000
0100
0010
0000
,  // measure 60
0100
0000
0000
0001
1000
0000
0100
0000
1000
0001
1000
0001
0100
0000
0010
0000
0100
0000
0110
0000
0100
0001
0100
0000
,  // measure 61
0101
0000
0001
1000
0001
0000
1001
0000
1000
0100
1000
0000
1100
0000
0000
0000
0000
0000
0011
0000
0001
0100
0010
0000
,  // measure 62
1010
0000
1000
0100
0010
0000
0011
0000
0001
0000
0100
0000
1010
0000
0101
0000
1001
0000
1000
0000
0000
0000
0000
0000
,  // measure 63
0001
0100
0010
1000
0200
0000
0301
0100
,  // measure 64
1000
0010
0100
0000
0101
0000
1010
0000
,  // measure 65
2001
3002
2003
3010
,  // measure 66
0100
0001
1000
0100
0002
0000
0103
1000
,  // measure 67
0001
0100
0010
0000
1010
0000
0101
0000
,  // measure 68
0021
0230
2300
3010
,  // measure 69
0100
0001
1000
0100
0020
0000
0130
1000
,  // measure 70
0001
0100
0010
0000
0101
0000
1010
0000
,  // measure 71
1200
0302
2003
3010
,  // measure 72
0001
0100
1000
0001
1000
0000
0100
0001
,  // measure 73
1000
0100
0010
0000
0011
0000
0101
0000
,  // measure 74
1010
0000
1000
0010
0001
1000
0100
0000
,  // measure 75
0001
0100
1000
0100
0002
0000
1003
0100
,  // measure 76
0001
0100
1000
0000
1100
0000
0011
0000
,  // measure 77
1200
0010
0301
0101
,  // measure 78
0001
0100
1000
0001
0200
0000
1300
0100
,  // measure 79
0001
1000
0100
0000
0011
0000
1100
0000
,  // measure 80
0120
0032
0103
0101
,  // measure 81
0100
0010
0000
1000
0100
0000
0011
0000
,  // measure 82
1100
0000
0110
0000
0010
0001
0000
0100
,  // measure 83
0010
0000
1010
0000
0101
0000
1000
0100
,  // measure 84
0001
1000
0010
0001
0100
1000
0001
0010
,  // measure 85
1000
0100
0010
0001
0100
0010
0001
0010
,  // measure 86
1000
0000
0000
0000
;

//---------------dance-single - Rygon----------------
#NOTES:
     dance-single:
     :
     Medium:
     8:
     0.492,0.732,0.199,0.246,0.095,317.000,21.000,26.000,0.000,0.000,0.000,0.492,0.732,0.199,0.246,0.095,317.000,21.000,26.000,0.000,0.000,0.000:
0000
0000
0000
0000
,
0000
0001
1000
0100
,
2000
0000
3010
0100
,
0001
0010
0200
0000
,
0301
0100
1000
0001
,
0100
0010
1000
2100
,
0000
3000
0102
0000
,
0003
1000
0100
0001
,
0200
0000
0310
0001
,
0100
1000
0200
0000
,
0301
0000
1000
0000
0000
1000
0001
0000
,
0100
0000
0010
2002
,
3003
0000
0220
0330
,
0000
1000
0000
0100
,
0001
0000
0100
1000
,
0010
0110
1001
0000
,
1000
0001
0000
0100
,
1000
0000
0100
0001
,
0010
0100
1001
0000
,
0001
1000
0000
0010
,
0001
0000
0010
1000
,
0001
0010
0110
0000
,
0010
0001
0000
1000
,
0010
0000
0001
0010
,
1000
0001
1001
1000
,
0000
0100
0010
0000
0001
0000
0001
0000
,
1000
0000
0001
0000
0000
0100
0010
0000
,
1000
0100
0010
0100
,
0000
0001
0100
0000
1000
0000
0010
0000
,
0100
0002
0000
0000
,
2003
0000
0000
3001
,
0000
0100
0010
0000
1000
0000
1000
0000
,
0001
0000
1000
0000
0000
0100
0010
0000
,
0001
0100
0010
0100
,
0000
1000
0100
0000
0001
0000
0010
0000
,
0100
2000
0000
0000
,
3001
0000
1000
0000
0100
0010
0100
0000
,
1000
0000
0000
0000
0001
0000
0100
0010
,
0100
0001
0000
1000
,
0010
0100
0010
0000
1000
0000
0000
0000
,
0001
0000
0010
0100
0010
0000
0001
0000
,
0000
0000
1000
0000
0100
0001
0100
0000
,
1000
0000
0000
0000
0001
0000
0100
1000
,
0100
0001
0000
1000
,
0010
0001
0010
0000
1000
0000
0000
0000
,
0001
0000
0010
1000
0010
0000
0001
0000
,
0000
0000
1000
0000
0100
0010
0001
0000
,
1000
0000
0000
0000
0001
0000
0100
0010
,
1000
0001
0000
1000
,
0010
0100
0001
0000
1000
0000
0000
0000
,
0001
0000
0010
0100
1000
0000
0001
0000
,
0000
2010
0000
3100
,
0012
0000
0103
2010
,
0000
3100
0012
0000
,
0103
2002
0000
3003
,
1000
0001
1000
0001
1000
0000
0200
0000
,
0000
0000
0000
0000
,
0000
0000
0000
0000
,
0000
0000
0000
0000
0000
0000
0000
0000
0000
0310
0000
0010
,
0001
0000
0001
0100
0000
0100
0010
0000
0000
1000
0000
1000
,
0100
0000
0100
0001
0000
0001
0100
0000
0000
1000
0100
1000
,
0001
0100
0001
1000
0010
1000
0001
0000
0000
0001
0010
0001
,
1000
0010
1000
0100
0100
0100
0010
0010
0010
0001
0000
0000
,
0100
1000
0100
0001
,
1000
0200
0010
0310
,
0012
0000
0000
1003
,
0100
0001
0100
1000
,
0001
0100
0010
1000
,
1020
0000
0130
0010
,
1000
0100
0001
0100
,
1000
0001
0100
0010
,
0210
0000
0000
0301
,
0010
0100
1000
0010
,
0001
0010
1000
0100
,
0010
0001
0010
0001
0010
0000
0100
0000
,
0000
0100
1000
0000
0010
0000
0000
0010
,
0100
0001
1000
0100
,
0120
0000
0130
0010
,
0000
0001
1000
0000
0010
0000
0000
1000
,
0001
0010
0100
1000
,
1020
0000
0130
0101
,
0001
1000
0000
1000
0001
0000
0010
0000
,
0100
0000
1100
0000
1000
0001
0000
0001
,
1000
0010
0100
0001
,
0010
0100
1000
0000
0010
0000
0100
0001
,
0010
0000
0100
1000
0100
0010
0001
0100
,
0010
0000
0000
0000
;

//---------------dance-single - Rygon----------------
#NOTES:
     dance-single:
     :
     Easy:
     6:
     0.450,0.610,0.397,0.284,0.033,261.000,42.000,30.000,0.000,0.000,0.000,0.450,0.610,0.397,0.284,0.033,261.000,42.000,30.000,0.000,0.000,0.000:
0000
0000
0000
0000
,
0000
1000
0000
0001
,
0010
0100
1000
0010
,
0000
1000
0100
0001
,
0100
1000
0000
0001
,
0100
0010
1000
0200
,
0000
0310
0002
0000
,
0103
0010
0000
1000
,
0010
0100
0001
0010
,
0000
1000
0010
0001
,
0100
0010
0000
0010
,
0100
0001
0010
0200
,
0300
0000
2002
3003
,
0000
1001
0000
0001
,
0100
0000
0010
0100
,
0001
0010
0110
0000
,
0100
1000
0000
0010
,
0100
0000
0001
0010
,
0100
1000
1001
0000
,
0010
1001
0000
1000
,
0100
0000
0010
0100
,
1000
0010
0110
0000
,
0100
0001
0000
0010
,
0100
0000
1000
0010
,
0100
0001
1001
1000
,
0000
0100
0010
0000
0002
0000
0003
0000
,
0100
0000
0010
0000
0000
0010
1000
0000
,
0200
0300
0010
0001
,
0000
0001
1000
0000
0100
0000
0000
0000
,
0010
2002
3003
0000
,
0220
0330
0000
0001
,
0000
0100
0010
0000
2000
0000
3000
0000
,
0100
0000
0010
0000
0000
0010
0001
0000
,
0200
0300
0010
1000
,
0000
1000
0001
0000
0100
0000
0000
0000
,
0010
2002
3003
0000
,
0110
1001
0000
1000
,
0100
0010
1001
0000
,
0001
0100
0010
1001
,
0000
1000
0010
0100
,
1001
0000
0001
0010
,
0100
1001
0000
1000
,
0100
0010
1001
0000
,
0001
0100
0010
1001
,
0000
1000
0010
0100
,
1001
0000
0001
0010
,
0100
0110
0000
0010
,
0001
0100
0110
0000
,
0010
1000
0100
0110
,
0000
0100
1000
0010
,
0110
0000
0100
0001
,
0010
0110
0000
0010
,
1001
0000
1000
0110
,
0000
0010
1001
0000
,
0110
0020
0000
0000
,
0230
0000
0000
0302
,
0000
0000
0000
0000
,
0000
0000
0000
0000
,
0000
0000
0000
1003
,
1000
0000
0000
0100
0000
0010
0001
0000
0000
0100
0000
0000
,
0100
0000
0000
0010
0000
1000
0001
0000
0000
1100
0000
0000
,
0011
0000
0000
0101
0000
0001
1001
0000
0000
1100
0000
0000
,
0110
0000
0000
0010
0010
0010
0100
0100
0100
0010
0000
0000
,
0000
0001
0100
0000
0010
0000
0000
1000
,
0100
0020
0030
0010
,
2002
3003
0000
0001
,
0000
1000
0010
0000
0100
0000
0000
0010
,
1000
0200
0300
0010
,
1001
0000
0000
0100
,
0000
0001
0010
0000
0100
0000
0000
1000
,
0010
0200
0300
0100
,
2002
3003
0000
0001
,
0000
1000
0100
0000
0010
0000
0000
0100
,
1000
0020
0030
0100
,
1001
0000
0000
1000
,
0100
0001
0100
1000
,
0010
0100
0001
1000
,
2002
3003
0000
0001
,
0100
1000
0100
0001
,
0010
0100
1000
0001
,
2002
3003
0000
1000
,
0000
0001
0000
0000
1001
0000
0000
0000
,
1000
0000
0010
0000
0000
0100
0000
0000
,
0110
0000
0010
1000
,
0100
0010
0001
0010
,
0100
1000
0001
0100
,
1000
0000
0000
0000
;

//---------------dance-single - Rygon----------------
#NOTES:
     dance-single:
     :
     Beginner:
     3:
     0.246,0.285,0.217,0.057,0.000,153.000,23.000,6.000,0.000,0.000,0.000,0.246,0.285,0.217,0.057,0.000,153.000,23.000,6.000,0.000,0.000,0.000:
0000
0000
0000
0000
,
0000
1000
0000
0000
,
0010
0000
0000
0100
,
0000
0000
0001
0000
,
0000
0010
0000
0000
,
0100
0000
0000
1001
,
0000
0000
0110
0000
,
0000
1000
0000
0000
,
0100
0000
0000
0001
,
0000
0000
0100
0000
,
0000
1000
0000
0000
,
0010
0000
0000
0110
,
0000
0000
1001
0000
,
0000
1000
0000
0001
,
0001
0000
0100
0100
,
0000
0000
0110
0000
,
0000
0010
0000
1000
,
1000
0000
0100
0100
,
0000
0000
1001
0000
,
0000
0001
0000
1000
,
1000
0000
0100
0100
,
0000
0000
0110
0000
,
0000
0010
0000
0001
,
0001
0000
0100
0100
,
0000
0000
1001
1000
,
0000
0000
0010
0010
,
0010
0010
0000
0000
,
0100
0100
0100
0100
,
0000
0000
0001
0001
,
0001
0001
0000
0000
,
1001
0000
0000
0001
,
0000
0000
0100
0100
,
0100
0100
0000
0000
,
0010
0010
0010
0010
,
0000
0000
1000
1000
,
1000
1000
0000
0000
,
1001
0000
0000
0000
,
0010
0000
0010
0000
,
0000
0100
0000
0100
,
0000
0000
0001
0000
,
0001
0000
0000
1000
,
0000
1000
0000
0000
,
0100
0000
0100
0000
,
0000
0010
0000
0010
,
0000
0000
0100
0000
,
0100
0000
0000
1000
,
0000
1000
0000
0000
,
0001
0001
0001
0000
,
0000
0100
0100
0100
,
0000
0000
0010
0010
,
0010
0000
0000
1000
,
1000
1000
0000
0000
,
1001
0000
0000
0110
,
0000
0000
1001
0000
,
0000
0110
0000
0000
,
0000
0000
0000
2002
,
0000
0000
0000
0000
,
0000
0000
0000
0000
,
0000
0000
0000
3003
,
0000
0000
0000
0100
,
0000
0010
0000
2000
,
3000
2000
3000
0002
,
0003
0002
0003
0001
,
0000
0001
0001
0000
,
0000
1000
0000
1000
,
1000
0000
0000
0010
,
0000
0010
0010
0000
,
0000
0100
0000
0100
,
0100
0000
0000
1001
,
0000
0001
0001
0000
,
0000
1001
0000
1000
,
1000
0000
0000
0110
,
0000
0010
0010
0000
,
0000
0110
0000
0100
,
0100
0000
0000
0001
,
0000
0000
0010
0000
,
0000
0110
0000
0000
,
1001
0000
0000
1000
,
0000
0000
0010
0000
,
0000
0110
0000
0000
,
1001
0000
0000
1000
,
0000
1000
0000
0000
1000
0000
0000
0000
,
0000
0000
0001
0000
0000
0001
0000
0000
,
0001
0000
0000
0100
,
0100
0100
0100
0000
,
0000
0010
0010
0010
,
0010
0000
0000
0000
;

//---------------dance-double - Rygon----------------
#NOTES:
     dance-double:
     :
     Challenge:
     10:
     0.812,1.000,0.936,0.331,0.118,467.000,99.000,35.000,0.000,0.000,0.000,0.812,1.000,0.936,0.331,0.118,467.000,99.000,35.000,0.000,0.000,0.000:
00000000
00000000
00000000
00000000
,
00000000
00000000
00110000
00000000
00000000
00100000
00001000
00010000
,
00001000
01000000
10100000
10010000
,
00000000
10000000
01000000
00100000
00001000
00000000
00010100
00000000
,
00000110
00000000
00000011
00000000
00000000
00000100
00010000
00001000
,
00000010
00000001
00001010
00001200
,
00020300
00031000
00201000
02300000
,
13000000
00000000
00100000
00000000
00000000
01000000
00001000
00010000
,
01000000
10000000
00100000
01001000
,
00000000
00001000
00010000
00000100
00000001
00000000
00000101
00000000
,
00001100
00000000
00010100
00000000
00000000
00010000
00001000
00000000
,
00101000
01100000
11000000
10200000
,
02300000
03010000
00102000
00023000
,
00030200
00000000
00000310
00000000
00000000
00000001
00000010
00000100
,
00001000
00000000
00000100
00010000
01000000
00100000
00010000
00000000
,
01010000
10100000
12000000
03200000
,
00320000
00000000
01030000
00000000
00000000
01000000
00001000
00100000
,
01000000
00000000
00100000
00001000
00010000
00000010
00000100
00000000
,
00000101
00000011
00001200
00000320
,
00000031
00000000
00000101
00000000
00000000
00000010
00010000
00001000
,
00000100
00000000
00001000
00010000
01000000
10000000
00100000
00000000
,
10000000
01010000
00210000
02300000
,
13000000
00000000
11000000
00000000
00000000
01000000
00100000
00010000
,
01000000
00000000
00001000
00010000
00000100
00000010
00000001
00000000
,
00000011
00001100
00021000
00031000
,
00000000
00010000
00001000
00010000
00000100
00000000
00000011
00000000
,
00001100
00000000
00010100
00000000
00000000
00001000
01000000
00100000
,
10000000
01010000
10100000
11000000
,
00000000
00100000
00010000
01000000
00100000
00000000
01001000
00000000
,
00101000
00010200
00000310
00000011
,
00002100
00003001
00000101
00001010
,
00000000
00000010
00001000
00000100
00010000
00000000
00011000
00000000
,
00101000
00000000
01010000
00000000
00000000
01000000
10000000
01000000
,
00010000
00110000
00101000
00010100
,
00000000
00001000
00000010
00001000
00000100
00000000
00001100
00000000
,
00010100
00021000
00032000
00203000
,
00310000
00000000
00110000
00000000
11000000
00000000
01000000
00000000
00000000
00100000
00000000
00000000
00010000
00000000
00000000
01000000
00000000
00000000
00001000
00000000
00000000
00010000
00000000
00000000
,
00000100
00000010
00000001
00000000
00001000
00000010
00001000
00000100
,
00010000
01000000
10000000
00000000
10010000
00000000
00100000
01000000
,
00010000
00100000
00001000
00010000
01000000
10000000
00010000
00000000
,
01000000
00001000
00010000
00000010
00000100
00000001
00000010
00000000
,
00001100
00000000
00000010
00000001
00000100
00000010
00010000
00001000
,
00000010
00001000
00010000
00000000
00001000
01000000
00100000
10000000
,
01000000
00100000
00010000
00000000
11000000
00000000
00100000
00001000
,
00010000
01000000
00010000
00001000
00010000
00000100
00001000
00000000
,
00000010
00000100
00000001
00001000
00000100
00000010
00000100
00000000
,
00010100
00000000
00001000
00100000
00010000
00100000
00001000
01000000
,
00100000
10000000
01000000
00010000
01000000
10000000
00010000
01000000
,
00001000
00010000
00000100
00000000
00000011
00000000
00000001
00000010
,
00000100
00001000
00000010
00010000
01000000
00100000
00010000
01000000
,
00100000
10000000
01000000
00100000
00001000
00010000
00000100
00000000
,
00000110
00000000
00000010
00000001
00000010
00000100
00001000
00000100
,
00010000
00001000
00100000
00010000
01000000
00100000
10000000
01000000
,
00100000
01000000
10000000
00010000
01000000
00001000
00010000
00000100
,
00000010
00000001
00000200
00000000
00000000
00000000
00000000
00000000
,
00000310
00000100
00000010
00000100
00000001
00001000
00000002
00000000
,
00000000
00000000
00000000
00000000
,
00000000
00000000
00000000
00000000
,
00000000
00000000
00000000
00000000
00000000
00000000
00000000
00000000
00000000
00001003
00000000
00000100
,
00001100
00000000
00000000
00000000
00010000
00000000
00010100
00000000
00000000
00000000
00010000
00001000
00020000
00000000
00000000
00000000
00000000
00000000
00031000
00000000
00000000
00000000
01000000
00000000
,
01001000
00000000
00000000
00000000
00010000
00000000
01100000
00000000
00000000
00000000
00100000
01000000
10000000
00000000
00000000
00000000
00010000
00000000
10010000
00000000
00010000
00000000
01000000
00000000
,
01001000
00001000
00010000
00010100
00000100
00000010
00000011
00000000
00000000
00000101
00000010
00001000
,
00001100
00010000
00001000
00011000
00110000
01100000
10000000
01100000
10010000
10000000
00000000
00000000
,
00000000
01000000
00010000
01000000
10000000
00000000
00010000
01000000
,
00001000
00010000
00001000
00000000
00010100
00000000
00001100
00000000
,
00000120
00000032
00000103
00000010
,
00000000
00000100
00000001
00001000
00000100
00000000
00010000
00001000
,
00010000
00001000
00100000
00000000
00110000
00000000
11000000
00000000
,
01200000
00320000
01030000
00100000
,
00000000
01000000
00001000
00010000
01000000
00000000
00100000
00010000
,
01000000
00100000
10000000
00000000
10100000
00000000
01010000
00000000
,
00102000
00023000
00031000
00010000
,
00000000
00000100
00000010
00000001
00000100
00000000
00000010
00001000
,
00000100
00000001
00000100
00000000
00010000
00000000
00010100
00000000
,
00010000
00001000
00100000
00001000
00010000
00000100
00010000
00000000
,
00001000
00100000
01000000
10000000
00100000
00000000
01000000
00010000
,
00100000
01000000
10000000
00000000
11000000
00000000
00110000
00000000
,
00102000
00023000
00030100
00000010
,
00000001
00000010
00000100
00001000
00000010
00000000
00000100
00000010
,
00001000
00000100
00010000
00000000
00011000
00000000
00101000
00000000
,
02100000
23000000
30100000
10100000
,
10000000
00010000
00000000
01000000
00001000
00000000
00011000
00000000
,
00010100
00000000
00000110
00000000
00000010
00000001
00000000
00001000
,
00000010
00010010
00011000
00101000
,
00100000
00010000
01000000
00100000
10000000
01000000
00100000
00001000
,
00010000
00000100
00000010
00000001
00000100
00001000
00000100
00010000
,
00100000
00000000
00000000
00000000
;

//---------------dance-double - Rygon----------------
#NOTES:
     dance-double:
     :
     Hard:
     9:
     0.785,1.000,1.000,0.388,0.118,424.000,116.000,41.000,0.000,0.000,0.000,0.785,1.000,1.000,0.388,0.118,424.000,116.000,41.000,0.000,0.000,0.000:
00000000
00000000
00000000
00000000
,
00000000
00000000
00001100
00000000
00000000
00000100
00010000
00001000
,
00010000
00000010
00000101
00001001
,
00000000
00000001
00000010
00000100
00010000
00000000
00001000
00000000
,
01001000
00000000
11000000
00000000
00000000
00100000
00001000
00010000
,
01000000
10000000
01010000
00210000
,
00302000
00013000
00010200
00000320
,
00000031
00000000
00000100
00000000
00000000
00000010
00010000
00001000
,
00000010
00000001
00000100
00010010
,
00000000
00010000
00001000
00100000
10000000
00000000
10100000
00000000
,
00110000
00000000
00101000
00000000
00000000
00001000
00010000
00000000
,
00010100
00000110
00000011
00000201
,
00000320
00001030
00020100
00032000
,
00203000
00000000
01300000
00000000
00000000
10000000
01000000
00100000
,
00010000
00000000
00000000
00100000
00001000
00000010
00000100
00000000
,
00001010
00000101
00000021
00000230
,
00002300
00000000
00003010
00000000
00000000
00000010
00010000
00000100
,
00000010
00000000
00000100
00010000
00001000
01000000
00100000
00000000
,
10100000
11000000
00210000
02300000
,
13000000
00000000
10100000
00000000
00000000
01000000
00001000
00010000
,
00100000
00000000
00000000
00100000
00001000
00000010
00000100
00000000
,
00000001
00001010
00001200
00000320
,
00000031
00000000
00000011
00000000
00000000
00000010
00000100
00001000
,
00000010
00000000
00010000
00001000
00100000
01000000
10000000
00000000
,
11000000
00110000
00012000
00013000
,
00000000
00001000
00010000
00001000
00100000
00000000
11000000
00000000
,
00110000
00000000
00101000
00000000
00000000
00010000
00000010
00000100
,
00000001
00001010
00000101
00000011
,
00000000
00000100
00001000
00000010
00000100
00000000
00010010
00000000
,
00010100
00201000
01300000
11000000
,
00120000
10030000
10100000
01010000
,
00000000
01000000
00010000
00100000
00001000
00000000
00011000
00000000
,
00010100
00000000
00001010
00000000
00000000
00000010
00000001
00000010
,
00001000
00001100
00010100
00101000
,
00000000
00010000
01000000
00010000
00100000
00000000
00110000
00000000
,
00101000
00012000
00023000
00030200
,
00001300
00000000
00001100
00000000
00000011
00000000
00000010
00000000
00000000
00000100
00000000
00000000
00001000
00000000
00000000
00000000
00000000
00000000
00000100
00000000
00000000
00000000
00000000
00000000
,
00010100
00000000
00011000
00000000
00001000
00100000
00001000
00100000
,
00010000
00000000
10000000
00000000
11000000
00000000
10000000
00100000
,
01000000
00010000
00101000
00010100
,
00010000
00000100
00001000
00000010
00000100
00000000
00000001
00000000
,
00000011
00000000
00000010
00000100
00001000
00000000
00000100
00000000
,
00010100
00000000
00011000
00000000
00001000
00100000
00001000
00100000
,
00010000
00000000
10000000
00000000
11000000
00000000
10000000
00100000
,
01000000
00010000
00101000
00010100
,
00010000
00000100
00001000
00000010
00000100
00000000
00000001
00000000
,
00000011
00000000
00000010
00000100
00001000
00000000
00000100
00010000
,
00001000
00000000
00011000
00000000
00001000
00100000
00010000
00000000
,
01000000
00100000
10000000
00000000
11000000
00000000
01000000
00100000
,
00010000
00000000
01000000
00001000
00010000
00000000
00011000
00000000
,
00010000
00000100
00000010
00000000
00000100
00000010
00000001
00000000
,
00000101
00002010
00003200
00010300
,
00021000
00032000
00103000
00210000
,
02300000
13000000
10100000
01100000
,
01010000
01200000
00000000
00000000
,
01300000
00100000
01000000
00100000
10000000
00010000
20000000
00000000
,
00000000
00000000
00000000
00000000
,
00000000
00000000
00000000
00000000
,
00000000
00000000
00000000
00000000
00000000
00000000
00000000
00000000
00000000
30010000
00000000
00100000
,
00110000
00000000
00000000
00000000
00001000
00000000
00101000
00000000
00000000
00000000
00001000
00010000
00002000
00000000
00000000
00000000
00000000
00000000
00013000
00000000
00000000
00000000
00000010
00000000
,
00010010
00000000
00000000
00000000
00001000
00000000
00000110
00000000
00000000
00000000
00000100
00000010
00000001
00000000
00000000
00000000
00001000
00000000
00001001
00000000
00001000
00000000
00000010
00000000
,
00010010
00010000
00001000
00101000
00100000
01000000
11000000
00000000
00000000
10100000
01000000
00010000
,
00110000
00001000
00010000
00011000
00001100
00000110
00000001
00000110
00001001
00000001
00000000
00000000
,
00000000
00000010
00001000
00000010
00000001
00000000
00001000
00000010
,
00010000
00001000
00010000
00000000
00101000
00000000
00110000
00000000
,
02100000
23000000
30100000
01000000
,
00000000
00100000
10000000
00010000
00100000
00000000
00001000
00010000
,
00001000
00010000
00000100
00000000
00001100
00000000
00000011
00000000
,
00000210
00002300
00003010
00000100
,
00000000
00000010
00010000
00001000
00000010
00000000
00000100
00001000
,
00000010
00000100
00000001
00000000
00000101
00000000
00001010
00000000
,
00020100
00032000
00013000
00001000
,
00000000
00100000
01000000
10000000
00100000
00000000
01000000
00010000
,
00100000
10000000
00100000
00000000
00001000
00000000
00101000
00000000
,
00001000
00010000
00000100
00010000
00001000
00100000
00001000
00000000
,
00010000
00000100
00000010
00000000
00000001
00000000
00000100
00000010
,
00001000
00000100
00000010
00000000
00000011
00000000
00001100
00000000
,
00020100
00032000
00103000
01000000
,
10000000
01000000
00100000
00000000
00010000
00000000
01000000
00010000
,
00100000
00001000
00010000
00000000
00011000
00000000
00010100
00000000
,
00000120
00000032
00000103
00000101
,
00000001
00001000
00000000
00000010
00010000
00000000
00011000
00000000
,
00101000
00000000
01100000
00000000
01000000
10000000
00000000
00010000
,
01000000
01001000
00011000
00010100
,
00000100
00001000
00000010
00000000
00000101
00000000
00000010
00001000
,
00000100
00000000
00000100
00010000
00001000
00100000
00001000
00010000
,
00000100
00000000
00000000
00000000
;

//---------------dance-double - Rygon----------------
#NOTES:
     dance-double:
     :
     Medium:
     7:
     0.452,0.569,0.388,0.142,0.038,279.000,41.000,15.000,0.000,0.000,0.000,0.452,0.569,0.388,0.142,0.038,279.000,41.000,15.000,0.000,0.000,0.000:
00000000
00000000
00000000
00000000
,
00000000
10000000
00000000
01000000
,
00100000
00000000
00001000
00010000
,
00000000
00000100
00000010
00000000
,
00000001
00000100
00000000
00000010
,
00001000
00000100
00001000
00000200
,
00000000
00010300
00002000
00000000
,
00103000
01000000
00000000
10000000
,
00100000
01000000
00010000
00200000
,
00000000
00301000
00010000
00000100
,
00000010
00000002
00000000
00000103
,
00000010
00001000
00000100
00010100
,
00000000
00010000
00011000
00000000
,
00001000
00000000
01001000
00000000
00000000
01000000
00100000
00000000
,
10000000
00000000
00000000
01000000
00100000
00000000
00010000
00000000
,
00000000
00101000
00020100
00000000
,
00030100
00000000
00000010
00000000
00000000
00000001
00001000
00000000
,
00000100
00000000
00000000
00000010
00000100
00000000
00001000
00000000
,
00000000
00010100
00101000
00000000
,
00100000
00000000
01000000
00000000
00000000
10000000
00100000
00000000
,
01000000
00000000
00000000
00001000
00010000
00000000
00000100
00000000
,
00000000
00001000
00001010
00000000
,
00000010
00000000
00000110
00000000
00000000
00000100
00000001
00000000
,
00001000
00000000
00000000
00000100
00010000
00000000
00001000
00000000
,
01000000
00100000
01100000
10000000
,
00000000
01000000
00100000
00010000
,
01000000
00001000
00000000
00010000
,
00000100
00000010
00000001
00000100
,
00000000
00000010
00001000
00000100
,
00010000
00011000
00000000
00001000
,
01001000
00000000
01000000
01100000
,
00000000
00100000
10000000
01000000
,
00010000
01000000
10000000
00000000
,
00010000
01000000
00001000
00010000
,
00000100
00000000
00000100
00000010
,
00000001
00000102
00000000
00000000
,
00001003
00001000
00001000
00001000
00000000
00000000
00000100
00000000
00000000
00010000
00000000
00000000
,
00001000
00000000
01000000
00100000
,
10000000
01000000
00000000
00100000
,
00010000
01000000
00001000
00000000
,
00010000
00000100
00000010
00000011
,
00000000
00000001
00000100
00000010
,
00001000
00000000
00000100
00010000
,
00001000
00100000
00000000
01000000
,
10000000
00100000
01000000
00000000
,
00010000
01000000
00001000
00011000
,
00000000
00001000
00100000
01000000
,
10000000
00000000
00100000
01000000
,
00001000
00010000
00000000
00000100
,
00000010
00000001
00000100
00000000
,
00000010
00001000
00000100
00000011
,
00000000
00001100
00000100
00010000
,
00011000
00000000
00000000
00101000
,
00100000
01000000
11000000
00000000
,
00000000
20010000
00000000
00000000
,
00010000
30010000
01000000
00002000
,
00000000
00000000
00000000
00000000
,
00000000
00000000
00000000
00000000
,
00000000
00000000
00000000
00013000
,
00010000
00000000
00000000
00000100
00000000
00000100
00001000
00000000
00000000
00000010
00000000
00000000
,
00000010
00000000
00000000
00000100
00000000
00000001
00001000
00000000
00000000
00001100
00000000
00000000
,
00011000
00210000
01300000
11000000
,
10100000
00000000
00000000
01000000
00010000
01000000
00010000
01000000
00010000
01000000
00000000
00000000
,
00000000
01000000
00100000
00000000
10000000
00000000
00000000
01000000
,
00100000
00010000
00000000
00101000
,
00020100
00000000
00030100
00000010
,
00000000
00000001
00001000
00000000
00000100
00000000
00000000
00000010
,
00000100
00001000
00000000
00010100
,
00101000
00000000
00100000
01000000
,
00000000
10000000
00100000
00000000
01000000
00000000
00000000
00001000
,
00010000
00000100
00000000
00001000
,
00001010
00000000
00000010
00000110
,
00000000
00000100
00000001
00000000
00001000
00000000
00000000
00000100
,
00010000
00001000
01000000
00100000
,
20000000
00010000
00010000
30010000
,
00100000
01000000
10000000
00010000
,
01000000
00001000
00010000
00000100
,
00000120
00000000
00000001
00000031
,
00000010
00000100
00001000
00000100
,
00010000
01000000
10000000
00100000
,
02100000
00000000
03010000
00101000
,
00000000
00011000
00000000
00000000
00010200
00000000
00000000
00000000
,
00000310
00000000
00000011
00000000
00000000
00001100
00000000
00000000
,
00020100
00000000
00031000
00010000
,
00001000
00100000
00010000
01000000
,
00100000
10000000
01000000
00100000
,
00010000
00000000
00000000
00000000
;

//---------------dance-double - Rygon----------------
#NOTES:
     dance-double:
     :
     Easy:
     5:
     0.294,0.488,0.189,0.038,0.000,194.000,20.000,4.000,0.000,0.000,0.000,0.294,0.488,0.189,0.038,0.000,194.000,20.000,4.000,0.000,0.000,0.000:
00000000
00000000
00000000
00000000
,
00000000
10000000
00000000
00000000
,
00010000
00000000
00000000
01000000
,
00000000
00000000
00001000
00000000
,
00000000
00010000
00000000
00000000
,
00000100
00000000
00000000
00000010
,
00000000
00000010
00000001
00000000
,
00000001
00000100
00000000
00000000
,
00000001
00000000
00000000
00001000
,
00000000
00000000
00000100
00000000
,
00000000
00010000
00000000
00000000
,
01000000
00000000
00000000
00100000
,
00010000
00100000
00010000
10000000
,
00010000
10000000
00000000
00000000
,
00010000
00000000
00000000
01000000
,
00000000
00001000
00010000
00000000
,
00000000
00000100
00000000
00000000
,
00000010
00000000
00000000
00000001
,
00000000
00000100
00000010
00000000
,
00000000
00010000
00000000
00000000
,
00001000
00000000
00000000
00100000
,
00000000
01000000
10000000
00000000
,
00000000
00100000
00000000
00000000
,
01000000
00000000
00000000
00001000
,
00010000
00001000
00010000
00000100
,
00000000
00000010
00000001
00000000
,
00000100
00000010
00000000
00001000
,
00000100
00000000
00010000
00001000
,
00000000
00100000
01000000
00000000
,
10000000
10010000
00000000
00000000
,
01100000
00000000
00000000
01000000
,
00000000
00010000
00100000
00000000
,
00001000
00010000
00000000
00000100
,
00000010
00000000
00000001
00000100
,
00000000
00000010
00001000
00000100
,
00010000
00001000
00000000
00000000
,
00011000
00011000
00000000
00000000
,
00001000
00010000
00000100
00000000
,
00000000
00000010
00000001
00000100
,
00000000
00000000
00000010
00001000
,
00000100
00000000
00000000
00100000
,
00010000
01000000
00000000
00000000
,
00100000
10000000
01000000
00000000
,
00000000
00010000
01000000
10000000
,
00000000
00000000
00010000
01000000
,
00001000
00000000
00000000
00010000
,
00000100
00000010
00000000
00000010
,
00000001
00000100
00000010
00000000
,
00000010
00001000
00000100
00010000
,
00000000
00010000
00001000
00100000
,
01000000
00000000
01000000
10000000
,
00100000
10100000
00000000
00000000
,
10010000
00000000
00000000
00101000
,
00000000
00000000
00010100
00000000
,
00000000
00000120
00000000
00000000
,
00000031
00000001
00000001
00000200
,
00000000
00000000
00000000
00000000
,
00000000
00000000
00000000
00000000
,
00000000
00000000
00000000
00001300
,
00001000
00000100
00010100
00010000
,
00010000
00001000
01001000
01100000
,
10000000
01000000
00110000
11000000
,
00100000
00110000
00011000
00001000
,
00000000
00010000
00001000
00000000
,
00001000
01000000
00000000
00000000
,
01100000
00000000
00000000
00100000
,
00000000
00100000
10000000
00000000
,
10000000
01000000
00000000
00000000
,
00110000
00000000
00000000
00100000
,
00000000
00100000
00001000
00000000
,
00001000
00010000
00000000
00000000
,
00010100
00000000
00000000
00000100
,
00000000
00000100
00000010
00000000
,
00000010
00000001
00000000
00000000
,
00001001
00000000
00000000
00000001
,
00001000
00000100
00010000
00000000
,
00000000
00001000
00100000
01000000
,
10000000
00000000
00000000
00100000
,
01000000
00010000
00100000
00000000
,
00000000
00001000
00010000
00001000
,
00010000
00000000
00000000
00000200
,
00000000
00000010
00000000
00000000
00000310
00000000
00000000
00000000
,
00000001
00000000
00000200
00000000
00000000
00000010
00000000
00000000
,
00000310
00000000
00000010
00001000
,
00000100
00010000
00001000
00000000
,
00010000
00001000
00100000
01000000
,
10000000
00000000
00000000
00000000
;
