#VERSION:0.81;
#TITLE:Ready Go;
#SUBTITLE:;
#ARTIST:4 MINUTE;
#TITLETRANSLIT:;
#SUBTITLETRANSLIT:;
#ARTISTTRANSLIT:;
#GENRE:;
#ORIGIN:;
#CREDIT:hooky;
#BANNER:[12th Week] - Ready Go.png;
#BACKGROUND:[12th Week] - Ready Go-bg.png;
#JACKET:Ready Go-jacket.png;
#CDIMAGE:;
#DISCIMAGE:;
#LYRICSPATH:;
#CDTITLE:;
#MUSIC:[12th Week] - Ready Go.ogg;
#OFFSET:0.945;
#SAMPLESTART:36.660;
#SAMPLELENGTH:15.000;
#SELECTABLE:YES;
#DISPLAYBPM:134.000;
#BPMS:0.000=133.992;
#STOPS:;
#DELAYS:;
#WARPS:;
#TIMESIGNATURES:0.000=4=4;
#TICKCOUNTS:0.000=4;
#COMBOS:0.000=1;
#SPEEDS:0.000=1.000=0.000=0;
#SCROLLS:0.000=1.000;
#FAKES:;
#LABELS:0.000=Song Start;
#BGCHANGES:-4.000=cdtitle.png=1.000=1=0=1===CrossFade==,
1.750=[12th Week] - Ready Go.avi=1.000=0=0=1=====,
226.000=cdtitle.png=1.000=0=0=1=====,
99999=-nosongbg-=1.000=0=0=0 // don't automatically add -songbackground-
;
#KEYSOUNDS:;
#ATTACKS: TIME=95.33:LEN=5.79:MODS=Overhead;

//---------------dance-single - hooky----------------
#NOTEDATA:;
#CHARTNAME:Beginner;
#STEPSTYPE:dance-single;
#DESCRIPTION:hooky;
#CHARTSTYLE:;
#DIFFICULTY:Beginner;
#METER:1;
#RADARVALUES:0.097,0.109,0.020,0.000,0.000,67.000,2.000,0.000,0.000,0.000,0.000,0.000,0.000,0.097,0.109,0.020,0.000,0.000,67.000,2.000,0.000,0.000,0.000,0.000,0.000,0.000;
#CREDIT:hooky;
#OFFSET:0.935;
#BPMS:0.000=133.950
;
#STOPS:;
#DELAYS:;
#WARPS:;
#TIMESIGNATURES:0.000=4=4
;
#TICKCOUNTS:0.000=4
;
#COMBOS:0.000=1
;
#SPEEDS:0.000=1.000=0.000=0
;
#SCROLLS:0.000=1.000
;
#FAKES:;
#LABELS:0.000=Song Start
;
#ATTACKS:;
#DISPLAYBPM:134.000;
#NOTES:
// measure 0
0000
0000
0000
0000
,  // measure 1
0000
0000
0000
0000
,  // measure 2
0000
0000
0000
0000
,  // measure 3
0000
0000
0000
0000
,  // measure 4
0000
0000
0000
0000
,  // measure 5
1000
0000
0001
0000
,  // measure 6
1000
0000
0001
0000
,  // measure 7
1000
0000
0001
0000
,  // measure 8
1000
0000
0001
0000
,  // measure 9
0100
0000
0010
0000
,  // measure 10
0100
0000
0010
0000
,  // measure 11
1000
0000
1000
0000
,  // measure 12
0001
0000
0000
0000
,  // measure 13
0100
0000
0000
0000
,  // measure 14
0010
0000
0000
0000
,  // measure 15
1000
0000
0000
0000
,  // measure 16
0001
0000
0000
0000
,  // measure 17
0100
0000
0000
0000
,  // measure 18
0010
0000
0000
0000
,  // measure 19
1000
0000
0001
0000
,  // measure 20
1001
0000
0000
0000
,  // measure 21
1000
0000
0010
0000
,  // measure 22
0100
0000
0001
0000
,  // measure 23
1000
0000
0000
0000
,  // measure 24
0000
0000
0000
0000
,  // measure 25
0001
0000
0010
0000
,  // measure 26
0100
0000
1000
0000
,  // measure 27
0010
0000
0000
0000
,  // measure 28
0000
0000
0000
0000
,  // measure 29
0100
0000
0000
0000
,  // measure 30
0100
0000
0000
0000
,  // measure 31
0001
0000
0000
0000
,  // measure 32
1000
0000
0000
0000
,  // measure 33
0001
0000
0000
0000
,  // measure 34
0010
0000
0000
0000
,  // measure 35
0001
0000
0000
0000
,  // measure 36
1000
0000
0000
0000
,  // measure 37
0010
0000
0100
0000
,  // measure 38
0001
0000
1000
0000
,  // measure 39
0010
0000
0000
0000
,  // measure 40
0000
0000
0000
0000
,  // measure 41
0100
0000
0001
0000
,  // measure 42
0010
0000
0001
0000
,  // measure 43
1000
0000
0000
0000
,  // measure 44
0000
0000
0000
0000
,  // measure 45
0010
0000
0000
0000
,  // measure 46
0100
0000
0000
0000
,  // measure 47
0001
0000
0000
0000
,  // measure 48
1000
0000
0000
0000
,  // measure 49
0100
0000
0010
0000
,  // measure 50
0001
0000
0100
0000
,  // measure 51
0010
0000
1000
0000
,  // measure 52
0100
0000
1000
0000
,  // measure 53
0010
0000
0000
0000
,  // measure 54
0100
0000
0000
0000
,  // measure 55
1001
0000
0000
0000
;

//---------------dance-single - hooky----------------
#NOTEDATA:;
#CHARTNAME:Basic;
#STEPSTYPE:dance-single;
#DESCRIPTION:hooky;
#CHARTSTYLE:;
#DIFFICULTY:Easy;
#METER:3;
#RADARVALUES:0.211,0.299,0.099,0.277,0.000,111.000,10.000,28.000,0.000,0.000,0.000,0.000,0.000,0.211,0.299,0.099,0.277,0.000,111.000,10.000,28.000,0.000,0.000,0.000,0.000,0.000;
#CREDIT:hooky;
#OFFSET:0.945;
#BPMS:0.000=133.992
;
#STOPS:;
#DELAYS:;
#WARPS:;
#TIMESIGNATURES:0.000=4=4
;
#TICKCOUNTS:0.000=4
;
#COMBOS:0.000=1
;
#SPEEDS:0.000=1.000=0.000=0
;
#SCROLLS:0.000=1.000
;
#FAKES:;
#LABELS:0.000=Song Start
;
#ATTACKS:;
#DISPLAYBPM:134.000;
#NOTES:
0000
0000
0000
0000
,
0000
0000
0000
0000
,
0000
0000
0000
0000
,
0000
0000
0000
0000
,
0000
0000
0000
0000
,
1000
0000
0001
0000
,
1000
0000
0001
0000
,
0100
0000
0010
0000
,
0100
0000
0010
0000
,
1100
0000
0010
0000
,
0101
0000
0010
0000
,
1000
0000
1000
0000
,
0002
0000
0000
0003
,
0200
0000
0010
0300
,
0020
0000
0100
0030
,
1000
1000
0001
0000
,
0001
1000
1000
0000
,
0200
0000
0000
0300
,
0020
0000
0000
0030
,
1000
0000
2002
3003
,
0220
0330
2002
3003
,
1000
1000
0010
0000
,
0100
0100
0001
0000
,
2000
0000
0100
3000
,
0002
0000
0100
0003
,
0001
0001
0010
0000
,
0100
0100
1000
0000
,
0020
0000
0000
0030
,
0200
0000
0000
0300
,
0100
0000
0100
0000
,
0100
0000
0100
0000
,
0001
0000
0001
0000
,
0001
0000
0001
0000
,
1001
0200
0010
0300
,
0002
0000
1000
0003
,
0100
0100
0220
0330
,
1001
0000
0010
0000
,
0010
0010
0100
0000
,
0001
0001
1000
0000
,
0020
0000
0100
0030
,
0200
0000
0010
0300
,
0100
0100
0001
0000
,
0010
0010
0001
0000
,
2000
0000
0001
3000
,
0002
0000
1000
0003
,
0010
0000
0010
0000
,
0100
0000
0100
0000
,
0001
0000
0001
0000
,
1000
0000
1000
0010
,
0110
2000
0010
3000
,
0002
0000
0100
0003
,
0010
0010
1000
0000
,
0200
0000
1000
0300
,
0020
0000
0100
0030
,
0200
0000
0010
0300
,
1001
0000
0000
0000
;

//---------------dance-single - hooky----------------
#NOTEDATA:;
#CHARTNAME:Difficult;
#STEPSTYPE:dance-single;
#DESCRIPTION:hooky;
#CHARTSTYLE:;
#DIFFICULTY:Medium;
#METER:5;
#RADARVALUES:0.319,0.329,0.059,0.148,0.045,205.000,6.000,15.000,0.000,0.000,0.000,0.000,0.000,0.319,0.329,0.059,0.148,0.045,205.000,6.000,15.000,0.000,0.000,0.000,0.000,0.000;
#CREDIT:hooky;
#OFFSET:0.945;
#BPMS:0.000=133.992
;
#STOPS:;
#DELAYS:;
#WARPS:;
#TIMESIGNATURES:0.000=4=4
;
#TICKCOUNTS:0.000=4
;
#COMBOS:0.000=1
;
#SPEEDS:0.000=1.000=0.000=0
;
#SCROLLS:0.000=1.000
;
#FAKES:;
#LABELS:0.000=Song Start
;
#ATTACKS:;
#DISPLAYBPM:134.000;
#NOTES:
0000
0000
0000
0000
,
0000
0000
0000
0000
,
0000
0000
0000
0000
,
0000
0000
0000
0000
,
0000
0000
0000
0000
,
1000
0100
1000
0100
,
1000
0000
0000
0100
0000
0000
1000
0000
0100
0000
0000
0000
,
0010
0001
0010
0001
,
0010
0000
0000
0001
0000
0000
0010
0000
0001
0000
0000
0000
,
0100
0010
0100
0010
,
0100
0010
1000
1001
,
0000
0001
0100
0010
,
2000
0002
0000
3003
,
1000
0010
0100
0100
,
0001
0010
0001
0001
,
0100
0100
0010
0010
,
1000
0100
1000
1000
,
0020
0100
0100
0130
,
0200
0010
0010
0310
,
0002
0100
1000
1000
,
0100
0013
1001
0110
,
0100
0100
0010
1000
,
0010
1000
0001
1000
,
0010
0010
0100
0100
,
0001
0010
0002
1003
,
1000
1000
0010
0100
,
0001
0001
1000
0010
,
0100
0100
1000
1000
,
0010
1000
0200
0301
,
1000
1000
0010
0010
,
1000
0000
0000
1000
0000
0000
0010
0000
0100
0010
0000
0000
,
0100
0100
0001
0001
,
0100
0000
0000
0100
0000
0100
0001
0000
0001
1000
0000
0000
,
1001
0110
0100
0010
,
1000
0100
1000
0010
,
0100
0001
0010
0001
,
0100
0010
1000
0100
,
1000
1000
0010
0100
,
0001
0010
0001
0100
,
0020
1000
1000
1030
,
0002
0100
0100
0103
,
0100
0010
1000
0100
,
1000
0010
0100
0001
,
0020
0001
0001
0031
,
0200
0010
0010
0310
,
1000
0010
1000
0010
,
1000
0000
0000
0010
0000
0000
1000
0000
0010
1000
0000
0000
,
0100
0001
0100
0001
,
0100
0000
0000
0001
0000
0100
0001
0000
0001
0100
0000
0000
,
0010
0010
0100
0100
,
0001
1000
0010
0010
,
0100
0100
0001
0001
,
1000
0100
1000
0010
,
1000
1000
0001
0001
,
0200
0000
0000
0010
0300
0000
2000
0000
0000
3100
0000
0000
,
2002
0000
0000
3003
0000
0100
0000
0000
0000
0000
0000
0000
;

//---------------dance-single - hooky----------------
#NOTEDATA:;
#CHARTNAME:Expert;
#STEPSTYPE:dance-single;
#DESCRIPTION:hooky;
#CHARTSTYLE:;
#DIFFICULTY:Hard;
#METER:8;
#RADARVALUES:0.537,0.548,0.376,0.079,0.712,334.000,38.000,8.000,0.000,0.000,0.000,0.000,0.000,0.537,0.548,0.376,0.079,0.712,334.000,38.000,8.000,0.000,0.000,0.000,0.000,0.000;
#CREDIT:hooky;
#OFFSET:0.945;
#BPMS:0.000=133.992
;
#STOPS:;
#DELAYS:;
#WARPS:;
#TIMESIGNATURES:0.000=4=4
;
#TICKCOUNTS:0.000=4
;
#COMBOS:0.000=1
;
#SPEEDS:0.000=1.000=0.000=0
;
#SCROLLS:0.000=1.000
;
#FAKES:;
#LABELS:0.000=Song Start
;
#ATTACKS:;
#DISPLAYBPM:134.000;
#NOTES:
0000
0000
0000
0000
,
0000
0000
0000
0000
,
0000
0000
0000
0000
,
0000
0000
0000
0000
,
0000
0000
0000
0000
,
1100
0000
1000
0100
0000
0100
1000
0000
1000
0100
0000
0010
,
0001
0000
0100
0010
0000
0100
0010
0100
0010
0100
0000
0000
,
0110
0000
0010
0100
0000
0100
0010
0000
1000
0100
0000
0010
,
0001
0000
0100
0010
0000
0100
0010
0100
0010
0100
0000
0000
,
0011
0000
0001
0010
0000
0010
0001
0000
0001
0010
0000
0100
,
1000
0000
0010
0100
0000
0010
0100
0010
0100
0010
0000
0000
,
0110
0000
0100
0010
0000
0010
0100
0000
0001
0010
0000
0100
,
1000
0000
0010
0100
0000
0010
0000
0000
0100
0100
0000
0000
,
1010
0000
0100
0010
0000
0010
0000
0000
1000
0100
0000
0010
,
0011
0000
0010
0100
0000
0100
0000
0000
0010
0100
0000
0010
,
0110
0000
0001
1000
0000
1000
1100
0000
0000
1100
0000
0000
,
0001
0000
0010
0011
0000
0000
0011
0000
1000
0100
0000
0100
,
2100
0100
0100
3100
,
0012
0000
0000
0010
0000
0000
0010
0000
0010
0103
0000
0000
,
1000
0000
0100
1000
0000
1000
0001
0000
0001
0100
0000
0100
,
0010
0100
0010
0100
0010
0100
0010
0100
0010
0110
0000
0000
,
1100
0000
0100
1000
0000
1000
0100
0000
0100
1000
0000
1000
,
0100
0000
0010
0001
0000
0100
0010
0000
0100
0000
0000
0100
,
0000
0000
0010
0100
0000
0000
0100
0010
0100
0010
0000
0000
,
1000
0000
1000
1100
0000
0000
0001
0000
0001
0011
0000
0000
,
0011
0000
0010
0001
0000
0001
0010
0000
0010
0001
0000
0001
,
0010
0000
0100
1000
0000
0010
0100
0000
0010
0000
0000
0010
,
0000
0000
0100
0010
0000
0000
0010
0100
0010
0100
0000
0000
,
0001
0000
0001
0011
0000
0000
1000
0000
1000
1100
0000
0000
,
0200
0010
1000
0010
,
1000
0000
0000
0010
0000
0000
1300
0000
0010
1000
0000
0000
,
0020
0100
0001
0100
,
0001
0000
0000
0130
0000
0001
0100
0000
0100
0001
0000
0000
,
1100
0000
0000
1001
0000
0001
1000
0000
0000
0100
0000
0010
,
0100
0000
0000
1000
0000
1000
0100
1000
0100
1000
0000
0000
,
0011
0000
1000
0100
0000
1000
0001
0000
0100
0010
0000
0100
,
0010
0000
0000
0001
0000
0001
0010
0001
0010
0001
0000
0000
,
0011
0000
0010
0001
0000
0001
0010
0000
0010
0001
0000
0001
,
0010
0000
0100
1000
0000
0010
0100
0000
0010
0000
0000
0010
,
0000
0000
0100
0010
0000
0000
0010
0100
0010
0100
0000
0000
,
0001
0000
0001
0011
0000
0000
1000
0000
1000
1100
0000
0000
,
1100
0000
0100
1000
0000
1000
0100
0000
0100
1000
0000
1000
,
0100
0000
0010
0001
0000
0100
0010
0000
0100
0000
0000
0100
,
0000
0000
0010
0100
0000
0000
0100
0010
0100
0010
0000
0000
,
1000
0000
1000
1100
0000
0000
0001
0000
0001
0011
0000
0000
,
0020
0100
0001
0100
,
0001
0000
0000
0100
0000
0000
0031
0000
0100
0001
0000
0000
,
0200
0010
1000
0010
,
1000
0000
0000
0310
0000
1000
0010
0000
0010
1000
0000
0000
,
0011
0000
0000
1001
0000
1000
0001
0000
0000
0010
0000
0100
,
0010
0000
0000
0001
0000
0001
0010
0001
0010
0001
0000
0000
,
1100
0000
0001
0010
0000
0001
1000
0000
0010
0100
0000
0010
,
0100
0000
0000
1000
0000
1000
0100
1000
0100
1000
0000
0000
,
0110
0000
0000
1001
0000
0100
0010
0100
0010
0100
0000
0000
,
0011
0000
0000
1100
0000
1000
0001
1000
0001
1000
0000
0000
,
0220
0000
0000
0330
0000
1001
0000
0000
0000
0000
0000
0000
;
