#TITLE:Pop Music Zoku Ron;
#SUBTITLE:;
#ARTIST:GIRAGIRA MEGANE GAKUDAN feat. Maki;
#TITLETRANSLIT:;
#SUBTITLETRANSLIT:;
#ARTISTTRANSLIT:;
#CREDIT:;
#BANNER:;
#BACKGROUND:;
#LYRICSPATH:;
#CDTITLE:;
#MUSIC:Pop Music Zoku Ron.mp3;
#OFFSET:-6.630;
#SAMPLESTART:58.940;
#SAMPLELENGTH:10.540;
#SELECTABLE:YES;
#BPMS:0.000=182.000;
#STOPS:;
#BGCHANGES:;

//---------------dance-single - ----------------
#NOTES:
     dance-single:
     :
     Hard:
     8:
     0.595,0.592,0.244,0.351,0.707: // measure 1
1000
0100
0001
0100
,  // measure 2
1000
0000
0000
0010
0000
0000
0100
0000
0000
0001
0000
1000
,  // measure 3
0001
0010
0100
0001
,  // measure 4
0100
0000
0000
1000
0000
0000
0010
0000
0100
0010
0000
0000
,  // measure 5
2001
0000
0001
0000
0000
0000
3010
0000
0020
0000
0000
0000
,  // measure 6
0130
0000
0200
0000
0000
0000
0301
0000
0002
0000
0000
0000
,  // measure 7
1003
0000
1000
0200
0000
0000
0301
0000
0001
0200
0000
0000
,  // measure 8
0310
0000
0001
2000
0000
0000
3010
0000
0000
1001
0000
0000
,  // measure 9
0220
0000
0000
0330
0000
0000
0001
0000
0100
0001
0000
0200
,  // measure 10
0000
0000
0000
0300
0000
0000
0010
0000
0010
1000
0000
1000
,  // measure 11
0200
0300
0022
0033
,  // measure 12
1002
0000
0000
0000
0000
0100
0000
0000
0000
1003
0000
0000
,  // measure 13
1000
0000
0000
0010
0000
0000
0100
0000
0000
0001
0000
0100
,  // measure 14
0001
0000
0000
0100
0000
0000
0010
0000
1000
0001
0000
0000
,  // measure 15
0010
0000
0001
0010
0000
0000
0100
0000
1000
0100
0000
0000
,  // measure 16
1000
0000
1000
0001
0000
0001
1000
0000
1000
0100
0010
0001
,  // measure 17
1000
0000
0000
0001
0000
0000
0100
0000
0000
1000
0000
0100
,  // measure 18
0001
0000
0000
1000
0000
0000
0100
0000
0010
0100
0000
0010
,  // measure 19
0001
0000
0000
0100
0000
0010
1000
0000
0000
0100
0000
0000
,  // measure 20
0001
0000
0000
0100
0000
0000
1000
0000
0001
0100
0000
0010
,  // measure 21
2000
0000
0000
0000
0000
0000
3000
0000
0001
0010
0000
0200
,  // measure 22
0000
0000
0000
0000
0000
0000
0300
0000
0010
0001
0000
1000
,  // measure 23
0200
0300
0022
0033
,  // measure 24
2002
0000
0000
3003
0000
0220
0000
0000
0000
0330
0000
0000
,  // measure 25
0001
0010
1000
0001
,  // measure 26
0100
0000
0000
1000
0000
0001
0000
0000
1000
0001
0000
0000
,  // measure 27
1000
0010
0001
1000
,  // measure 28
0100
0000
0000
0001
0000
1000
0000
0000
0001
1000
0000
0000
,  // measure 29
0010
1000
0100
0010
,  // measure 30
0001
0000
0000
1000
0000
0010
0000
0000
0100
0001
0000
0000
,  // measure 31
1000
0000
0100
1000
0000
0000
0001
0000
0000
0010
0000
0000
,  // measure 32
0100
0000
0000
0010
0000
0001
0000
0000
0010
0001
0000
0000
,  // measure 33
1000
0000
0010
0100
0000
0000
0001
0000
0000
1000
0000
0000
,  // measure 34
0001
0000
0000
0010
0000
0100
0000
0000
0010
0100
0000
0010
,  // measure 35
0001
0000
0000
1000
0000
0010
0000
0000
0100
0001
0000
0000
,  // measure 36
1000
0000
0000
0100
0000
1000
0000
0000
0001
0010
0000
0000
,  // measure 37
0100
0000
0100
0010
0000
0010
0100
0000
0000
1001
0000
0000
,  // measure 38
0100
0000
0100
0010
0000
0010
0100
0000
0000
1001
0000
0000
,  // measure 39
0110
0000
0000
1001
0000
0000
0001
0000
1000
0001
0000
0000
,  // measure 40
1000
0000
0100
0010
0000
0001
1000
0000
0000
1001
0000
0000
,  // measure 41
0002
0000
0010
0000
0000
0010
0000
0000
0100
0000
0000
0100
,  // measure 42
0000
0000
1000
0000
0000
1003
0000
0000
1000
0100
0000
0100
,  // measure 43
2000
0000
0010
0000
0000
0010
0000
0000
0001
0000
0000
0001
,  // measure 44
0000
0000
0100
0000
0000
3100
0000
0000
0100
1000
0000
0001
,  // measure 45
0100
0000
0000
0010
0000
0000
0100
0000
0010
0100
0000
0000
,  // measure 46
0001
0000
0000
1000
0000
0000
0001
0000
1000
0001
0000
0000
,  // measure 47
1000
0000
0100
0001
0000
0000
0001
0000
0100
1000
0000
0000
,  // measure 48
0001
0010
0001
0010
0000
0000
0100
1000
0100
1000
0000
0000
,  // measure 49
0120
0000
0100
0000
0000
0001
0000
0000
1000
0000
0000
0001
,  // measure 50
0000
0000
1000
0000
0000
0130
0000
0000
0100
0010
0000
0010
,  // measure 51
0200
0000
0010
0000
0000
0001
0000
0000
0010
0000
0000
0310
,  // measure 52
0100
0010
0100
0010
0000
0000
1000
0001
1000
0001
0000
0000
,  // measure 53
2002
0000
0000
0003
0000
0000
3200
0000
0000
0300
0000
0100
,  // measure 54
0020
0000
0000
0000
0000
0000
0032
0000
0000
0003
0000
0001
,  // measure 55
0100
1000
0100
0001
,  // measure 56
1000
0000
0000
0001
0000
1000
0000
0000
1000
0100
0000
0000
,  // measure 57
0020
0000
0000
0001
0000
0000
0001
0000
0000
0031
0000
0001
,  // measure 58
0200
0000
0000
0010
0000
0000
0310
0000
0100
0010
0000
0010
,  // measure 59
1000
0000
0000
0000
0000
1001
0000
0000
0000
2002
0000
0000
,  // measure 60
0000
0000
0000
3003
0000
0000
0001
1000
0001
1000
0000
0000
,  // measure 61
0001
0000
0010
0001
0000
0010
0000
0000
0011
0000
0000
0001
,  // measure 62
0100
0000
0000
0010
0000
1000
0000
0000
1000
0100
0000
0000
,  // measure 63
0010
0000
0010
0001
0000
0001
0100
0000
0100
0010
0000
0010
,  // measure 64
1000
0000
1000
0001
1000
0001
0000
0000
1000
0000
0100
0000
,  // measure 65
0010
0000
0100
0010
0000
0100
0000
0000
0110
0000
0000
0010
,  // measure 66
0001
0000
0000
1000
0000
0010
0000
0000
1000
0010
0000
0000
,  // measure 67
0101
0000
0000
0001
0100
0001
0100
0000
0000
0010
1000
0010
,  // measure 68
1000
0000
1000
0100
0000
0010
0001
0000
0000
1001
0000
0000
,  // measure 69
1000
0000
1000
0010
0000
0010
1000
0000
0000
1001
0000
0000
,  // measure 70
0001
0000
0001
0010
0000
0010
0001
0000
0000
1001
0000
0000
,  // measure 71
0110
0000
0000
1001
0000
0000
0010
0100
0010
0100
0000
0000
,  // measure 72
0001
1000
0001
1000
0001
1000
0001
0000
0000
0000
0000
0000
;

//---------------dance-single - ----------------
#NOTES:
     dance-single:
     :
     Medium:
     6:
     0.471,0.523,0.205,0.380,0.263: // measure 1
1000
0100
1000
0100
,  // measure 2
0010
0000
0000
0001
0000
0000
0010
0000
0000
0001
0000
0001
,  // measure 3
0000
1000
0001
0100
,  // measure 4
0010
0100
0010
0100
,  // measure 5
0001
0000
0002
0000
0000
0000
1003
0000
2000
0000
0000
0000
,  // measure 6
3100
0000
0200
0000
0000
0000
0310
0000
0020
0000
0000
0000
,  // measure 7
0031
0000
0002
0000
0000
0000
0103
0000
0200
0000
0000
0000
,  // measure 8
0310
0000
0020
0000
0000
0000
1030
0000
1001
0000
0000
0000
,  // measure 9
0220
0000
0000
0000
0000
0000
0030
0000
0000
0001
0000
0002
,  // measure 10
0000
0000
0303
1000
,  // measure 11
0200
0300
0020
0030
,  // measure 12
2002
0000
0000
3003
,  // measure 13
0001
0000
0000
0100
0000
0000
0001
0000
0000
0100
0000
0001
,  // measure 14
0000
0000
0000
1000
0000
0000
0010
0000
0000
1000
0000
0010
,  // measure 15
1000
0000
0000
0001
0000
1000
0000
0000
0000
0001
0000
0000
,  // measure 16
2002
0000
0000
3003
,  // measure 17
1000
0010
0100
0010
,  // measure 18
0001
0010
0100
0001
,  // measure 19
1000
0000
0000
0100
0000
0000
0010
0000
0100
0010
0000
0000
,  // measure 20
0001
0100
0010
1000
,  // measure 21
2002
0000
0000
3003
,  // measure 22
0220
0000
0000
0330
,  // measure 23
0010
1000
0100
0010
,  // measure 24
0220
0000
0000
0330
0000
2002
0000
0000
0000
3003
0000
0000
,  // measure 25
1000
0100
1000
0100
,  // measure 26
1000
0000
0000
0002
0000
2000
0000
0000
0000
3003
0000
0000
,  // measure 27
0001
0010
0001
0100
,  // measure 28
0001
0000
0000
2000
0000
0002
0000
0000
0000
3003
0000
0000
,  // measure 29
1000
0100
0001
0100
,  // measure 30
1000
0000
0000
0001
0000
1000
0000
0000
0000
1001
0000
0000
,  // measure 31
1001
0001
0100
1000
,  // measure 32
0100
0000
0000
0001
0000
0100
0000
0000
0100
0001
0000
0000
,  // measure 33
1000
0100
0010
0001
,  // measure 34
1000
0000
0000
0010
0000
0100
0000
0000
0100
0010
0000
0000
,  // measure 35
1000
0000
0000
0000
0000
0001
0000
0000
1000
0001
0000
0000
,  // measure 36
0100
0000
0000
0000
0000
0010
0000
0000
0100
0010
0000
0000
,  // measure 37
1000
0000
0000
0001
0000
1000
0001
0000
0000
1000
0000
0000
,  // measure 38
0010
0000
0000
0100
0000
0010
0100
0000
0000
0010
0000
0000
,  // measure 39
1001
0000
0000
1001
0000
0000
1000
0000
0001
1000
0000
0000
,  // measure 40
0001
0000
1000
0001
0000
2000
0002
0000
0000
3003
0000
0000
,  // measure 41
1000
0100
0010
0001
,  // measure 42
0100
1000
0100
0001
,  // measure 43
0010
0100
0010
0001
,  // measure 44
0010
1000
0010
0001
,  // measure 45
1000
0000
0000
0010
0000
1000
0020
0000
0000
0000
0000
0000
,  // measure 46
0130
0000
0000
0001
0000
0100
0002
0000
0000
0000
0000
0000
,  // measure 47
1003
0100
0001
0100
,  // measure 48
1000
0001
1000
1001
,  // measure 49
0001
0100
1000
0100
,  // measure 50
0010
0000
0000
1000
0000
0000
0100
0000
0000
0010
0000
0100
,  // measure 51
0010
0001
0100
0010
,  // measure 52
0001
0010
1000
0100
,  // measure 53
0020
0000
0000
0000
0000
0000
0031
0000
0000
0000
0000
0001
,  // measure 54
2000
0000
0000
0000
0000
0000
3010
0000
0000
0000
0000
0010
,  // measure 55
0200
0001
0310
0000
,  // measure 56
0010
0000
0000
1000
0000
0001
0000
0000
1000
0001
0000
0000
,  // measure 57
0020
0000
0130
1000
,  // measure 58
0002
0000
1003
0001
,  // measure 59
1001
0000
0000
0000
0000
1001
0000
0000
0000
2002
0000
0000
,  // measure 60
0000
0003
0001
3001
,  // measure 61
1000
0000
0000
0010
0000
0100
0000
0000
0100
0000
0000
0100
,  // measure 62
0001
0010
0100
0010
,  // measure 63
0001
0000
1000
0001
0000
0000
1000
0000
0001
1000
0000
0000
,  // measure 64
0001
0100
0010
1000
,  // measure 65
0001
0000
0000
0010
0000
0100
0000
0000
0100
0000
0000
0100
,  // measure 66
1000
0010
0100
0001
,  // measure 67
1000
0000
0010
1000
0000
0000
0001
0000
0100
0001
0000
0000
,  // measure 68
1000
0100
0001
0100
,  // measure 69
1000
0000
0000
0100
0000
1000
0100
0000
0000
1100
0000
0000
,  // measure 70
1001
0000
0000
0001
0000
0100
0001
0000
0000
0101
0000
0000
,  // measure 71
1001
0000
0000
1001
0000
0000
0001
0000
1000
0001
0000
0000
,  // measure 72
1000
0000
1000
0001
0000
0001
1000
0000
0000
0000
0000
0000
;

//---------------dance-single - ----------------
#NOTES:
     dance-single:
     :
     Easy:
     5:
     0.359,0.523,0.234,0.136,0.039: // measure 1
1000
0000
0010
0010
,  // measure 2
0100
0000
0001
1000
,  // measure 3
0001
0000
1000
1000
,  // measure 4
0100
0010
0100
1000
,  // measure 5
1001
0000
0001
0000
,  // measure 6
0100
0000
1000
0000
,  // measure 7
0010
0000
0001
0000
,  // measure 8
1000
0000
0001
1000
,  // measure 9
1001
0000
0001
0100
,  // measure 10
0000
0100
0010
1000
,  // measure 11
0100
0000
0010
0100
,  // measure 12
0010
0000
0001
0000
,  // measure 13
1001
0000
1000
0010
,  // measure 14
1000
0000
0001
0100
,  // measure 15
0001
1000
0001
1000
,  // measure 16
0001
0000
0000
0000
,  // measure 17
1001
0000
0001
0100
,  // measure 18
1000
0000
1000
0100
,  // measure 19
0001
0000
1000
0000
,  // measure 20
0001
0000
0010
0001
,  // measure 21
0200
0000
0000
0000
,  // measure 22
0020
0000
0030
0310
,  // measure 23
0100
0001
1000
0001
,  // measure 24
1001
0000
0000
0000
0000
1001
0000
0000
0000
0000
0000
0000
,  // measure 25
1000
0100
1000
0001
,  // measure 26
0100
0000
0000
0100
0000
0100
0000
0000
0000
0000
0000
0000
,  // measure 27
0001
1000
0001
1000
,  // measure 28
0100
0000
0000
0100
0000
0100
0000
0000
0000
0000
0000
0000
,  // measure 29
0010
0001
0100
0010
,  // measure 30
1000
0100
0010
0100
,  // measure 31
0010
0001
0100
0000
,  // measure 32
0010
1000
0100
0001
,  // measure 33
0100
1000
0010
0000
,  // measure 34
0100
0001
1000
0001
,  // measure 35
0100
0000
0010
0100
,  // measure 36
0001
0000
1000
0001
,  // measure 37
2002
0000
0000
3003
,  // measure 38
0220
0000
0000
0330
,  // measure 39
1001
1001
0001
1000
,  // measure 40
0110
0110
0220
0330
,  // measure 41
0010
0000
0000
1000
0000
0000
0100
0000
0000
1000
0000
0200
,  // measure 42
0000
0000
0310
0001
,  // measure 43
0100
0000
0000
0010
0000
0000
0100
0000
0000
0001
0000
0200
,  // measure 44
0000
0000
0310
1000
,  // measure 45
0001
1000
0100
0000
,  // measure 46
1000
0001
0100
0000
,  // measure 47
0001
0100
0010
1000
,  // measure 48
0100
0010
0001
0100
,  // measure 49
0010
0000
0000
1000
0000
0000
0001
0000
0000
1000
0000
0002
,  // measure 50
0000
0000
1003
0001
,  // measure 51
0010
0000
0000
0100
0000
0000
0010
0000
0000
0001
0000
2000
,  // measure 52
0000
0000
3010
1000
,  // measure 53
1001
0000
0001
0000
,  // measure 54
0100
0000
0010
0000
,  // measure 55
0100
0000
0001
0000
,  // measure 56
1000
0100
0010
0001
,  // measure 57
0100
0000
0010
1000
,  // measure 58
0010
0000
1000
0001
,  // measure 59
1001
0000
0000
0000
0000
1001
0000
0000
0000
2002
0000
0000
,  // measure 60
0000
0003
0001
3001
,  // measure 61
1000
0000
0001
0000
,  // measure 62
0100
0001
0100
0000
,  // measure 63
0010
1000
0100
0001
,  // measure 64
0100
1000
0010
0100
,  // measure 65
0001
0000
0010
0001
,  // measure 66
0100
0000
0010
1000
,  // measure 67
0100
0001
0100
1000
,  // measure 68
0001
1000
0010
0100
,  // measure 69
0010
0010
0010
0110
,  // measure 70
0100
0100
0100
0101
,  // measure 71
1001
1001
0001
1000
,  // measure 72
1001
0110
1001
0000
;

//---------------dance-single - ----------------
#NOTES:
     dance-single:
     :
     Beginner:
     2:
     0.181,0.383,0.214,0.000,0.000: // measure 1
1001
0000
0000
0000
,  // measure 2
0001
0000
0100
0000
,  // measure 3
0001
0000
0000
0000
,  // measure 4
1000
0000
0100
0000
,  // measure 5
1000
0000
1000
0000
,  // measure 6
0001
0000
0001
0000
,  // measure 7
0100
0000
0100
0000
,  // measure 8
0010
0000
0010
0000
,  // measure 9
0110
0000
0000
0000
,  // measure 10
0000
0000
0000
0000
,  // measure 11
0100
0000
0001
0000
,  // measure 12
1000
0000
0000
0000
,  // measure 13
0001
0000
0000
0000
,  // measure 14
1000
0000
0000
0000
,  // measure 15
0001
0000
1000
0000
,  // measure 16
1001
0000
0000
0000
,  // measure 17
0001
0000
0010
0000
,  // measure 18
0001
0000
0000
0000
,  // measure 19
1000
0000
0010
0000
,  // measure 20
1000
0000
0000
0000
,  // measure 21
0110
0000
0000
0000
,  // measure 22
1001
0000
0000
0000
,  // measure 23
0001
0000
1000
0000
,  // measure 24
1001
0000
0000
0000
,  // measure 25
0001
0000
0000
0000
,  // measure 26
0100
0000
0000
0000
,  // measure 27
1000
0000
0100
0000
,  // measure 28
0001
0000
0000
0000
,  // measure 29
1000
0000
0100
0000
,  // measure 30
1000
0000
0100
0000
,  // measure 31
0010
0000
0000
0000
,  // measure 32
0001
0000
1000
0000
,  // measure 33
0010
0000
0000
0000
,  // measure 34
0100
0000
0010
0000
,  // measure 35
0100
0000
0001
0000
,  // measure 36
1000
0000
0001
0000
,  // measure 37
1001
0000
0000
0000
,  // measure 38
0110
0000
0000
0000
,  // measure 39
1001
0000
1001
0000
,  // measure 40
0110
0110
0110
0000
,  // measure 41
0001
0000
1000
0000
,  // measure 42
0100
0000
0000
0000
,  // measure 43
0010
0000
0001
0000
,  // measure 44
0100
0000
0000
0000
,  // measure 45
0010
0000
0000
0000
,  // measure 46
1000
0000
0000
0000
,  // measure 47
0001
0000
1000
0000
,  // measure 48
0001
0000
0100
0000
,  // measure 49
0010
0000
0100
0000
,  // measure 50
0010
0000
0000
0000
,  // measure 51
1000
0000
0001
0000
,  // measure 52
1000
0000
0000
0000
,  // measure 53
0001
0000
0000
0000
,  // measure 54
1000
0000
0000
0000
,  // measure 55
0100
0000
0010
0000
,  // measure 56
0100
0000
1000
0000
,  // measure 57
0001
0000
0000
0000
,  // measure 58
0100
0000
0000
0000
,  // measure 59
0110
0000
0000
0000
,  // measure 60
0000
0000
0000
0000
,  // measure 61
1001
0000
1000
0000
,  // measure 62
0001
0000
0100
0000
,  // measure 63
0010
0000
0000
0000
,  // measure 64
0100
0000
0000
0000
,  // measure 65
0010
0000
0100
0000
,  // measure 66
0001
0000
1000
0000
,  // measure 67
0100
0000
0010
0000
,  // measure 68
0001
0000
1000
0000
,  // measure 69
1001
0000
0000
0000
,  // measure 70
0110
0000
0000
0000
,  // measure 71
1001
0000
1001
0000
,  // measure 72
0110
0110
0110
0000
;
