#TITLE:Mermaid girl a la Francaise;
#SUBTITLE:;
#ARTIST:Oni-91;
#TITLETRANSLIT:;
#SUBTITLETRANSLIT:;
#ARTISTTRANSLIT:;
#CREDIT:;
#BANNER:Mermaid girl a la Francaise.png;
#BACKGROUND:Mermaid girl a la Francaise-bg.png;
#LYRICSPATH:;
#CDTITLE:;
#MUSIC:Mermaid girl a la Francaise.mp3;
#OFFSET:-0.602;
#SAMPLESTART:66.050;
#SAMPLELENGTH:17.220;
#SELECTABLE:YES;
#BPMS:0.000=120.000;
#STOPS:227.750=1.000
;
#BGCHANGES:;

//---------------dance-single - ----------------
#NOTES:
     dance-single:
     :
     Hard:
     7:
     0.484,0.464,0.080,0.377,0.123:
0000
0000
0000
0000
,
0000
0000
0000
0000
,
0000
0000
0000
0000
,
0000
0000
0000
0000
0000
0000
1000
0100
,
0001
0000
0000
0100
0000
0000
1000
0000
0010
0000
1000
0000
0001
0000
0000
0000
,
0010
0001
0100
0001
1000
0100
0010
0000
,
0001
0000
0000
1000
0000
0100
0000
0000
0100
1000
0000
0000
0010
0000
0000
1000
0000
0001
0000
0000
0000
0000
0000
0000
,
0100
0000
0000
0001
0000
0010
0000
0000
0010
0001
0000
0000
0100
0000
0000
0010
0000
0000
1000
0000
0000
0001
0000
0000
,
1001
1000
0100
0001
0100
1000
0010
0000
,
0001
0010
1000
0100
1000
0001
0010
0000
,
0001
0000
0000
1000
0000
0010
0000
0000
0010
1000
0000
0000
0100
0000
0000
1000
0000
0000
0001
0000
0000
0000
0000
0000
,
1000
0100
0001
0010
2000
0000
3001
0100
,
0010
1000
0100
0001
0100
1000
0010
0000
,
0001
0010
1000
0100
0001
0100
1000
0000
,
0001
0000
0000
0100
0000
0010
0000
0000
0010
0100
0000
0000
0001
0000
0000
1000
0000
0000
0100
0000
0000
0000
0000
0000
,
1000
0000
0000
0010
0000
0100
0000
0000
0100
0010
0000
0000
1000
0000
0000
0001
0000
0000
0100
0000
0000
0010
0000
0000
,
0220
0000
0000
0000
0330
0000
0010
1000
,
0002
0000
0203
0000
0320
0000
1030
0100
,
0001
0100
1000
0010
0001
0000
0010
1000
,
0200
0000
0320
0000
0032
0000
0103
0010
,
1000
0100
0001
0100
1000
0000
0010
0100
,
0002
0023
2030
3200
,
0302
0000
2003
3000
1001
0000
1000
0100
,
0002
0000
0203
0000
2300
0000
3010
1000
,
0100
0010
0001
0100
0000
0100
1001
0000
,
0001
0100
1000
0100
0001
0010
1000
0000
,
0010
0001
0100
0010
2000
0000
3010
1000
,
0200
2300
3020
0032
,
0203
0000
0310
0000
1000
0001
0100
0000
,
0001
0010
0100
1000
0001
0100
0010
1000
,
0002
0000
0203
0000
0320
0000
1030
0100
,
0002
0023
0032
0203
,
0320
0000
1000
0000
0130
0010
0100
0001
,
1001
0000
0000
1000
0000
0000
0100
0000
0010
0000
0001
0000
0100
0000
0000
0000
,
0001
0010
1000
0100
1000
0010
0001
0000
,
0100
0000
0000
0010
0000
1000
0000
0000
1000
0001
0000
0000
1000
0000
0000
0100
0000
0000
0001
0000
0000
0000
0000
0000
,
1000
0010
0001
0100
0020
0000
0130
0001
,
1000
0000
0000
0100
0000
0000
0010
0000
0001
0000
0100
0000
0010
0000
0000
0000
,
1000
0100
0001
0010
0001
0100
0010
0000
,
1000
0000
0000
0001
0000
0100
0000
0000
0100
0001
0000
0000
1000
0000
0000
0100
0000
0000
0001
0000
0000
0000
0000
0000
,
0100
0000
0000
1000
0000
0010
0000
0000
0010
1000
0000
0000
0010
0000
0000
1000
0000
0000
0100
0000
0000
0001
0000
0000
,
0101
0001
0100
1000
0010
0100
0001
0000
,
1000
1000
0001
0001
1001
1000
1100
0000
,
0100
0000
0000
0010
0000
0001
0000
0000
0001
0010
0000
0000
0100
0000
0000
1000
0000
0000
0001
0000
0000
0000
0000
0000
,
0100
0100
0010
0010
1000
0001
1001
0000
,
1000
0001
0010
0001
0100
0010
1000
0000
,
0100
1000
0001
0010
0001
0100
0010
0000
,
1000
0000
0000
0001
0000
0100
0000
0000
0100
0010
0000
0000
1000
0000
0000
0100
0000
0000
0010
0000
0000
0000
0000
0000
,
0001
0000
0000
1000
0000
0100
0000
0000
0100
0010
0000
0000
0001
0000
0000
0100
0000
0000
1000
0000
0000
0010
0000
0000
,
0002
0103
2000
3100
,
0001
0100
1000
0010
0002
0000
1003
0000
,
0200
0320
0032
2003
,
3020
0000
0130
0000
0001
0100
0010
0000
,
1000
0100
0010
0100
1000
0010
0100
0010
,
2000
0000
3002
0000
0023
0000
0031
0100
,
0020
2030
3200
0302
,
0023
0100
0100
0130
,
0000
0000
0100
0000
0010
0000
1000
0000
1001
0000
0000
0001
0000
0000
0010
0000
,
0100
1000
0010
0000
1000
0100
0001
0010
,
0001
0000
0000
0100
0000
0000
1000
0000
0000
0000
0000
0000
0010
0000
0000
0100
0000
0001
0000
0000
0001
1000
0000
0000
,
0001
0010
1000
0000
0001
0100
1000
0010
,
0200
0000
0000
0000
0310
0000
1000
0000
0001
0000
0000
0010
0000
0000
0100
0000
,
1000
0010
0100
0000
0001
0010
1000
0100
,
1000
0000
0000
0010
0000
0000
0100
0000
0000
0000
0000
0000
0001
0000
0000
1000
0000
0010
0000
0000
0010
1000
0000
0000
,
0001
0000
0000
0010
0000
0000
1000
0000
0000
0000
0000
0000
0010
0000
0000
0001
0000
0100
0000
0000
0100
0001
0000
0000
,
0100
0001
0010
1000
2002
0000
0000
0000
,
0000
0000
0000
0000
,
0000
0000
3003
0000
;

//---------------dance-single - ----------------
#NOTES:
     dance-single:
     :
     Beginner:
     1:
     0.080,0.095,0.007,0.000,0.000: // measure 1
0000
0000
0000
0000
,  // measure 2
0000
0000
0000
0000
,  // measure 3
0000
0000
0000
0000
,  // measure 4
0000
0000
0000
0000
,  // measure 5
1000
0000
0000
0000
,  // measure 6
0001
0000
0000
0000
,  // measure 7
0100
0000
0000
0000
,  // measure 8
0010
0000
0010
0000
,  // measure 9
0010
0000
0000
0000
,  // measure 10
1000
0000
0000
0000
,  // measure 11
0001
0000
0000
0000
,  // measure 12
0100
0000
0100
0000
,  // measure 13
0100
0000
0000
0000
,  // measure 14
0001
0000
0000
0000
,  // measure 15
0010
0000
0000
0000
,  // measure 16
0100
0000
0100
0000
,  // measure 17
0100
0000
0000
0000
,  // measure 18
1000
0000
0000
0000
,  // measure 19
0010
0000
0000
0000
,  // measure 20
0100
0000
0000
0000
,  // measure 21
0001
0000
0000
0000
,  // measure 22
1000
0000
0000
0000
,  // measure 23
0100
0000
0000
0000
,  // measure 24
0010
0000
0000
0000
,  // measure 25
0001
0000
0000
0000
,  // measure 26
1000
0000
0000
0000
,  // measure 27
0010
0000
0000
0000
,  // measure 28
0100
0000
0100
0000
,  // measure 29
0100
0000
0000
0000
,  // measure 30
0001
0000
0000
0000
,  // measure 31
0010
0000
0000
0000
,  // measure 32
0100
0000
0100
0000
,  // measure 33
0100
0000
0000
0000
,  // measure 34
1000
0000
0000
0000
,  // measure 35
0001
0000
0000
0000
,  // measure 36
0100
0000
0000
0000
,  // measure 37
0010
0000
0010
0000
,  // measure 38
0010
0000
0000
0000
,  // measure 39
1000
0000
0000
0000
,  // measure 40
0001
0000
0000
0000
,  // measure 41
1000
0000
1000
0000
,  // measure 42
1000
0000
0000
0000
,  // measure 43
0100
0000
0100
0000
,  // measure 44
0100
0000
0000
0000
,  // measure 45
0010
0000
0010
0000
,  // measure 46
0010
0000
0000
0000
,  // measure 47
0001
0000
0000
0000
,  // measure 48
1000
0000
0000
0000
,  // measure 49
0100
0000
0100
0000
,  // measure 50
0100
0000
0000
0000
,  // measure 51
0010
0000
0000
0000
,  // measure 52
0001
0000
0001
0000
,  // measure 53
0001
0000
0000
0000
,  // measure 54
1000
0000
0000
0000
,  // measure 55
0010
0000
0000
0000
,  // measure 56
0100
0000
0100
0000
,  // measure 57
0100
0000
0000
0000
,  // measure 58
0000
0000
0001
0000
,  // measure 59
0000
0000
1000
0000
,  // measure 60
0000
0000
0010
0000
,  // measure 61
0000
0000
0100
0000
,  // measure 62
0100
0000
0100
0000
,  // measure 63
0000
0000
0001
0000
,  // measure 64
0000
0000
1000
0000
,  // measure 65
0000
0000
0010
0000
,  // measure 66
0010
0000
1001
0000
;

//---------------dance-single - ----------------
#NOTES:
     dance-single:
     :
     Easy:
     3:
     0.236,0.237,0.022,0.014,0.000: // measure 1
0000
0000
0000
0000
,  // measure 2
0000
0000
0000
0000
,  // measure 3
0000
0000
0000
0000
,  // measure 4
0000
0000
0000
0000
,  // measure 5
1000
0100
0010
0001
,  // measure 6
1000
0010
0100
0001
,  // measure 7
1000
0100
0001
0100
,  // measure 8
1000
0010
0001
0010
,  // measure 9
1000
1000
0001
0001
,  // measure 10
0100
0100
0010
0010
,  // measure 11
1000
1000
0100
0100
,  // measure 12
0010
0001
0100
0000
,  // measure 13
0001
0001
0010
0010
,  // measure 14
1000
1000
0010
0010
,  // measure 15
0001
0001
0100
0100
,  // measure 16
1000
1000
0100
0100
,  // measure 17
1001
0000
0000
1000
,  // measure 18
0001
0100
0010
1000
,  // measure 19
0010
0100
0000
0001
,  // measure 20
0010
0100
1000
0100
,  // measure 21
0010
0001
0000
1000
,  // measure 22
0010
0001
0010
1000
,  // measure 23
0100
0001
0100
1000
,  // measure 24
0010
0100
0001
0010
,  // measure 25
0100
1000
0001
0000
,  // measure 26
1000
0010
0001
0010
,  // measure 27
0000
1000
0100
0000
,  // measure 28
0001
0100
1000
0010
,  // measure 29
0002
0000
0013
0000
,  // measure 30
1000
0100
1000
0001
,  // measure 31
0010
0001
0100
0000
,  // measure 32
0010
1000
0100
0010
,  // measure 33
0001
0001
1000
1000
,  // measure 34
1001
1000
0010
0001
,  // measure 35
0010
1000
0100
0001
,  // measure 36
0100
1000
0010
0100
,  // measure 37
0001
0010
0001
0000
,  // measure 38
0100
0010
1000
0010
,  // measure 39
0100
0001
0010
0100
,  // measure 40
0010
0001
0100
0010
,  // measure 41
1000
0100
1000
0001
,  // measure 42
0010
0010
0001
0001
,  // measure 43
0100
0100
0100
0100
,  // measure 44
0010
0010
1000
1000
,  // measure 45
0001
0001
0001
0001
,  // measure 46
1000
0001
0010
0001
,  // measure 47
0100
0010
1000
0010
,  // measure 48
0100
0001
0010
0100
,  // measure 49
1000
0100
0010
0001
,  // measure 50
0000
1000
0000
0001
,  // measure 51
0000
0100
0000
0010
,  // measure 52
1000
1000
0001
0001
,  // measure 53
0200
0000
0310
0000
,  // measure 54
0000
0100
0000
0010
,  // measure 55
0000
1000
0000
0001
,  // measure 56
0100
0100
0010
0010
,  // measure 57
1000
0100
0010
0001
,  // measure 58
0000
1000
0001
0100
,  // measure 59
0010
0100
0001
0010
,  // measure 60
0100
0010
0001
0100
,  // measure 61
0010
1000
0001
0010
,  // measure 62
0100
0000
1000
0010
,  // measure 63
0100
0010
1000
0100
,  // measure 64
0010
0100
1000
0001
,  // measure 65
0010
0001
0100
0010
,  // measure 66
1000
0001
1001
0000
;

//---------------dance-single - ----------------
#NOTES:
     dance-single:
     :
     Medium:
     5:
     0.381,0.379,0.167,0.232,0.000: // measure 1
0000
0000
0000
0000
,  // measure 2
0000
0000
0000
0000
,  // measure 3
0000
0000
0000
0000
,  // measure 4
0000
0000
0000
0000
,  // measure 5
1000
0000
0010
0000
0100
0001
0100
0000
,  // measure 6
0001
0000
0010
0000
0100
1000
0100
0000
,  // measure 7
0010
0000
0001
0000
1000
0001
1000
0000
,  // measure 8
0100
0000
1000
0000
0010
0100
0010
0100
,  // measure 9
1001
0000
0001
0000
0010
0010
0010
0000
,  // measure 10
0001
0000
0100
0000
0010
0010
0010
0000
,  // measure 11
1000
0000
0100
0000
0001
0001
0001
0000
,  // measure 12
0100
0000
1000
1000
1000
0000
0001
0000
,  // measure 13
1001
0000
1000
0000
0100
0100
0100
0000
,  // measure 14
0010
0000
0001
0000
1000
1000
1000
0000
,  // measure 15
0001
0010
0001
0010
0001
0001
0001
0000
,  // measure 16
1000
0100
1000
0100
1000
1000
1000
0000
,  // measure 17
2002
0000
0000
0000
3003
0000
1000
0010
,  // measure 18
1000
0000
0001
0000
0010
0000
0001
0100
,  // measure 19
0001
0100
0001
0100
0001
0000
1000
0100
,  // measure 20
1000
0000
0010
0000
0100
0000
0001
0010
,  // measure 21
0001
0010
0001
0010
0001
0000
0010
0100
,  // measure 22
2000
3020
0032
0203
,  // measure 23
2300
0000
3002
0000
1003
0000
0001
1000
,  // measure 24
0100
0000
1000
0000
0010
0000
0100
0001
,  // measure 25
0010
0001
0010
0001
1000
0100
1000
0000
,  // measure 26
1001
0000
1000
0000
0010
0100
0010
0000
,  // measure 27
1000
0000
0100
0000
0010
0100
0010
0000
,  // measure 28
0002
0203
0320
2030
,  // measure 29
3002
1003
0200
0310
,  // measure 30
1001
0000
0001
0000
0100
0010
0100
0000
,  // measure 31
0002
0023
0230
1300
,  // measure 32
0020
2030
3200
0302
,  // measure 33
0023
0100
0130
1001
,  // measure 34
0110
0000
0010
0000
0100
0001
0100
0000
,  // measure 35
0001
0000
0010
0000
0100
1000
0100
0000
,  // measure 36
0010
0000
0001
0000
1000
0010
1000
0000
,  // measure 37
0001
0000
0010
0001
0010
0000
0001
0000
,  // measure 38
1001
0000
1000
0000
0001
0100
0010
0000
,  // measure 39
1000
0000
0100
0000
0010
0001
1000
0000
,  // measure 40
0010
0100
0010
0100
0001
0001
0001
0000
,  // measure 41
0010
0100
0010
0100
1000
1000
1000
0000
,  // measure 42
1001
0000
0001
0000
0100
0010
0100
0000
,  // measure 43
0001
0001
0001
0001
1000
1000
1000
0000
,  // measure 44
1001
0000
1000
0000
0100
0010
0100
0000
,  // measure 45
1000
1000
1000
1000
0001
0001
1001
0000
,  // measure 46
0101
0000
0100
0000
0010
1000
0010
0000
,  // measure 47
1000
0000
0100
0000
0010
0001
0010
0000
,  // measure 48
0001
0100
0001
0100
0010
1000
0010
0000
,  // measure 49
1000
0100
1000
0100
0010
0001
0010
0000
,  // measure 50
0000
0011
0000
1100
,  // measure 51
0000
0101
0000
1010
,  // measure 52
0002
0023
0230
2300
,  // measure 53
3002
1000
0000
1003
,  // measure 54
0001
0101
0000
1010
,  // measure 55
0000
1100
0000
0011
,  // measure 56
0002
0203
2300
3020
,  // measure 57
0032
1000
1000
1003
,  // measure 58
0000
1000
0001
1000
1001
0000
1000
0000
,  // measure 59
0010
0100
0001
0000
0010
0000
0100
0000
,  // measure 60
1000
0001
0010
0000
0001
0000
0100
0000
,  // measure 61
0010
1000
0100
0000
0010
0001
1000
0001
,  // measure 62
0100
0001
1001
1000
,  // measure 63
0010
0001
0100
0000
0010
0000
1000
0000
,  // measure 64
0100
1000
0001
0000
0010
0001
0100
0001
,  // measure 65
0010
0010
0010
0000
0001
0100
0010
0100
,  // measure 66
0001
0001
0001
0000
1001
0000
0000
0000
;
