#TITLE:Magical House Cleaning / Blue or Pink;
#SUBTITLE:;
#ARTIST:dj TAKA;
#TITLETRANSLIT:;
#SUBTITLETRANSLIT:;
#ARTISTTRANSLIT:;
#CREDIT:;
#BANNER:Magical House Cleaning Blue or Pink.png;
#BACKGROUND:Magical House Cleaning Blue or Pink-bg.png;
#LYRICSPATH:;
#CDTITLE:Dancemania TRANCE Z.png;
#MUSIC:Magical House Cleaning Blue or Pink.mp3;
#OFFSET:-0.143;
#SAMPLESTART:7.110;
#SAMPLELENGTH:15.000;
#SELECTABLE:YES;
#BPMS:0.000=128.000;
#STOPS:;
#BGCHANGES:;

//---------------dance-single - ----------------
#NOTES:
     dance-single:
     :
     Hard:
     9:
     0.547,0.555,0.170,0.300,0.305: // measure 1
0000
0000
0000
0000
,  // measure 2
0000
0000
0000
0000
,  // measure 3
0000
0000
0000
0000
,  // measure 4
0000
0000
0000
0000
0000
0000
0000
0000
0000
0000
0000
0000
1000
0100
1000
0100
,  // measure 5
1000
0000
0001
0000
0010
0000
0100
0000
2000
0000
0000
0000
3010
0100
0010
0100
,  // measure 6
0010
0000
0100
0000
0010
0000
1000
0000
0002
0000
0000
0000
1003
0100
1000
0100
,  // measure 7
1000
0100
0010
0001
1000
0100
0001
0100
,  // measure 8
1000
0000
0010
0000
0001
0000
0010
0000
1000
0000
0001
0000
1000
0100
1000
0010
,  // measure 9
1000
0000
0001
0000
1000
0000
0001
0000
0020
0000
0000
0000
0031
0010
0001
1000
,  // measure 10
0001
0000
1000
0000
0100
0000
1000
0000
0020
0000
0000
0000
0130
0010
0100
0001
,  // measure 11
0100
0001
1000
0100
0010
0001
0100
1000
,  // measure 12
0100
0000
0000
0001
0000
0000
0010
0000
0000
1000
0000
0000
0010
0000
0001
0000
0010
0000
0001
0000
0000
0000
0000
0000
,  // measure 13
1000
0000
0100
0000
0010
0001
0100
0010
,  // measure 14
1000
0000
0010
0000
0100
0001
1000
0010
,  // measure 15
0100
0000
0001
0000
0001
0100
0010
1000
,  // measure 16
0010
0000
1000
0000
0100
0010
0001
1000
,  // measure 17
0010
0000
0100
0000
0001
0000
1000
0000
0100
0000
1000
0000
0010
0100
0001
0100
,  // measure 18
0001
0001
1000
0100
0010
0000
0001
0100
,  // measure 19
0010
0100
0001
1000
0100
1000
0010
0001
,  // measure 20
0010
0000
0000
1000
0000
0000
0100
0000
0000
0001
0000
0000
0100
0000
1000
0000
0001
0000
0100
0000
0000
0000
0000
0000
,  // measure 21
0202
0303
2020
3030
,  // measure 22
2200
0000
0000
3300
0000
0000
1000
0001
1000
0002
0000
0000
,  // measure 23
0103
0000
0001
0000
1000
0000
0100
0000
0020
0000
0000
0000
0031
0010
0001
1000
,  // measure 24
0001
0000
1000
0000
0001
0000
0100
0000
0002
0000
0000
0000
0103
0010
0100
0001
,  // measure 25
0100
0001
1000
0100
0001
0100
1000
0010
,  // measure 26
0001
0000
0010
0000
0100
0000
0001
0000
2000
0000
0000
0000
3001
0010
0001
1000
,  // measure 27
0001
0000
1000
0000
0001
0000
1000
0000
0020
0000
0000
0000
0130
0010
0100
0001
,  // measure 28
1000
0000
0100
0000
0010
0000
0001
0000
2000
0000
0000
0000
3001
0010
0100
1000
,  // measure 29
0001
0100
0001
0100
0020
0000
2030
0000
,  // measure 30
3001
0000
0000
0100
0000
0000
1000
0000
0000
0100
0000
0000
0001
0000
0010
0000
0100
0000
2000
0000
0000
0000
0000
0000
,  // measure 31
3001
0000
0101
0000
0001
0101
1001
0000
,  // measure 32
1000
0000
1010
0000
1000
1010
1001
0000
,  // measure 33
0100
0000
0110
0000
0100
0110
1001
0000
,  // measure 34
0001
0000
1001
0000
0001
0010
0100
1000
,  // measure 35
0002
0000
0000
0000
0000
0000
0003
0000
1000
0100
0010
0001
,  // measure 36
1000
0000
1000
0001
0000
0001
0100
0000
0100
0010
1000
0100
,  // measure 37
0010
0000
0001
0100
0000
0100
0010
0000
1000
0010
0100
0001
,  // measure 38
1000
0000
0001
1000
0000
1000
0001
0100
1000
0100
0001
0010
,  // measure 39
1000
0000
0000
0000
0010
0000
0000
0000
0001
0000
0000
0000
0100
0000
0000
0000
0010
0000
0000
0000
1000
0000
0000
0000
0001
0000
0000
0000
0000
0000
0000
0000
0000
0000
0000
0000
1000
0000
0000
0100
0000
0000
0010
0000
0000
0001
0000
0000
,  // measure 40
1000
0000
0001
0000
0100
0000
0001
0000
0200
0000
0000
0000
0310
1000
0001
0010
,  // measure 41
0100
0000
0010
0000
0001
0000
1000
0000
0200
0000
0000
0000
1300
0010
0100
0001
,  // measure 42
1000
0100
0010
0001
1000
0100
0001
0100
,  // measure 43
0010
0001
0100
0010
2000
0000
0001
0000
,  // measure 44
0001
3100
0020
0001
,  // measure 45
0031
1000
1001
0000
0001
0010
1000
0010
,  // measure 46
0100
1000
0010
0001
0010
0100
0001
1000
,  // measure 47
0010
0100
0001
1000
0002
0000
0103
0000
,  // measure 48
0020
1030
0200
0310
,  // measure 49
0002
0103
0011
0000
,  // measure 50
0101
0000
2002
0000
,  // measure 51
0000
0000
3003
0000
;

//---------------dance-single - ----------------
#NOTES:
     dance-single:
     :
     Medium:
     7:
     0.427,0.445,0.380,0.150,0.090:
0000
0000
0000
0000
,
0000
0000
0000
0000
,
0000
0000
0000
0000
,
0000
0000
0000
0000
,
0001
0100
0010
0100
0001
0000
1001
0000
,
1000
0010
0100
0010
1000
0000
1001
0000
,
1000
0100
0010
0001
0100
0000
0100
0000
,
0100
0100
0010
0010
1000
1000
1001
0000
,
0001
0100
1000
0100
0001
0000
1000
0010
,
0001
0010
1000
0000
1100
0000
1000
0000
,
0001
1000
0001
0000
1000
0010
0001
1000
,
0100
0000
0000
0001
0000
0000
1000
0000
0000
0000
0000
0000
0100
0000
0010
0000
0100
0000
0010
0000
0000
0000
0000
0000
,
0001
0101
1000
1001
,
1000
0000
1010
0000
0010
0100
0001
1000
,
0100
1100
1000
1001
,
0001
0000
0101
0000
0001
0100
0010
0000
,
1000
0100
0001
0000
0002
0000
0103
1000
,
0100
0000
1000
0000
0020
0000
0130
0100
,
0001
0000
1001
0000
0001
0100
1000
0000
,
0001
0000
0000
0010
0000
0000
0100
0000
0000
1000
0000
0000
0001
0000
1000
0000
0001
0000
1000
0000
0000
0000
0000
0000
,
0002
0003
0200
0300
,
0020
0000
0000
0030
0000
0000
0100
0001
1000
0100
0000
0000
,
1000
0010
0100
0001
2000
0000
3100
0000
,
0010
0001
0100
0010
2000
0000
3001
0000
,
0001
0100
1000
0000
0001
0010
1000
0000
,
1000
0100
0010
0001
2000
0000
3001
0100
,
0010
0000
0010
0100
0001
0000
1000
0100
,
1000
0000
1000
0010
0200
0000
0301
0100
,
0010
1010
1001
1100
,
0002
0000
0000
2003
0000
0000
3010
0100
0010
0100
0000
0000
,
0101
0000
1001
0000
0020
1000
1030
0000
,
1100
0000
0011
0000
0002
0100
0103
0000
,
0101
0000
1001
0000
0020
1000
1030
0000
,
1100
0000
0011
0000
0001
0100
0010
1000
,
0002
0000
0003
0000
,
1000
0000
1000
0100
0000
0100
1000
0000
0000
0000
0000
0000
,
0001
0000
0001
0100
0000
0100
0001
0000
0000
0000
0000
0000
,
1000
0000
1000
0100
0000
0100
0001
0000
0001
0100
0000
0100
,
1000
0000
1000
0010
0000
0010
0100
0000
0000
0001
0000
0000
,
1000
0100
0010
0000
0110
0000
0001
0000
,
0100
0010
1000
0000
1001
0000
1000
0100
,
0010
0001
0100
0010
,
1000
0100
0001
0100
1000
0000
1100
0000
,
1000
0010
0100
0000
0101
0000
1001
0000
,
0001
0100
0010
0000
0010
1000
0010
0000
,
0100
0001
0100
0000
0001
1000
0001
0000
,
1000
0100
1000
0000
1010
0000
1001
0000
,
1100
0011
0101
0011
,
0101
1001
0110
0000
,
1001
0000
0110
0000
;

//---------------dance-single - ----------------
#NOTES:
     dance-single:
     :
     Easy:
     5:
     0.308,0.346,0.120,0.270,0.030:
0000
0000
0000
0000
,
0000
0000
0000
0000
,
0000
0000
0000
0000
,
0000
0000
0000
0000
,
1000
0001
0002
0103
,
0100
0010
2000
3100
,
0010
0000
0001
0000
0100
0010
0100
0000
,
0001
1000
0001
0000
1001
0000
0001
0000
,
0100
0010
0020
1030
,
0100
0100
2000
3001
,
0100
0010
1000
0100
,
0001
0100
2000
3001
,
0100
0100
0100
0100
,
0010
0000
0010
0000
0010
1000
0001
0000
,
1000
1000
1000
1000
,
0001
0000
0001
0000
0100
0010
0100
0000
,
0001
1000
0200
0300
,
1000
0001
0200
0300
,
0001
0000
0001
0000
1000
0100
1000
0000
,
0001
0100
0001
0000
2002
0000
3003
0000
,
0002
0003
0002
0003
,
0002
0003
2000
3000
,
0100
0100
0020
0030
,
0100
0100
2000
3000
,
0001
0100
1000
0100
,
0001
0010
1000
0002
,
0103
0010
2000
3200
,
0300
0010
0200
1300
,
0001
0101
2002
3003
,
2000
3002
0103
0100
,
0001
0001
0001
0001
,
1000
0000
1000
0000
1000
0100
0010
0000
,
0001
0001
0001
0001
,
1000
0000
1000
0000
0010
0100
0001
0000
,
2002
0000
3003
0000
,
0001
0000
0000
1000
0000
1000
0001
0000
0000
0100
0000
0000
,
0010
0000
0000
1000
0000
1000
0010
0000
0000
0100
0000
0000
,
0001
0000
0001
1000
0000
0000
0100
0000
0100
0010
0000
0000
,
0001
0000
0001
0100
0000
0100
0010
0000
0000
0000
0000
0000
,
1000
1000
0002
0103
,
0100
0010
2000
3100
,
0010
0001
0100
1000
,
0100
0001
0010
0010
,
0100
0100
1000
1000
,
0001
0001
0100
0100
,
0100
0100
0010
0010
,
0010
0010
0100
0110
,
0000
1001
0000
1100
,
0000
1010
0101
0000
,
1010
0000
1001
0000
;
