#TITLE:[12th Week] - MAKE IT BUN DEM;
#SUBTITLE:;
#ARTIST:SKRILLEX & Damian "Jr. Gong" Marley;
#TITLETRANSLIT:;
#SUBTITLETRANSLIT:;
#ARTISTTRANSLIT:;
#GENRE:;
#CREDIT:;
#BANNER:MAKE IT BUN DEM-banner.png;
#BACKGROUND:MAKE IT BUN DEM-bg.png;
#LYRICSPATH:;
#CDTITLE:cdtitle.png;
#MUSIC:MAKE IT BUN DEM.mp3;
#OFFSET:-0.020;
#SAMPLESTART:13.700;
#SAMPLELENGTH:12.000;
#SELECTABLE:YES;
#BPMS:0.000=70.000
;
#STOPS:46.000=1.714,
108.000=1.714,
138.000=1.714
;
#BGCHANGES:;
#KEYSOUNDS:;
#ATTACKS:;

//---------------dance-single - Rygon----------------
#NOTES:
     dance-single:
     :
     Hard:
     9:
     0.624,0.604,0.070,0.140,1.000,535.000,9.000,18.000,0.000,0.000,0.000,0.624,0.604,0.070,0.140,1.000,535.000,9.000,18.000,0.000,0.000,0.000:
0000
0000
0000
0000
,
0000
0000
0000
0000
,
0000
0000
0000
0000
,
0000
0000
0000
0000
,
1000
0000
0100
0010
0000
0100
1000
0000
0001
0100
0000
0010
0100
0000
0001
0010
0000
0100
1000
0000
0000
0110
0000
0000
,
1002
0000
0000
0003
0000
1000
0010
0000
0001
0010
0000
1000
0010
0000
0100
0001
0000
0010
0200
0000
0000
2300
0000
0000
,
3001
0000
0100
0010
0000
0100
0001
0000
1000
0100
0000
0010
0100
0000
1000
0010
0000
0100
0001
0000
0000
0110
0000
0000
,
2001
0000
0000
3000
0000
0001
0010
0000
1000
0010
0000
0001
0010
0000
0100
1000
0000
0010
0200
0000
0000
0302
0000
0000
,
1003
0100
0010
0100
0000
1000
0010
0000
0010
0100
0000
0100
0001
0010
0100
0010
0000
0001
1000
0000
1000
0010
0000
0000
,
0210
0000
0000
0300
0000
0001
0100
0000
1000
0100
0000
0001
0010
0000
0100
1000
0000
0010
0100
0000
0000
1001
0000
0000
,
0001
0100
0010
0100
0000
0001
0010
0000
0010
0100
0000
0100
1000
0010
0100
0010
0000
1000
0001
0000
0001
0010
0000
0000
,
0210
0000
0000
0000
0000
0000
0000
0000
0000
0000
0000
0000
0000
0000
0000
0000
0000
0000
0000
0000
0000
0000
0000
0000
0300
0000
0000
0000
0000
0000
0000
0000
0000
0000
0000
0000
0000
0000
0000
0000
1000
0000
0000
0000
0000
0000
0000
0000
0100
0000
0000
0000
0000
0000
0000
0000
0000
0000
0000
0000
0000
0000
0000
0000
0001
0000
0000
0000
0000
0000
0000
0000
0100
0000
0000
0000
0000
0000
0000
0000
0000
0000
0000
0000
0000
0000
0000
0000
1000
0000
0000
0000
0000
0000
0000
0000
0010
0000
0000
1000
0000
0000
0000
0000
0010
0000
0000
0000
0000
0000
0000
0000
1000
0000
0000
0000
0000
0000
0000
0000
0010
0000
0000
0000
0000
0000
0000
0000
1000
0000
0000
0000
0000
0000
0000
0000
0010
0000
0000
0000
0000
0000
0000
0000
0100
0000
0000
0000
0000
0000
0000
0000
0001
0000
0000
0000
0000
0000
0000
0000
0100
0000
0000
0000
0000
0000
0000
0000
0001
0000
0000
0000
0000
0000
0000
0000
0100
0000
0000
0000
0000
0000
0000
0000
0001
0000
0000
0000
0000
0000
0000
0000
,
2000
0000
0000
3000
0000
0000
0100
1000
0100
1000
0100
1000
0001
0010
0001
0010
0000
0000
0100
0010
0100
0010
0000
0000
,
0001
1000
0001
1000
0000
0000
0010
0100
0010
0100
0000
0100
0001
1000
0001
1000
0100
1000
0100
1000
0001
1000
0001
1000
,
0020
0000
0000
0030
0000
0000
0100
0001
0100
0010
0100
0010
1000
0100
0010
0001
0000
0000
1000
0010
0100
0001
0000
0000
,
1000
0100
0010
0001
0000
0000
1000
0010
0100
0001
0000
0001
1000
0100
1000
0100
1000
0100
0010
0001
0010
0001
0010
0001
,
2000
0000
0000
3000
0000
0000
0010
1000
0010
1000
0010
1000
0001
0100
0001
0100
0000
0000
0010
0100
0010
0100
0000
0000
,
0001
1000
0001
1000
0000
0000
0100
0010
0100
0010
0000
0010
0001
1000
0001
1000
0010
1000
0010
1000
0001
1000
0001
1000
,
0200
0000
0000
0300
0000
0000
0010
0001
0010
0100
0010
0100
1000
0010
0100
0001
0000
0000
1000
0100
0010
0001
0000
0000
,
1000
0010
0100
0001
0000
0000
1000
0100
0010
0001
0000
0001
0010
0100
1000
0010
0000
0100
0010
0100
0001
0010
0000
0100
,
1000
0001
0010
0100
0000
0100
0010
0001
1000
0010
0000
0100
0010
1000
0100
0001
0000
0100
1000
0001
0100
1000
0000
0100
,
0010
1000
0100
0010
0000
0001
1000
0000
0000
1001
0000
0000
0001
0010
0100
0010
0000
0001
1000
0010
0100
0001
0000
0000
,
0100
1000
0100
0001
0000
0001
0010
0100
1000
0010
0000
0000
0100
0010
0100
0001
0000
0001
0010
0100
0010
1000
0000
0000
,
0010
0001
0100
0010
0000
0010
1000
0100
0010
0100
0000
0000
1000
0100
0010
0100
0000
0100
1000
0010
0100
0010
0000
0010
,
0100
0001
0010
0100
0000
0100
0010
0001
0100
0010
0000
0010
0100
0001
1000
0100
0000
0100
1000
0001
0100
1000
0000
0100
,
0001
0010
1000
0010
0000
0010
0001
1000
0010
0001
0000
0010
1000
0100
1000
0001
0100
0001
1000
0010
1000
0001
0010
0001
,
1000
0100
0010
0100
1000
0010
0100
0001
0010
0100
0010
0001
1000
0100
0001
0100
1000
0010
0001
1000
0100
0001
0010
0100
,
1000
0000
0000
0001
0000
0000
0000
0000
0100
0000
0000
0000
0000
0000
0000
0000
0001
0000
0000
0000
0000
0000
0000
0000
0100
0000
0000
0000
0000
0000
0000
0000
0001
0000
0000
0000
0000
0000
0000
0000
0100
0000
0000
0000
0000
0000
0000
0000
0010
0000
0000
0000
0000
0000
0000
0000
1000
0000
0000
0000
0000
0000
0000
0000
0010
0000
0000
0000
0000
0000
0000
0000
1000
0000
0000
0000
0000
0000
0000
0000
0010
0000
0000
0000
0000
0000
0000
0000
1000
0000
0000
0000
0000
0000
0000
0000
0002
0000
0000
0000
0000
0000
0000
0000
0000
0000
0000
0000
0000
0000
0000
0000
0000
0000
0000
0000
0000
0000
0000
0000
0003
0000
0000
0000
0000
0000
0000
0000
0000
0000
0000
0000
0000
0000
0000
0000
0000
0000
0000
0000
0000
0000
0000
0000
0010
0000
0000
0000
0000
0000
0000
0000
0001
0000
0000
0000
0000
0000
0000
0000
0010
0000
0000
0000
0000
0000
0000
0000
0001
0000
0000
0000
0000
0000
0000
0000
0010
0000
0000
0000
0000
0000
0000
0000
0001
0000
0000
0000
0000
0000
0000
0000
,
1000
0100
1000
0100
0000
0000
0010
0100
0010
0100
0000
0000
1000
0001
1000
0001
0000
0000
0100
0010
0100
0010
0000
0010
,
1000
0001
1000
0001
0010
0001
0010
0001
1000
0001
1000
0001
0200
0000
0000
0300
0000
0000
0010
1000
0010
0100
0010
0100
,
0001
0010
0100
1000
0000
0000
0001
0100
0010
1000
0000
0000
0001
0010
0100
1000
0000
0000
0001
0100
0010
1000
0000
1000
,
0001
0010
0001
0010
0001
0010
0100
1000
0100
1000
0100
1000
0002
0000
0000
0003
0000
0000
0100
0001
0100
0001
0100
0001
,
1000
0010
1000
0010
0000
0000
0100
0010
0100
0010
0000
0000
1000
0001
1000
0001
0000
0000
0010
0100
0010
0100
0000
0100
,
1000
0001
1000
0001
0100
0001
0100
0001
1000
0001
1000
0001
0020
0000
0000
0030
0000
0000
0100
1000
0100
0010
0100
0010
,
0001
0100
0010
1000
0000
0000
0001
0010
0100
1000
0000
0000
2002
3003
0000
0000
0000
0000
0000
0000
0000
0000
0000
0000
;

//---------------dance-single - Rygon----------------
#NOTES:
     dance-single:
     :
     Medium:
     7:
     0.373,0.336,0.124,0.124,0.288,304.000,16.000,16.000,0.000,0.000,0.000,0.373,0.336,0.124,0.124,0.288,304.000,16.000,16.000,0.000,0.000,0.000:
0000
0000
0000
0000
,
0000
0000
0000
0000
,
0000
0000
0000
0000
,
0000
0000
0000
0000
,
1000
0001
0100
0010
1000
0001
0010
0100
,
1001
0000
0000
0000
0000
0100
0010
0000
0100
0010
0000
0100
0020
0000
0000
0000
0000
0000
2030
0000
0000
0001
0000
0000
,
3001
1000
0100
0010
0001
1000
0010
0100
,
1001
0000
0000
0000
0000
0100
0010
0000
0100
0010
0000
0100
0020
0000
0000
0000
0000
0000
0032
0000
0000
1000
0000
0000
,
1003
0000
0000
0010
0000
0100
0001
0000
0000
1000
0000
0000
0100
0000
0000
0010
0000
0001
1000
0000
0000
0010
0000
0000
,
0110
0000
0000
0000
0000
1000
0001
0000
1000
0001
0000
1000
0002
0000
0000
0000
0000
0000
0023
0000
0000
0100
0000
0000
,
0130
0000
0000
1000
0000
0001
0100
0000
0000
0010
0000
0000
1000
0000
0000
0001
0000
0010
0100
0000
0000
0010
0000
0000
,
0110
0000
0000
0000
0000
0001
1000
0000
0001
1000
0000
0001
1000
0000
0000
0010
0000
0000
0100
0001
0100
0001
0000
0000
,
1002
0000
0000
0000
0000
0000
0013
0000
0000
0010
0000
0000
0001
0000
0001
0100
0000
0000
0010
0000
0010
0100
0000
0000
,
0010
0000
0010
1000
0000
0000
0001
0000
0001
1000
0000
0000
0100
0000
0000
1000
0000
0000
0100
0010
0100
0010
0000
0000
,
2001
0000
0000
0000
0000
0000
3010
0000
0000
0010
0000
0000
1000
0000
1000
0100
0000
0000
0010
0000
0010
0100
0000
0000
,
0010
0000
0010
0001
0000
0000
1000
0000
1000
0001
0000
0000
1000
0000
0000
0100
0000
0000
0010
0001
0010
0001
0000
0000
,
1002
0000
0000
0000
0000
0000
0103
0000
0000
0100
0000
0000
0001
0000
0001
0010
0000
0000
0100
0000
0100
0010
0000
0000
,
0100
0000
0100
1000
0000
0000
0001
0000
0001
1000
0000
0000
0010
0000
0000
1000
0000
0000
0010
0100
0010
0100
0000
0000
,
2001
0000
0000
0000
0000
0000
3100
0000
0000
0100
0000
0000
1000
0000
1000
0010
0000
0000
0100
0000
0100
0010
0000
0000
,
0100
0000
0100
0001
0000
0000
1000
0000
1000
0001
0000
0000
1000
0000
0000
0100
0000
0000
0001
0000
0000
0100
0000
0000
,
1000
0010
0110
0100
0001
0100
1000
0100
,
0001
0010
0110
0100
1000
0010
0100
0001
,
1000
0000
0000
0100
0000
0000
0010
0000
0000
0011
0000
0000
0001
0000
0010
0100
0000
0000
0010
0000
0100
1000
0000
0000
,
0010
0000
1000
0010
0000
0000
0100
0000
0010
0100
0000
0000
0001
0000
0000
1000
0000
0000
0100
0000
0000
0001
0000
0000
,
0100
1000
0001
0100
1000
0100
0001
0010
,
1000
0000
0000
0010
0000
0000
0001
0000
0000
1000
0000
0000
0010
0000
0010
0100
0000
0000
0100
0000
0100
0010
0000
0000
,
1000
0000
1000
0001
0000
0000
0001
0000
0001
1000
0000
0000
0010
0000
0010
1000
0000
1000
0100
0000
0100
0010
0000
0010
,
0001
0000
0000
0100
0000
0000
0010
1000
0010
1000
0000
0000
2001
0000
0000
0000
0000
0000
3100
0000
0000
0100
0000
0000
,
1000
0000
1000
0010
0000
0000
0100
0000
0100
0010
0000
0000
0100
0000
0100
0001
0000
0000
1000
0000
1000
0001
0000
0000
,
0010
0000
0000
0001
0000
0000
0010
0100
0010
0100
0000
0000
1002
0000
0000
0000
0000
0000
0103
0000
0000
0100
0000
0000
,
0001
0000
0001
0010
0000
0000
0100
0000
0100
0010
0000
0000
0100
0000
0100
1000
0000
0000
0001
0000
0001
1000
0000
0000
,
0001
0000
0000
0010
0000
0000
0100
1000
0100
1000
0000
0000
2001
0000
0000
0000
0000
0000
3010
0000
0000
0010
0000
0000
,
1000
0000
1000
0100
0000
0000
0010
0000
0010
0100
0000
0000
0010
0000
0010
0001
0000
0000
1000
0000
1000
0001
0000
0000
,
0100
0000
0000
0001
0000
0000
0100
0010
0100
0010
0000
0000
1002
0000
0000
0000
0000
0000
0013
0000
0000
0010
0000
0000
,
0001
0000
0001
0100
0000
0000
0010
0000
0010
0100
0000
0000
2002
3003
0000
0000
0000
0000
0000
0000
0000
0000
0000
0000
;

//---------------dance-single - Rygon----------------
#NOTES:
     dance-single:
     :
     Easy:
     4:
     0.169,0.161,0.163,0.000,0.000,131.000,21.000,0.000,0.000,0.000,0.000,0.169,0.161,0.163,0.000,0.000,131.000,21.000,0.000,0.000,0.000,0.000:
0000
0000
0000
0000
,
0000
0000
0000
0000
,
0000
0000
0000
0000
,
0000
0000
0000
0000
,
0010
0010
1000
1001
,
0001
0001
0010
0110
,
0100
0100
1000
1010
,
0010
0010
0100
0101
,
0001
0100
1000
1100
,
1000
0100
0001
0101
,
0001
0010
0100
1100
,
1000
0000
0010
0000
0100
0000
0010
0010
,
0010
0010
0100
0001
,
1000
0000
0001
0000
0010
0000
0100
0100
,
0100
1000
0001
1001
,
1000
0000
1001
0000
0010
0000
0100
0100
,
0100
0100
0010
0001
,
1000
0000
0001
0000
0100
0000
0010
0010
,
0010
1000
0001
1001
,
1000
1001
0001
0010
,
0100
1000
0010
0100
,
0110
1001
1000
0100
,
0010
0001
0100
0010
,
0110
1001
1000
0100
,
0001
0100
1000
0010
,
0001
0010
1000
0100
,
0010
0001
0011
0110
,
1100
0000
0010
0010
0010
0000
0010
0000
,
0100
0001
1000
0001
,
0010
0000
0100
0100
0100
0000
1000
0000
,
0001
1001
1000
1001
,
0010
0000
0100
0100
0100
0000
0100
0000
,
0010
0001
1000
0001
,
0100
0000
0010
0010
0010
0000
1000
0000
,
0001
1000
1001
0000
;

//---------------dance-single - Rygon----------------
#NOTES:
     dance-single:
     :
     Beginner:
     1:
     0.047,0.040,0.008,0.000,0.000,41.000,1.000,0.000,0.000,0.000,0.000,0.047,0.040,0.008,0.000,0.000,41.000,1.000,0.000,0.000,0.000,0.000: // measure 0
0000
0000
0000
0000
,  // measure 1
0000
0000
0000
0000
,  // measure 2
0000
0000
0000
0000
,  // measure 3
0000
0000
0000
0000
,  // measure 4
0010
0000
0000
0000
,  // measure 5
1000
0000
0000
0000
,  // measure 6
0100
0000
0000
0000
,  // measure 7
0010
0000
0000
0000
,  // measure 8
0001
0000
0000
0000
,  // measure 9
1000
0000
0000
0000
,  // measure 10
0010
0000
0000
0000
,  // measure 11
0100
0000
0100
0000
,  // measure 12
0100
0000
0100
0000
,  // measure 13
0000
0000
0010
0000
,  // measure 14
0010
0000
0010
0000
,  // measure 15
0000
0000
1000
0000
,  // measure 16
1000
0000
1000
0000
,  // measure 17
0000
0000
0001
0000
,  // measure 18
0001
0000
0001
0000
,  // measure 19
0000
0000
0010
0000
,  // measure 20
0000
0000
0001
0000
,  // measure 21
0000
0000
0100
0000
,  // measure 22
0000
0000
0010
0000
,  // measure 23
0000
0000
1000
0000
,  // measure 24
0000
0000
0001
0000
,  // measure 25
0000
0000
0010
0000
,  // measure 26
0000
0000
0100
0000
,  // measure 27
0100
0000
0100
0000
,  // measure 28
0100
0000
0000
0000
,  // measure 29
0010
0000
0010
0000
,  // measure 30
0010
0000
0000
0000
,  // measure 31
0001
0000
0001
0000
,  // measure 32
0001
0000
0000
0000
,  // measure 33
1000
0000
1000
0000
,  // measure 34
1000
0000
1001
0000
;
