#TITLE:くたばれPTA;
#SUBTITLE:;
#ARTIST:梨本P feat. Gero;
#TITLETRANSLIT:kutabare PTA;
#SUBTITLETRANSLIT:;
#ARTISTTRANSLIT:Nashimoto-P feat. Gero;
#GENRE:FUCK YOU PTA;
#CREDIT:AznPunk07/Frozen_Heat/GuardianFrozen;
#MENUCOLOR:#98434a;
#METERTYPE:DDR;
#BANNER:kutabare PTA-bn.png;
#BACKGROUND:kutabare PTA-bg.png;
#LYRICSPATH:kutabare PTA.lrc;
#CDTITLE:!cdtitle.png;
#MUSIC:kutabare PTA.mp3;
#OFFSET:-0.077;
#SAMPLESTART:42.923;
#SAMPLELENGTH:17.143;
#SELECTABLE:YES;
#LISTSORT:;
#BPMS:0.000=224.000;
#STOPS:;
#BGCHANGES:;
#ATTACKS:;

//---------------dance-single - ----------------
#NOTES:
     dance-single:
     :
     Hard:
     9:
     0.731,0.780,0.736,0.136,0.492:
0000
0000
0000
0000
,
0000
0000
0000
0000
,
0000
0000
0000
0000
,
0000
0000
0000
0000
,
0000
0000
0000
0000
,
0000
0000
0000
0000
,
0000
0000
0000
0000
,
0000
1001
0110
0000
,
0200
0000
0000
0301
2000
0000
0000
3100
,
0020
0000
0000
0031
2000
0000
0000
3010
,
0002
0000
0000
0013
0200
0000
0000
0301
,
2000
3001
0001
0100
,
0002
0000
0000
0103
2000
0000
0000
3100
,
0020
0000
0000
1030
0200
0000
0000
0310
,
0002
0000
0000
0103
0020
0000
0000
1030
,
0100
0100
0100
0100
,
1000
1100
1000
1010
,
0001
0000
0100
0001
0000
0000
1000
0000
0000
0000
0000
0000
,
0001
0000
0000
0011
0000
0000
0001
0000
0000
1001
0000
1000
,
0001
0000
0100
0001
0000
0001
1000
0000
0000
0000
0000
0000
,
0001
0011
0001
0101
,
1001
1100
0010
0000
,
0011
0100
1010
0100
,
1001
0000
1000
0010
0000
0010
0100
0000
0000
0000
0000
0000
,
0010
0000
1000
0010
0000
0000
0100
0000
0001
0100
0000
0000
,
0001
0000
1000
0100
0000
0000
0001
0000
0100
1000
0000
0000
,
1000
0000
0100
1000
0000
0000
0001
0000
0010
0001
0000
0000
,
1000
0000
0010
0001
0000
0000
1000
0000
0001
0010
0000
0000
,
0100
0000
1000
0100
0000
0000
0010
0000
0001
0100
0000
0000
,
0001
0000
0100
0001
0000
0000
1000
0000
0010
0100
0000
0000
,
0010
0000
1000
0001
0000
0000
0010
0000
0001
1000
0000
0000
,
0001
0000
0001
0010
0000
0010
0100
0000
0000
1001
0000
0000
,
0100
0000
0100
0001
0000
0001
0010
0000
,
0110
0000
0100
1000
0000
1000
0010
0000
,
0110
0100
0101
0001
,
1001
0000
1000
0001
0000
0001
1000
0000
,
1001
0000
0001
0010
0000
1000
0010
0000
,
1001
0000
1000
0100
0000
0001
0100
0000
,
1001
0010
0100
1000
,
0001
0000
0100
0000
0010
0000
1000
0000
0000
0000
0000
0000
,
0010
0000
0000
1000
0000
0100
1000
0000
1000
0010
0000
1000
,
0100
0000
0000
0010
0000
0010
0001
0000
0001
0100
0000
0001
,
0010
0000
0000
0100
0000
1000
0100
0000
1000
0001
0000
0000
,
0100
0000
0010
0100
0000
0000
0110
0000
0000
0001
0000
0000
,
1000
0000
0000
0001
0000
0001
1000
0000
0010
1000
0000
1000
,
0001
0000
0000
0010
0000
0001
0010
0000
0001
0100
0000
0100
,
0010
0000
0000
1000
0000
0100
1000
0000
1000
0001
0000
0100
,
0001
0000
0010
0100
0000
0100
1000
0000
0000
1001
0000
0000
,
0010
0000
0000
0001
0000
1000
0001
0000
0001
0100
0000
0010
,
0100
0000
0000
0001
0000
1000
0100
0000
0100
1000
0000
0100
,
0010
0000
0000
0100
0000
1000
0001
0000
0001
1000
0000
0010
,
1000
0000
0010
0100
0000
0010
1000
0000
0000
0001
0000
0000
,
0010
0000
0000
0100
0000
1000
0100
0000
0010
0001
0000
1000
,
0001
0000
0000
0100
0000
0100
0010
0000
1000
0001
0000
0001
,
0100
0000
0000
0010
0000
1000
0001
0000
0010
0001
0000
0000
,
1001
0110
1001
0000
,
0101
1100
0101
1100
,
0101
0000
0000
0000
,
1010
0011
1010
0011
,
1010
0000
0000
0000
,
1001
1100
1001
0101
,
1001
0000
0000
0010
,
0110
0001
1001
0100
,
0110
1000
1001
0010
,
1010
0101
1010
0101
,
1010
0000
0000
0000
,
1100
0011
1100
0011
,
1100
0000
0000
0000
,
0001
0000
0000
0101
0000
0000
0010
0000
,
1000
0000
0000
1100
0000
0000
0010
0000
,
0001
0100
1000
0010
,
2002
0000
0000
0000
,
3003
0000
0000
0000
,
1000
0000
0001
0100
1000
0000
0110
0000
,
0001
0000
1000
0100
0001
0000
0110
0000
,
1000
0000
0001
0100
1000
0000
0110
0000
,
0001
0000
1000
0100
0001
0000
0110
0000
,
1000
0000
0001
0010
1000
0000
0110
0000
,
0001
0000
1000
0010
0001
0000
0110
0000
,
1000
0000
0001
0010
1000
0000
0110
0000
,
0001
0000
1000
0010
0001
0000
0110
0000
,
1010
1001
1100
0010
,
0101
1001
0011
0100
,
0010
0100
0000
0010
0000
0100
0010
0000
,
1001
0110
1001
0010
,
0011
1001
0101
0010
,
1100
1001
1010
0100
,
0001
0010
1000
0100
,
0001
1100
0011
1001
,
1000
0000
0100
1000
0000
0001
0100
0000
0100
0010
0000
1000
,
0010
0000
0000
0100
0000
0100
0001
0000
1000
0001
0000
0001
,
0010
0000
0000
0100
0000
0010
0001
0000
0010
0100
0000
0100
,
1000
0000
0001
1000
0000
1000
0010
0000
0000
0110
0000
0000
,
1000
0000
0000
0001
0000
0001
0100
0000
0010
1000
0000
1000
,
0100
0000
0000
1000
0000
1000
0001
0000
0100
0001
0000
0001
,
1000
0000
0000
0010
0000
1000
0100
0000
0010
0100
0000
0010
,
0001
0000
0000
1000
0000
0000
0000
0000
0000
0000
0001
0000
0100
0000
0000
0000
0000
0000
0110
0000
0000
0000
0000
0000
,
0001
0000
1000
0010
0000
0010
0100
0000
0001
0010
0000
0010
,
0100
0000
0000
1000
0000
0100
1000
0000
0001
1000
0000
0001
,
0100
0101
0010
1010
,
0100
1001
0110
0001
,
0100
0000
0010
1000
0000
0100
1000
0000
0001
0100
0000
0100
,
0001
0000
0001
0010
0000
0001
1000
0000
1000
0100
0000
0100
,
0010
0000
0001
1000
0000
0010
1000
0000
0001
0010
0000
0100
,
1000
0000
0000
0100
0000
0000
0000
0000
0000
0000
0010
0000
0001
0000
0000
0000
0001
0000
0100
0000
0000
0000
0100
0000
,
0010
0000
0000
0000
,
0000
0000
0000
0000
0000
1000
0001
0000
,
1001
0000
0000
0001
0000
0010
0001
0000
0000
1000
0000
0100
,
1000
0000
0000
0001
0000
0100
0001
0000
0000
1000
0000
0010
,
1000
0000
0000
0010
0000
1000
0010
0000
0000
0100
0000
0001
,
0100
0000
0100
0010
0000
0010
1000
0000
0001
1000
0000
1000
,
0100
0000
0000
0010
0000
0001
0010
0000
0000
0100
0000
1000
,
0100
0000
0000
1000
0000
0010
1000
0000
0000
0001
0000
0100
,
0001
0000
0000
0010
0000
0001
0010
0000
0000
0100
0000
1000
,
0100
0010
2002
3003
;

//---------------dance-single - ----------------
#NOTES:
     dance-single:
     :
     Medium:
     8:
     0.569,0.688,0.368,0.048,0.220: // measure 1
0000
0000
0000
0000
,  // measure 2
0000
0000
0000
0000
,  // measure 3
0000
0000
0000
0000
,  // measure 4
0000
0000
0000
0000
,  // measure 5
0000
0000
0000
0000
,  // measure 6
0000
0000
0000
0000
,  // measure 7
0000
0000
0000
0000
,  // measure 8
0000
0001
1001
0000
,  // measure 9
1000
0000
0000
1000
0100
0000
0000
0100
,  // measure 10
0010
0000
0000
0010
0001
0000
0000
0001
,  // measure 11
0100
0000
0000
0100
0010
0000
0000
0010
,  // measure 12
1000
0100
1000
0010
,  // measure 13
0100
0000
0000
0100
0001
0000
0000
0001
,  // measure 14
1000
0000
0000
1000
0100
0000
0000
0100
,  // measure 15
0010
0000
0000
0010
0001
0000
0000
0001
,  // measure 16
0010
0000
0010
0001
0000
0001
1000
0000
,  // measure 17
0010
0010
0100
0100
,  // measure 18
0010
1010
0110
0000
,  // measure 19
1000
1000
0010
0100
,  // measure 20
0001
0011
1001
0000
,  // measure 21
0100
0100
1000
1000
,  // measure 22
0001
1001
1010
0000
,  // measure 23
0001
0001
0010
0101
,  // measure 24
0010
1100
1001
0000
,  // measure 25
0001
0010
0100
0010
,  // measure 26
1001
0101
1001
0000
,  // measure 27
0010
0010
0100
0100
,  // measure 28
1010
0110
0101
0000
,  // measure 29
1000
0100
0001
0100
,  // measure 30
1100
0110
0011
0000
,  // measure 31
0100
0010
0001
0010
,  // measure 32
0101
0110
1010
0100
,  // measure 33
0001
0000
1000
0100
0000
0100
1000
0000
,  // measure 34
0001
0000
1000
0010
0000
0010
1000
0000
,  // measure 35
0001
0000
0100
0001
0010
0000
0100
0010
,  // measure 36
0001
0000
0001
0100
0000
0100
0010
0000
,  // measure 37
1000
0000
0001
0010
0000
0010
0001
0000
,  // measure 38
1000
0000
0001
0100
0000
0100
0001
0000
,  // measure 39
1001
0010
1001
0100
,  // measure 40
0100
0000
0010
0000
0100
0000
0010
0000
0000
0000
0000
0000
,  // measure 41
1000
0000
0000
0100
0000
0000
0010
0000
0010
0001
0000
0001
,  // measure 42
0100
0000
0000
0010
0000
0000
1000
0000
1000
0010
0000
0010
,  // measure 43
0100
0000
0000
0001
0000
0000
0010
0000
0010
0001
0000
0000
,  // measure 44
0100
0000
0100
0010
0000
0010
1000
0000
0000
0000
0000
0000
,  // measure 45
0010
0000
0000
1000
0000
0000
0001
0000
0010
0100
0000
0100
,  // measure 46
1000
0000
0000
0001
0000
0000
1000
0000
0010
0100
0000
0100
,  // measure 47
0001
0000
0000
0100
0000
0000
0010
0000
1000
0010
0000
0000
,  // measure 48
0100
0000
0100
0001
0000
0001
1000
0000
0000
0000
0000
0000
,  // measure 49
1000
0000
0000
0100
0000
0000
0010
0000
0001
0010
0000
0001
,  // measure 50
0100
0000
0000
0010
0000
0000
1000
0000
0100
1000
0000
0100
,  // measure 51
0010
0000
0000
0001
0000
0100
0010
0000
0100
0001
0000
0000
,  // measure 52
1000
1010
1001
0000
,  // measure 53
0001
0000
0000
0010
0000
0000
0100
0000
1000
0100
0000
1000
,  // measure 54
0010
0000
0000
0100
0000
0000
0001
0000
0010
0001
0000
0010
,  // measure 55
0100
0000
0000
1000
0000
0010
0100
0000
0010
1000
0000
0000
,  // measure 56
0001
0101
1001
0000
,  // measure 57
0000
0000
0000
0000
,  // measure 58
1000
0000
0001
0000
0100
0010
0100
0010
,  // measure 59
0000
0000
0000
0000
,  // measure 60
0001
0000
1000
0000
0100
0010
0000
0010
,  // measure 61
0000
0000
0000
0000
,  // measure 62
0100
0000
0010
0001
1000
0000
0001
0000
,  // measure 63
0010
0010
0100
0100
,  // measure 64
1000
1000
0001
0001
,  // measure 65
0000
0000
0000
0000
,  // measure 66
0010
0000
0001
0000
1000
0010
0000
0100
,  // measure 67
0000
0000
0000
0000
,  // measure 68
0001
1000
0000
1001
0000
1000
0001
0000
,  // measure 69
1000
0100
0000
1100
0000
0100
1000
0000
,  // measure 70
0001
0100
0000
0101
0000
0100
0001
0000
,  // measure 71
1000
0100
0010
0001
,  // measure 72
2002
0000
0000
0000
,  // measure 73
0000
0000
0000
3003
,  // measure 74
1000
0100
0010
0000
,  // measure 75
0100
0010
0001
0000
,  // measure 76
1000
0100
0010
0001
,  // measure 77
0100
0010
1000
0000
,  // measure 78
0001
0100
0010
0000
,  // measure 79
0100
0010
1000
0000
,  // measure 80
0001
0100
0010
1000
,  // measure 81
0100
0010
0001
0000
,  // measure 82
1000
1100
1001
0000
,  // measure 83
0001
0101
1001
0000
,  // measure 84
0010
0010
0100
0100
,  // measure 85
0110
1001
0110
0000
,  // measure 86
0001
0010
0011
0100
,  // measure 87
1000
0010
1010
0100
,  // measure 88
0001
0010
0100
1000
,  // measure 89
0001
2000
3200
0320
,  // measure 90
0032
0000
0000
0103
0000
0000
0001
0000
0001
1000
0000
1000
,  // measure 91
0100
0000
0000
1000
0000
0000
0010
0000
0010
0100
0000
0100
,  // measure 92
0001
0000
0000
1000
0000
0000
0100
0000
0100
1000
0000
0000
,  // measure 93
0010
0000
0010
0100
0000
0100
0001
0000
0000
0010
0000
0000
,  // measure 94
0001
0000
0000
1000
0000
1000
0001
0000
0001
0100
0000
0000
,  // measure 95
0010
0000
0000
0100
0000
0100
0001
0000
0001
0010
0000
0000
,  // measure 96
0100
0000
0100
1000
0000
0000
0010
0000
0010
0100
0000
0000
,  // measure 97
0001
0000
0001
1000
0000
1000
0001
0000
0000
0010
0000
0000
,  // measure 98
0100
0000
0000
0010
0000
0001
0010
0000
0001
0100
0000
0000
,  // measure 99
0010
0000
0000
1000
0000
0010
0100
0000
0010
0100
0000
0100
,  // measure 100
0001
0101
1000
1100
,  // measure 101
0001
0010
0110
1000
,  // measure 102
0001
0000
0010
0001
0000
0010
0100
0000
0000
1000
0000
0000
,  // measure 103
0010
0000
1000
0010
0000
1000
0100
0000
0000
1000
0000
0000
,  // measure 104
0001
0000
0000
0100
0000
0001
0100
0000
0010
0100
0000
0000
,  // measure 105
0010
0000
0000
0100
0000
0000
1001
0000
1000
0001
0000
0000
,  // measure 106
1000
0000
0000
0000
,  // measure 107
0000
0000
0000
1000
,  // measure 108
0001
0000
0000
0001
0010
0000
0000
0010
,  // measure 109
0001
0000
0000
0001
1000
0000
0000
1000
,  // measure 110
0010
0000
0000
0010
0100
0000
0000
0100
,  // measure 111
0010
1000
0001
0100
,  // measure 112
0001
0000
0000
0001
1000
0000
0000
1000
,  // measure 113
0100
0000
0000
0100
0010
0000
0000
0010
,  // measure 114
0001
0000
0000
0001
1000
0000
0000
1000
,  // measure 115
0010
0100
0010
1001
;

//---------------dance-single - ----------------
#NOTES:
     dance-single:
     :
     Beginner:
     3:
     0.123,0.320,0.000,0.000,0.000: // measure 1
0000
0000
0000
0000
,  // measure 2
0000
0000
0000
0000
,  // measure 3
0000
0000
0000
0000
,  // measure 4
0000
0000
0000
0000
,  // measure 5
0000
0000
0000
0000
,  // measure 6
0000
0000
0000
0000
,  // measure 7
0000
0000
0000
0000
,  // measure 8
0000
0000
0000
0000
,  // measure 9
1000
0000
0000
0000
,  // measure 10
0001
0000
0000
0000
,  // measure 11
1000
0000
0000
0000
,  // measure 12
0001
0000
0000
0000
,  // measure 13
0100
0000
0000
0000
,  // measure 14
0010
0000
0000
0000
,  // measure 15
0100
0000
0000
0000
,  // measure 16
0010
0000
0000
0000
,  // measure 17
1000
0000
0000
0000
,  // measure 18
0000
0000
0000
0000
,  // measure 19
1000
0000
0000
0000
,  // measure 20
0000
0000
0000
0000
,  // measure 21
0001
0000
0000
0000
,  // measure 22
0000
0000
0000
0000
,  // measure 23
0001
0000
0000
0000
,  // measure 24
0000
0000
0000
0000
,  // measure 25
0100
0000
0100
0000
,  // measure 26
0000
0000
0000
0000
,  // measure 27
0010
0000
0010
0000
,  // measure 28
0000
0000
0000
0000
,  // measure 29
1000
0000
1000
0000
,  // measure 30
0000
0000
0000
0000
,  // measure 31
0001
0000
0001
0000
,  // measure 32
0000
0000
0000
0000
,  // measure 33
1000
0000
0000
0000
,  // measure 34
1000
0000
0000
0000
,  // measure 35
1000
0000
0000
0000
,  // measure 36
0000
0000
0000
0000
,  // measure 37
0001
0000
0000
0000
,  // measure 38
0001
0000
0000
0000
,  // measure 39
0001
0000
0000
0000
,  // measure 40
0000
0000
0000
0000
,  // measure 41
0010
0010
0010
0000
,  // measure 42
0000
0000
0000
0000
,  // measure 43
0000
0000
0000
0000
,  // measure 44
0000
0000
0000
0000
,  // measure 45
0100
0100
0100
0000
,  // measure 46
0000
0000
0000
0000
,  // measure 47
0000
0000
0000
0000
,  // measure 48
0000
0000
0000
0000
,  // measure 49
1000
1000
1000
0000
,  // measure 50
0000
0000
0000
0000
,  // measure 51
0001
0001
0001
0000
,  // measure 52
0000
0000
0000
0000
,  // measure 53
0100
0100
0100
0000
,  // measure 54
0000
0000
0000
0000
,  // measure 55
0010
0010
0010
0000
,  // measure 56
0010
0010
0010
0000
,  // measure 57
0010
0000
0000
0000
,  // measure 58
0000
0000
0000
0000
,  // measure 59
0100
0000
0000
0000
,  // measure 60
0000
0000
0000
0000
,  // measure 61
0001
0000
0000
0000
,  // measure 62
0000
0000
0000
0000
,  // measure 63
0000
0000
0000
0000
,  // measure 64
0000
0000
0000
0000
,  // measure 65
1000
0000
0000
0000
,  // measure 66
0000
0000
0000
0000
,  // measure 67
0001
0000
0000
0000
,  // measure 68
0000
0000
0000
0000
,  // measure 69
0010
0000
0000
0000
,  // measure 70
0100
0000
0000
0000
,  // measure 71
0010
0000
0000
0000
,  // measure 72
0100
0000
0000
0000
,  // measure 73
0000
0000
0000
0000
,  // measure 74
1000
1000
1000
0000
,  // measure 75
0000
0000
0000
0000
,  // measure 76
0000
0000
0000
0000
,  // measure 77
0000
0000
0000
0000
,  // measure 78
0001
0001
0001
0000
,  // measure 79
0000
0000
0000
0000
,  // measure 80
0000
0000
0000
0000
,  // measure 81
0000
0000
0000
0000
,  // measure 82
0100
0100
0100
0000
,  // measure 83
0000
0000
0000
0000
,  // measure 84
0000
0000
0000
0000
,  // measure 85
0000
0000
0000
0000
,  // measure 86
0010
0010
0010
0000
,  // measure 87
0000
0000
0000
0000
,  // measure 88
1000
0000
0000
0000
,  // measure 89
0000
1000
1000
1000
,  // measure 90
1000
0000
0000
0000
,  // measure 91
0001
0000
0000
0000
,  // measure 92
0100
0000
0000
0000
,  // measure 93
0010
0000
0000
0000
,  // measure 94
1000
0000
0000
0000
,  // measure 95
0100
0000
0000
0000
,  // measure 96
0010
0000
0000
0000
,  // measure 97
0001
0000
0000
0000
,  // measure 98
0100
0100
0100
0000
,  // measure 99
0010
0000
0000
0000
,  // measure 100
1000
1000
1000
0000
,  // measure 101
0001
0000
0000
0000
,  // measure 102
0010
0010
0010
0000
,  // measure 103
0100
0000
0000
0000
,  // measure 104
0001
0001
0001
0000
,  // measure 105
1000
0000
0000
0000
,  // measure 106
0000
0000
0000
0000
,  // measure 107
0100
0100
0100
0000
,  // measure 108
0100
0000
0000
0000
,  // measure 109
0001
0000
0000
0000
,  // measure 110
1000
0000
0000
0000
,  // measure 111
0100
0000
0000
0000
,  // measure 112
0010
0000
0000
0000
,  // measure 113
0001
0000
0000
0000
,  // measure 114
1000
0000
0000
0000
,  // measure 115
0010
0000
0010
0000
;

//---------------dance-single - ----------------
#NOTES:
     dance-single:
     :
     Easy:
     5:
     0.385,0.413,0.024,0.168,0.000: // measure 1
0000
0000
0000
0000
,  // measure 2
0000
0000
0000
0000
,  // measure 3
0000
0000
0000
0000
,  // measure 4
0000
0000
0000
0000
,  // measure 5
0000
0000
0000
0000
,  // measure 6
0000
0000
0000
0000
,  // measure 7
0000
0000
0000
0000
,  // measure 8
0000
0100
0100
0000
,  // measure 9
0002
0000
0023
0000
,  // measure 10
0230
0000
2300
0000
,  // measure 11
3020
0000
0230
0000
,  // measure 12
0301
1000
0001
0000
,  // measure 13
2000
0000
3200
0000
,  // measure 14
0320
0000
0032
0000
,  // measure 15
0203
0000
0320
0000
,  // measure 16
1030
0000
0000
0000
,  // measure 17
0001
0010
0001
0000
,  // measure 18
0100
0001
0100
0000
,  // measure 19
0010
1000
0100
1000
,  // measure 20
0010
0100
0001
0000
,  // measure 21
1000
0001
0010
0000
,  // measure 22
0100
0010
0001
0000
,  // measure 23
1000
0001
0100
0001
,  // measure 24
1000
0100
0010
0000
,  // measure 25
0100
1000
0100
0000
,  // measure 26
0010
0001
1000
0000
,  // measure 27
0010
0100
0010
0000
,  // measure 28
0100
0001
0100
0000
,  // measure 29
0001
0010
1000
0000
,  // measure 30
0010
0001
0100
0000
,  // measure 31
0001
0100
1000
0000
,  // measure 32
0100
0010
1000
0000
,  // measure 33
0001
0000
0000
0000
,  // measure 34
1000
0000
0000
0000
,  // measure 35
0002
0000
0023
0000
,  // measure 36
0230
0000
2300
0000
,  // measure 37
3001
0000
0000
0000
,  // measure 38
1000
0000
0000
0000
,  // measure 39
0001
0100
0010
1000
,  // measure 40
0001
0000
0000
0000
,  // measure 41
1000
0100
0010
0100
,  // measure 42
1000
0100
0010
0100
,  // measure 43
1000
0001
0100
0001
,  // measure 44
1000
0100
0010
0000
,  // measure 45
0001
0010
0100
0010
,  // measure 46
0001
0010
0100
0010
,  // measure 47
0001
0010
0100
1000
,  // measure 48
0100
0010
0001
0000
,  // measure 49
1000
0001
0100
0001
,  // measure 50
1000
0010
0100
0010
,  // measure 51
1000
0100
0010
0001
,  // measure 52
1000
0100
0001
0000
,  // measure 53
0100
0010
0001
0010
,  // measure 54
0100
1000
0001
0100
,  // measure 55
0001
0010
0100
1000
,  // measure 56
0001
0100
0010
0000
,  // measure 57
1000
1000
1000
1000
,  // measure 58
1000
0000
0000
0000
,  // measure 59
0001
0001
0001
0001
,  // measure 60
0001
0000
0000
0000
,  // measure 61
0100
0100
0100
0100
,  // measure 62
0100
0000
0000
0000
,  // measure 63
0020
0000
2030
0000
,  // measure 64
3002
0000
0023
0000
,  // measure 65
0130
0100
0100
0100
,  // measure 66
0100
0000
0000
0000
,  // measure 67
0010
0010
0010
0010
,  // measure 68
0010
0000
0000
0000
,  // measure 69
0001
0000
0000
0000
,  // measure 70
1000
0000
0000
0000
,  // measure 71
0001
0100
1000
0100
,  // measure 72
0001
0000
0000
0000
,  // measure 73
0000
0000
0000
0000
,  // measure 74
1000
0100
0010
0000
,  // measure 75
0010
0100
1000
0000
,  // measure 76
1000
0100
0010
0000
,  // measure 77
0010
0100
1000
0000
,  // measure 78
0001
0100
0010
0000
,  // measure 79
0010
0100
0001
0000
,  // measure 80
0001
0100
0010
0000
,  // measure 81
0010
0100
0001
0000
,  // measure 82
1000
0100
0001
0000
,  // measure 83
0001
0100
1000
0000
,  // measure 84
0001
0100
0010
0000
,  // measure 85
0100
0010
1000
0000
,  // measure 86
0001
0010
1000
0000
,  // measure 87
1000
0010
0001
0000
,  // measure 88
1000
0010
0100
0001
,  // measure 89
1000
0001
0010
0100
,  // measure 90
1000
1000
0100
0100
,  // measure 91
0010
0010
0100
0100
,  // measure 92
1000
0001
0100
0001
,  // measure 93
1000
0100
0010
0000
,  // measure 94
0001
0001
0100
0100
,  // measure 95
0010
0010
1000
1000
,  // measure 96
0010
0010
0100
0001
,  // measure 97
1000
0100
0010
0000
,  // measure 98
0100
0100
1000
1000
,  // measure 99
0001
0001
0100
0100
,  // measure 100
0010
0010
1000
0001
,  // measure 101
0010
0001
1001
0000
,  // measure 102
0001
0001
0100
0100
,  // measure 103
0010
0010
1000
1000
,  // measure 104
0100
0100
0010
0100
,  // measure 105
1000
0100
1100
0000
,  // measure 106
0001
0001
1000
1000
,  // measure 107
0001
1000
1001
0000
,  // measure 108
1000
0000
0100
0000
,  // measure 109
0010
0000
0001
0000
,  // measure 110
0100
0000
0010
0000
,  // measure 111
1000
0010
0100
0010
,  // measure 112
1000
0000
0001
0000
,  // measure 113
0010
0000
0100
0000
,  // measure 114
0010
0000
0001
0000
,  // measure 115
0100
0010
0200
0300
;
