#TITLE:Just Can't Get Enough;
#SUBTITLE:;
#ARTIST:The Black Eyed Peas;
#TITLETRANSLIT:;
#SUBTITLETRANSLIT:;
#ARTISTTRANSLIT:;
#GENRE:;
#CREDIT:;
#BANNER:;
#BACKGROUND:;
#LYRICSPATH:;
#CDTITLE:;
#MUSIC:The Black Eyed Peas - Just Can't Get Enough.ogg;
#OFFSET:-0.139;
#SAMPLESTART:30.768;
#SAMPLELENGTH:12.000;
#SELECTABLE:YES;
#BPMS:0.000=94.000
,132.000=128.000
;
#STOPS:
;
#BGCHANGES:;
#KEYSOUNDS:;
#ATTACKS:;

//---------------dance-single - Blank----------------
#NOTES:
     dance-single:
     :
     Hard:
     8:
     0.429,0.442,0.111,0.126,0.411,373.000,15.000,17.000,0.000,0.000,0.000,0.429,0.442,0.111,0.126,0.411,373.000,15.000,17.000,0.000,0.000,0.000: // measure 0
0000
0000
0000
0000
,  // measure 1
0000
0000
0000
0000
,  // measure 2
0000
0000
0000
0000
,  // measure 3
0000
0000
0000
0000
,  // measure 4
2000
0000
0010
0010
0001
0001
3010
0000
,  // measure 5
0002
0103
2000
3100
,  // measure 6
0010
0000
0010
0000
0001
0000
0100
0000
0010
0000
0010
0000
1000
0000
0100
1000
,  // measure 7
0000
0000
0000
0000
0000
0000
0000
0001
0100
0000
0100
0000
0010
0000
0100
0001
,  // measure 8
0000
0000
0000
0000
0000
0000
0000
1000
0100
0000
0100
0000
0010
0000
0100
1000
,  // measure 9
0000
0000
0000
0000
0000
0000
0000
0001
0010
0000
0010
0000
0100
0000
0010
0001
,  // measure 10
0000
0000
0000
0000
0000
0000
1000
0000
0010
0000
0010
0000
0100
0000
0020
2000
,  // measure 11
0000
0000
0000
3030
,  // measure 12
1000
0100
1000
0000
0010
0100
0010
0000
0100
0000
0001
0000
0101
0000
0000
0000
,  // measure 13
0001
0010
0001
0000
0100
0010
0100
0000
0010
0000
1000
0000
1100
0000
0000
1000
,  // measure 14
0100
0000
0100
0000
1000
0001
1000
0000
0010
0000
0100
0000
0101
0000
0000
0001
,  // measure 15
0100
0000
0100
0000
0010
0100
0010
0100
0001
0000
0100
0000
1000
0000
0100
0000
,  // measure 16
0000
0000
0001
0000
0010
0100
0010
0000
0001
0000
0100
0000
0110
0000
0000
0000
,  // measure 17
0010
1000
0010
0000
0100
0001
0100
0000
0010
0000
1000
0000
1100
0000
0000
0000
,  // measure 18
1000
0010
1000
0010
0100
0000
0001
0000
0010
0000
0100
0000
0110
0000
0000
0000
,  // measure 19
0010
0001
0000
0200
0000
0000
0000
0310
0000
0010
2000
0000
0000
0000
0000
0000
,  // measure 20
3001
0000
0010
0000
0100
0000
1000
0100
1000
0000
0100
0000
0001
0000
0100
0000
,  // measure 21
1000
0000
0010
0000
0100
0000
0001
0010
0000
0010
0100
0000
1100
0000
0000
0000
,  // measure 22
1000
0010
0100
0010
1000
0000
0001
0010
0001
0000
0001
0000
1000
0000
1000
0000
,  // measure 23
0001
0100
0000
0020
0000
0000
0000
1030
0000
1000
0002
0000
0000
0000
0000
0000
,  // measure 24
2003
0000
0100
0100
0010
0010
3100
0000
,  // measure 25
0002
0013
2000
3010
,  // measure 26
0100
0100
0001
0010
0100
0100
1000
0010
,  // measure 27
0100
0100
0100
0100
,  // measure 28
0002
0000
0010
0010
0100
0100
0013
0000
,  // measure 29
2000
3010
0002
0013
,  // measure 30
0100
0100
1000
0010
0100
0100
0001
0010
,  // measure 31
0100
1000
0010
0100
0001
0000
0000
0000
0010
0001
0100
0010
1000
0000
0000
0000
,  // measure 32
1000
0100
1000
0001
0100
0001
1000
0010
1000
0001
0010
0001
1000
0100
0010
0001
,  // measure 33
0100
0000
0000
0010
0000
0100
0001
0000
0000
0001
0000
0000
,  // measure 34
0100
0000
0000
0010
0000
0000
1000
0000
0000
0100
0000
0010
,  // measure 35
0001
0100
1000
0010
,  // measure 36
0001
0000
0000
1000
0000
0000
1200
0000
0000
0010
0010
0000
,  // measure 37
1300
0000
0000
0001
0010
0001
0010
0000
0000
1100
0000
0000
,  // measure 38
1000
0000
0000
0010
0100
0010
0100
0000
0000
1001
0000
0000
,  // measure 39
0010
0000
0000
0100
0001
0100
0001
0000
0000
1010
0000
0000
,  // measure 40
0100
0000
0000
0001
1000
0001
1000
0000
0000
0010
0010
0000
,  // measure 41
1000
0000
1000
0100
0000
0100
0010
0000
0010
0001
0000
0001
,  // measure 42
0010
0000
0100
0000
0010
0000
2000
0000
0000
0000
0000
0000
3010
0000
0100
0000
0010
0000
0100
0000
0000
0100
0000
0000
,  // measure 43
1000
0000
0100
0000
0010
0000
0001
0000
0000
0001
0000
0000
0001
0000
0100
0000
0010
0000
1000
0000
0000
0000
1000
0000
,  // measure 44
0010
0100
0010
1000
0000
1000
0100
0000
0001
0100
0100
0000
,  // measure 45
1000
0000
1000
0010
0000
0010
0100
0000
0100
0001
0000
0001
,  // measure 46
0010
0000
0010
1000
0000
1000
0010
0000
0010
0001
0000
0001
,  // measure 47
0100
0000
0100
0010
0000
0010
1000
0000
1000
0100
0000
0100
,  // measure 48
0001
0000
0001
0100
0000
0100
1000
0000
1000
0010
0010
0000
,  // measure 49
0100
0000
0000
0001
0000
0001
0010
0000
0010
1000
0000
1000
,  // measure 50
0010
0000
0010
0001
0000
0001
0100
0000
0100
0010
0000
0010
,  // measure 51
0001
0000
0001
0010
0000
0010
1000
0000
1000
0100
0000
0100
,  // measure 52
0001
0000
0001
0100
0000
0100
0010
0000
0010
0001
0000
0001
,  // measure 53
1000
0000
0000
0010
0000
1000
0100
0000
0000
0100
0000
0000
,  // measure 54
0010
0000
0000
0001
0000
0000
0100
0000
0000
0010
0000
1000
,  // measure 55
0100
0010
0001
1000
,  // measure 56
1001
1100
0110
0011
;

//---------------dance-single - Blank----------------
#NOTES:
     dance-single:
     :
     Beginner:
     2:
     0.140,0.168,0.089,0.037,0.000,115.000,12.000,5.000,0.000,0.000,0.000,0.140,0.168,0.089,0.037,0.000,115.000,12.000,5.000,0.000,0.000,0.000:
0000
0000
0000
0000
,
0000
0000
0000
0000
,
0000
0000
0000
0000
,
0000
0000
0000
0000
,
1000
0000
1000
0000
,
0001
0000
0001
0000
,
0100
0000
0010
0000
,
0110
0000
0001
0000
,
1001
0000
0100
0000
,
0110
0000
1000
0000
,
1001
0000
0010
0000
,
0220
0000
0330
0000
,
0001
0000
0100
0000
,
0010
0000
0100
0000
,
1000
0000
0100
0000
,
0010
0000
0001
0001
,
0001
0000
0010
0000
,
0100
0000
0010
0000
,
1000
0000
0010
0000
,
0100
0100
0100
0000
,
0001
0000
0010
0000
,
0100
0100
0100
0000
,
1000
0000
0010
0000
,
0200
0000
0300
0000
,
0001
0000
0100
0000
,
0001
0000
0100
0000
,
0010
0000
1000
0000
,
0010
0000
0000
0000
,
1000
0000
0100
0000
,
1000
0000
0100
0000
,
0010
0000
0010
0000
,
1001
0000
1001
0000
,
0220
0000
0330
0000
,
1000
0000
0100
0000
,
0010
0000
0001
0000
,
0100
0000
0010
0000
,
0100
0000
0001
0000
,
1000
1000
1000
0000
,
0001
0001
0001
0000
,
0100
0100
0100
0000
,
0001
0001
0001
0000
,
1000
0000
0100
0000
,
0010
0000
0100
0000
,
1000
0000
0010
0000
,
0001
0000
0010
0000
,
1000
0000
0100
0000
,
0010
0000
1000
0000
,
0001
0000
0100
0000
,
0010
0000
0001
0000
,
1000
1000
1000
0000
,
0010
0010
0010
0000
,
0001
0001
0001
0000
,
0100
0100
0100
0000
,
0001
0000
0010
0000
,
0100
0000
1000
0000
,
0010
0000
0100
0000
,
1001
1001
1001
1001
;

//---------------dance-single - Blank----------------
#NOTES:
     dance-single:
     :
     Easy:
     3:
     0.196,0.210,0.059,0.133,0.000,159.000,8.000,18.000,0.000,0.000,0.000,0.196,0.210,0.059,0.133,0.000,159.000,8.000,18.000,0.000,0.000,0.000:
0000
0000
0000
0000
,
0000
0000
0000
0000
,
0000
0000
0000
0000
,
0000
0000
0000
0000
,
2000
0000
3020
0000
,
0230
0000
0302
0000
,
0013
0010
0100
0100
,
1001
0000
1000
0100
,
1000
0000
0001
0010
,
0001
0000
0100
0010
,
0100
0000
0001
0010
,
0200
0000
0000
0000
,
1300
1000
0010
0000
,
0010
0010
0001
0000
,
0001
0001
0100
0000
,
0100
0100
1000
1000
,
0100
0100
0001
0000
,
0001
0001
0010
0000
,
0010
0010
1000
0000
,
1000
0100
0002
0000
,
0103
0010
1000
0001
,
0010
0010
0100
0000
,
0010
0001
0100
0010
,
2000
0000
0001
3001
,
0200
0000
0320
0000
,
2030
0000
3200
0000
,
0010
0010
0001
0301
,
2000
0000
0000
3010
,
0200
0000
0302
0000
,
0023
0000
0230
0000
,
1000
1000
0010
0310
,
0001
0101
0100
0110
,
0010
1000
0100
0010
,
0001
0000
0100
0000
,
0010
1000
0100
0010
,
0001
0000
0100
0000
,
0010
0100
0001
0000
,
0100
0000
0100
1000
,
0010
0000
0010
0100
,
0001
0000
0001
1000
,
0100
0000
0100
0010
,
0001
0001
0100
0100
,
0010
1000
0200
0000
,
1300
0010
0200
0000
,
0301
1000
0010
0000
,
0100
0001
0000
0101
,
0000
0010
0000
1010
,
0000
0001
0000
1001
,
0000
0100
0000
0110
,
0000
0010
0001
0100
,
0010
0010
0010
0000
,
0000
0100
0010
1000
,
0100
0100
0100
0000
,
1000
0010
0100
0010
,
1000
0100
0010
0001
,
0100
0010
0100
0001
,
0010
0100
1000
1001
;

//---------------dance-single - Blank----------------
#NOTES:
     dance-single:
     :
     Medium:
     6:
     0.303,0.273,0.170,0.119,0.063,247.000,23.000,16.000,0.000,0.000,0.000,0.303,0.273,0.170,0.119,0.063,247.000,23.000,16.000,0.000,0.000,0.000:
0000
0000
0000
0000
,
0000
0000
0000
0000
,
0000
0000
0000
0000
,
0000
0000
0000
0000
,
1000
0000
0100
0000
0010
0100
1000
0000
,
0001
0000
0010
0000
0100
0010
0001
0000
,
1000
0010
0100
0000
0100
0001
0010
0000
,
1001
0000
0000
0000
0010
0100
0010
0000
,
1001
0000
0000
0000
1000
0100
1000
0000
,
0011
0000
0000
0000
0001
0100
0001
0000
,
1010
0000
0000
0100
0010
1000
0001
0000
,
0220
0000
0000
0330
,
0001
0100
1000
0100
0001
0010
0000
0000
,
1000
0100
0001
0100
1000
0010
0000
0000
,
0001
0010
1000
0010
0001
0100
0000
0000
,
1000
0010
0001
0010
1000
0100
0001
0000
,
0100
1000
0010
0100
0001
0010
0000
0000
,
0010
0001
0100
0010
1000
0100
0000
0000
,
1000
0010
0100
0001
0010
0100
0000
0000
,
1000
0100
0010
0001
0100
0020
0000
0000
,
1030
0100
0001
0000
0001
0100
1000
0000
,
1000
0010
0100
0001
0010
0100
1000
0000
,
0001
0010
1000
0000
1000
0010
0001
0000
,
0100
0100
0100
0100
,
0020
0000
2030
0000
,
3200
0000
0302
0000
,
0203
0000
2300
0000
,
3020
0000
0000
0100
,
0230
0000
0302
0000
,
0023
0000
2030
0000
,
3020
0000
0032
0000
,
0103
0010
1000
0000
0001
0010
0100
0000
,
1000
0010
0100
0001
1000
0100
0010
0001
,
1000
0100
0010
0001
,
0100
0000
0000
0010
0000
0000
0100
0000
0000
0001
0001
0000
,
0010
1000
0010
0001
,
0100
0000
0000
0010
0000
0000
1000
0000
0000
0001
0001
0000
,
1000
0000
0000
0010
0000
0010
0100
0000
0000
0001
0000
0000
,
1000
0000
0000
0100
0000
0100
1000
0000
0000
0010
0000
0000
,
0100
0000
0000
0010
0000
0010
0100
0000
0000
0001
0000
0000
,
0010
0000
0000
0100
0000
0100
1000
0000
0000
0010
0010
0000
,
0100
0001
0010
1000
,
0100
0110
0010
0110
,
1000
1001
0001
1001
,
0001
0000
0001
0100
0000
0100
0010
0000
0000
1000
1000
0000
,
0001
0000
0001
0100
0000
0000
0010
0000
0010
1000
0000
0000
,
0100
0000
0100
0010
0000
0000
0001
0000
0000
1001
0000
0000
,
1000
0000
1000
0010
0000
0000
0010
0000
0010
0100
0000
0000
,
0100
0000
0100
0001
0000
0000
0100
0000
0000
0010
0010
0000
,
0100
0001
0010
0100
,
1100
1010
0110
0101
,
1001
0001
0010
0100
,
1100
1010
0110
0101
,
0001
0100
0010
1000
,
0100
0001
0100
1000
,
0010
0001
0010
1000
,
1010
0110
0101
1001
;
