#TITLE:Ichigeki Hisshou;
#SUBTITLE:;
#ARTIST:Des-ROW Gumi Special+r;
#TITLETRANSLIT:;
#SUBTITLETRANSLIT:;
#ARTISTTRANSLIT:;
#CREDIT:;
#BANNER:;
#BACKGROUND:;
#LYRICSPATH:;
#CDTITLE:;
#MUSIC:ICHIGEKI HISSHOU.mp3;
#OFFSET:0.140;
#SAMPLESTART:68.589;
#SAMPLELENGTH:12.000;
#SELECTABLE:YES;
#BPMS:0.000=213.000,210.000=106.500,219.000=213.000;
#STOPS:233.000=0.282
;
#BGCHANGES:;

//---------------dance-single - Copied from----------------
#NOTES:
     dance-single:
     Copied from:
     Hard:
     12:
     1.000,1.000,0.453,0.339,1.000:
0000
0000
0000
0000
,
0000
0000
0000
0000
,
0000
0000
0000
0000
0000
0000
1000
0100
1000
0001
0010
0001
,
1000
0010
1000
0001
0100
0001
1000
0100
0010
0001
0010
0100
,
1000
0001
0100
0001
1000
0010
2000
0000
0000
0000
0000
0000
,
3020
0000
0230
0000
,
0302
0000
0000
0000
0000
0000
1003
0010
0100
0010
1000
0010
,
0100
0010
1000
0001
0100
0010
0100
0001
0100
0010
0100
0001
,
0100
0010
1000
0010
1000
0001
0200
0000
0000
0000
0000
0000
,
0320
0000
2030
0000
,
3200
0000
0000
0000
0000
0000
0310
0001
0010
0100
1000
0100
,
0010
0001
0010
0100
1000
0100
0010
0001
0100
0010
1000
0010
,
0100
0001
0100
0010
1000
0010
0100
0001
0010
0100
1000
0100
,
0010
0001
1000
0010
1000
0010
0100
0001
0100
0010
0100
0010
,
0100
0010
1000
0010
1000
0100
1000
0001
0100
0001
1000
0001
,
0100
0001
1000
0100
0010
0100
1000
0001
0100
0010
1000
0100
,
1000
0001
0010
0001
1000
0100
0010
0001
0010
0001
0010
0001
,
1000
0100
1000
0100
1000
0100
0010
0001
0010
0001
0010
0001
,
1000
0000
0001
0000
1000
0000
0001
0000
1000
0000
0001
0000
1000
0000
0000
0100
0000
0000
0010
0000
0000
0001
0000
0000
,
0010
0100
1000
0010
0200
0301
0010
0100
,
2000
3100
0010
0001
2002
0000
0000
0000
,
0000
3003
0220
0000
,
0000
0330
0000
0000
,
2002
3003
2020
3030
,
1001
0000
0001
0000
1010
0010
1000
0100
,
0010
0001
0010
0001
1000
0100
1000
0100
,
0010
0001
0010
0001
1000
0100
0010
0001
,
0100
1000
0100
0001
0010
0100
0010
0001
,
1001
1000
0100
0010
0110
0010
0001
0100
,
1000
0100
0010
1000
0100
0001
0100
1000
,
0001
1000
1001
0001
0100
1000
0100
0001
,
0010
0000
1000
0000
0010
0000
0100
0000
1000
0000
0100
0000
0010
0000
0001
0100
,
0001
0000
1000
0000
0000
0000
0010
1000
0010
0000
0000
0000
1010
0000
0000
0000
,
1001
0000
0101
0000
1001
1000
1010
0010
,
0110
0000
0000
0101
0000
0000
0001
1000
0001
1000
0001
1000
,
0100
0010
0100
0010
0100
0010
0001
0010
0001
0010
0001
0010
,
0100
1000
0100
1000
0100
1000
0001
0010
0100
1000
0100
0010
,
0001
1000
0010
0100
0001
0010
0100
1000
0100
0010
0001
0100
,
0010
0100
0001
1000
0100
0010
0002
0000
0000
0000
0000
0000
,
0203
0000
0320
0000
,
2030
0000
0000
3000
0000
0000
1001
0001
0100
0010
1000
0100
,
1000
0001
0010
0001
1000
0100
0010
0100
1000
0001
0100
0010
,
1000
0100
1000
0001
0010
0100
2000
0000
0000
0000
0000
0000
,
0002
0000
0000
3003
0000
0000
1001
0000
0000
0001
1000
0001
,
1000
0001
1000
0001
1000
0001
1000
0100
0010
0001
0010
0100
,
1000
0001
0100
0010
1000
0100
1000
0001
0100
0010
1000
0001
,
0010
0001
1000
0100
0010
0001
1000
0100
1000
0001
0010
0100
,
1000
0001
0010
0100
0010
0001
1000
0100
0010
0100
1000
0001
,
0100
0001
0100
0010
0100
0001
0100
0010
0100
0001
0100
0010
,
1000
0010
0100
0010
1000
0010
0100
0010
1000
0010
0100
0010
,
1000
0100
0010
0001
0010
0100
1000
0001
1000
0001
1000
0001
,
1000
0100
1000
0100
1000
0100
0010
0100
0010
0100
0010
0100
,
0010
0001
0010
0001
0010
0001
2002
0000
0000
3003
0000
0000
,
0120
0000
1000
0000
0130
0000
2002
3003
,
1010
1000
1001
0001
0101
0000
1001
0000
,
0000
1000
0001
1000
0000
0000
0101
0000
,
0000
0001
1000
0000
0001
0100
0010
0000
,
0000
1000
0100
0010
0001
0010
0100
1000
,
0000
1001
0102
1000
,
1000
0000
0000
0103
0000
0000
0001
0000
,
0102
0000
0000
1000
1003
0000
0001
0100
,
0001
0000
0000
1000
0010
0100
0001
0010
,
0001
1000
0000
0001
0220
0000
0000
0000
,
0000
0330
2002
0000
,
0000
0000
0000
3003
0000
0000
1000
0001
1000
0001
1000
0001
,
1000
0001
1000
0001
1000
0001
0010
0100
0010
0100
0010
0100
,
0010
0100
0010
0100
0010
0100
1000
0100
0010
0001
0010
0100
,
1000
0001
0010
0001
1000
0100
0010
0001
1000
0001
1000
0010
,
1000
0001
0100
0001
1000
0100
1000
0000
0010
0000
0100
0000
,
0101
0000
0001
0010
0100
1000
0010
0000
1000
0100
0010
0001
,
0011
0000
0001
0100
0010
1000
0001
0010
0001
1000
0100
1000
,
0001
0100
0001
1000
0010
1000
0100
0010
0001
0100
0001
1000
,
0100
0010
0100
1000
0001
0100
0001
0000
0010
0000
0001
0000
,
0011
0000
0001
0000
1000
0000
1001
0000
1000
0000
0010
0000
,
1010
0000
0100
0010
0001
0010
0100
1000
0100
0010
0001
0010
,
0100
1000
0010
0100
0001
0010
0100
1000
0001
0100
0010
1000
,
0100
0010
0001
0010
0100
1000
0001
0010
0001
1000
0100
0010
,
0100
1000
0001
0010
0001
1000
0100
0010
0001
0100
0001
0010
,
0001
1000
0100
0010
0100
1000
0010
1000
0100
1000
0001
1000
,
0100
0010
0001
0100
0001
0010
0001
1000
0100
0010
0100
1000
,
0001
0100
0010
1000
0100
0010
0001
1000
0100
1000
0001
0010
,
0001
1000
0100
0010
0001
1000
1001
0000
0000
0001
0100
0010
,
1000
0000
0100
0000
0010
0000
0001
0000
0100
0000
0010
0000
1010
0000
0000
1000
0000
0000
0001
0000
0000
0100
0000
0000
,
0101
0001
1000
0100
0010
0001
0010
0100
,
1000
0001
0100
0001
2002
0000
0003
0000
,
3020
0000
0000
0100
0130
0000
0001
0000
,
2001
3010
0102
1003
,
1001
0000
0000
1000
0000
0000
1010
0000
0000
0001
0100
0001
,
0100
0010
1000
0100
0001
0100
1000
0001
,
1001
1000
0100
0010
0001
0100
0010
1000
,
1010
0100
0001
0010
0100
1000
0100
0010
,
0001
1000
0010
1000
0001
0100
0001
1000
,
0100
0000
0000
0000
0000
0000
0010
0000
0000
0001
0000
0000
0010
0000
0000
0000
0000
0000
0001
0000
0000
0000
0000
0000
1000
0000
0000
0000
0100
0000
0000
0000
1000
0000
0000
0000
0100
0000
0000
0000
0010
0000
0000
0000
0100
0000
0000
0000
,
0010
0001
0010
0000
0001
0000
1000
0000
1000
0100
0000
0100
,
0010
0000
0000
0000
0010
0000
0001
0000
0000
1000
0000
0000
0001
0000
0010
0000
0100
0000
1000
0000
0100
0000
0010
0000
,
0001
0000
0000
0000
0100
0000
0000
0000
0010
0000
0000
0000
1000
0000
0000
0000
0001
0000
0000
0000
0000
0000
0000
0000
1000
0000
0000
0000
0000
0000
0000
0000
0100
0000
0000
0000
0010
0000
0000
0000
0000
0000
0001
0000
0000
1000
0000
0000
,
0001
0000
0000
0000
0000
0000
0000
0000
0010
0000
0000
0000
0100
0000
0000
0000
0000
0000
1000
0000
0000
0001
0000
0000
1000
0000
0000
0000
0100
0000
0000
0000
0010
0000
0000
0000
0100
0000
0000
0000
1000
0000
0000
0000
0001
0000
0000
0000
,
0100
0000
0000
0000
0010
0000
0000
0000
1000
0000
0000
0000
0001
0000
0000
0000
0000
0000
1000
0000
0000
0010
0000
0000
1000
0000
0000
0000
0000
0000
0001
0000
0000
0100
0000
0000
0001
0000
0000
0000
0000
0000
1000
0000
0000
0001
0000
0000
,
1000
0000
0000
0001
0000
0000
0100
0000
0000
0010
0000
0000
1000
0000
0100
0000
0010
0000
0001
0000
0010
0000
0100
0000
,
1000
0000
0100
0000
0010
0000
0001
0000
0000
0100
0000
0000
0010
0000
0000
1000
0000
0000
0001
0000
0000
0010
0000
0000
,
0001
1000
0100
0010
0011
0000
1001
0000
,
0001
0100
1010
1001
,
0101
0000
0000
1010
0000
0000
1000
0100
0010
0001
0010
0100
,
1000
0000
0010
0000
1000
0000
0001
0000
0100
0000
0001
0000
1000
0000
0000
0100
0000
0000
1100
0000
0000
0100
0000
0000
,
0110
0000
0000
0010
0000
0000
0011
0000
0000
0001
0000
0000
1000
0000
0100
0000
0010
0000
0001
0000
0010
0000
0100
0000
,
1000
0010
0100
0001
0100
0010
2002
0000
0000
0000
0000
0000
,
0000
3003
0000
0000
;

//---------------dance-single - ----------------
#NOTES:
     dance-single:
     :
     Medium:
     10:
     0.772,0.992,0.404,0.549,0.816:
0000
0000
0000
0000
,
0000
0000
0000
0000
,
0000
0000
0000
0000
0000
0000
1000
0100
1000
0100
0000
0000
,
0010
0001
0010
0001
0000
0000
1000
0001
1000
0001
0000
0000
,
0100
0010
0100
0010
0000
0000
2000
0000
0000
0000
0000
0000
,
3002
0000
0203
0000
,
0320
0000
2030
0000
,
3000
0000
0001
0010
0000
0100
1000
0000
0001
0010
0000
0100
,
1000
1001
0002
0000
,
0203
0000
0320
0000
,
1030
0001
1000
0001
1000
0001
1000
0000
0000
0000
0000
0000
,
0000
0000
0000
0001
0000
0000
0100
0000
0000
0010
0000
0010
,
2000
3001
1000
0001
,
0100
0000
0100
0000
0000
0010
0000
0000
1000
0000
0000
0001
,
0200
0310
2002
3003
,
0000
0000
0000
0000
0000
1000
0100
0000
0100
0010
0000
0010
,
0001
0000
0001
0100
0000
0100
0001
1000
0001
1000
0001
1000
,
0001
1000
0001
1000
0001
1000
0100
0010
0100
0010
0100
0010
,
0100
0010
0100
0010
0100
0010
0100
0000
0000
0001
0000
0000
,
1000
0010
2000
3001
,
0200
0310
2002
0000
,
0000
3003
2200
0000
,
0000
0000
3300
0000
,
2002
3003
2020
3030
,
1001
1000
1100
0010
,
0001
0000
0000
0100
0000
0100
0000
0000
,
0010
0000
2002
3000
,
0000
0100
0003
0100
0000
0100
0000
0000
,
1001
0000
1100
1100
,
1100
1100
0011
0011
,
0011
0011
0101
0101
,
1010
0000
0000
0000
1010
0000
0000
0000
1100
0000
0000
0000
1100
0000
0000
0010
,
0001
0000
1000
0000
0000
0000
0000
0001
2000
0000
0000
0000
3020
0000
0000
0000
,
0230
0301
0101
1010
,
1001
0101
0100
0010
,
1000
0100
0001
0100
,
1000
0000
0000
0001
0000
0000
1000
0100
1000
0100
1000
0100
,
2000
0000
0000
3020
0000
0000
0130
0001
0100
0001
0100
0001
,
0200
0320
2030
0000
,
3002
0000
0203
0000
,
0320
0000
0000
0000
0000
0000
1030
0100
0010
0001
0010
0100
,
1000
0000
0000
0001
0000
0000
1000
0010
1000
0010
1000
0010
,
1000
0000
0000
0001
0000
0001
0100
0000
0100
0010
0000
0010
,
1000
0000
1000
0100
0000
0100
0010
0000
0010
0001
0000
0010
,
0000
0000
0001
1000
0000
0000
0000
0000
0000
0000
0000
0100
,
0010
0000
0010
0001
0000
0001
0200
0000
0000
0310
0000
1000
,
0010
0000
0100
0001
0000
1000
0020
0000
0000
0130
0000
0000
,
0001
0000
0000
1000
0000
0010
1000
0000
0010
0100
0000
0001
,
0100
0000
0010
0100
0000
0010
2000
0000
0000
3001
0000
0000
,
1000
0000
1000
0100
0000
0100
0010
0000
0010
0001
0000
0001
,
0100
0000
0100
0010
0000
0010
1000
0000
1000
0100
0000
0100
,
0010
0000
0010
0000
0000
0001
0100
0000
0100
0010
0000
0010
,
1000
0000
1000
0000
0000
0001
0200
0000
0000
0300
0000
0000
,
0102
2003
3010
1010
,
1001
0110
1001
0001
,
0000
0010
0000
0010
0000
0000
0001
0000
,
0000
0010
0000
0001
,
0000
0010
0001
0010
0001
0010
0001
1000
,
0000
1001
2020
0000
,
0000
3030
0002
0000
,
0000
0000
2003
0000
,
0000
0000
0020
0000
,
0000
3030
2002
0000
,
0000
3003
2200
3300
,
1000
0000
1000
0010
,
0100
0001
0010
0100
,
1000
0000
0000
0001
0000
0001
0100
0000
0100
0010
0000
0010
,
0000
0000
1000
0001
0000
0001
0100
0000
0100
0010
0000
0010
,
0000
0000
1000
0001
0000
0001
0100
0000
0100
0010
0000
0000
,
0010
0000
1000
0010
0000
0100
0001
0000
0100
0010
0000
0010
,
0000
0000
1000
0001
0000
0000
2000
0000
0000
3020
0000
0000
,
0130
0000
0100
0001
0000
0001
0010
0000
0010
0100
0000
0100
,
0000
0000
0000
0000
0000
0000
1000
0000
0001
0010
0000
0001
,
0000
0000
1000
0100
0000
0100
0010
0000
0010
0001
0000
2002
,
0000
0000
3003
0000
0000
0000
0001
0010
0100
1000
0000
0000
,
0100
0010
0001
0010
0000
0000
0100
1000
0100
0010
0000
0000
,
0001
1000
0001
1000
0000
0000
0010
1000
0010
1000
0000
0000
,
0001
0010
0001
0010
0000
0000
0100
1000
0100
1000
0000
0000
,
0001
0100
0010
1000
0000
0000
0001
0010
0001
0010
0000
0000
,
0100
1000
0100
1000
0000
0000
1000
0100
0010
0001
0000
0000
,
1000
0010
1000
0010
0000
0000
0100
0001
0100
0001
0100
0001
,
1000
0010
1000
0010
1000
0010
0100
0001
0100
0001
0100
0001
,
1000
0000
0010
0000
1000
0000
0010
0000
1000
0000
0010
0000
1000
0000
0000
0001
0000
0000
0100
0000
0000
0000
0000
0000
,
1010
0000
1000
0000
0001
0100
0001
0000
,
1000
0010
1000
0000
2002
0000
0000
0000
,
0000
3003
2200
0000
,
0000
0000
0000
3300
,
0202
0303
2020
3030
,
2002
3003
2200
3300
,
0001
1000
0001
1000
0001
0000
0010
0000
,
0100
1000
0001
1000
0001
0000
0100
0000
,
0010
1000
0010
1000
0010
0000
0100
0000
,
0001
0000
0000
1000
0000
0000
0001
0000
0000
0000
0000
0000
1000
0000
0010
0000
1000
0000
0010
0000
1000
0000
0010
0000
,
1000
0010
1000
0000
0010
0000
0100
0000
0100
0001
0000
0001
,
0010
0000
0010
0100
0000
0000
1000
0001
1000
0001
1000
0001
,
1000
0001
1000
0000
0010
0000
0100
0000
0100
0001
0000
0001
,
0010
0000
0010
0100
0000
0000
1000
0001
1000
0001
1000
0001
,
1000
0001
1000
0100
0000
0100
0010
0000
0010
0001
0000
0001
,
0100
0000
0100
0010
0000
0000
1000
0100
0010
0001
0010
0100
,
1000
0000
0001
0000
0010
0000
0100
0000
1000
0000
0100
0000
0010
0000
0000
0001
0000
0000
0100
0000
0000
0010
0000
0000
,
1000
0001
1000
0001
1000
0000
0010
0000
,
1000
1000
1001
1001
,
0110
0000
0000
0110
0000
0000
0001
0000
0001
0010
0000
0010
,
0100
0000
0000
0000
0100
0000
1000
0000
0000
0000
0000
0000
0001
0000
0000
0100
0000
0000
0001
0000
0000
1000
0000
0000
,
0010
0000
0000
1000
0000
0000
0001
0000
0000
0100
0000
0000
0010
0000
0000
0000
0010
0000
1000
0000
0000
0000
1000
0000
,
0001
0000
0001
1000
0000
0000
2200
0000
0000
0000
0000
0000
,
0000
0000
0000
3300
;

//---------------dance-single - ----------------
#NOTES:
     dance-single:
     :
     Easy:
     8:
     0.548,0.904,0.396,0.388,0.174:
0000
0000
0000
0000
,
0000
0000
0000
0000
,
0000
0000
1001
0010
,
1000
0010
0100
0001
,
0010
0100
2000
0000
,
3002
0000
0203
0000
,
0320
0000
1030
0001
,
0100
0010
1000
0100
,
0010
0001
2000
0000
,
3020
0000
0230
0000
,
0302
0000
0013
0100
,
0010
0100
1000
0001
,
1000
0100
0010
0100
,
0010
0100
0010
0001
,
0100
0010
1000
0001
,
0100
0010
1000
0100
,
0010
0001
0200
0000
,
0320
0000
2030
0000
,
3002
0000
0000
0000
1003
0100
1000
0100
,
1000
0100
1000
0100
1000
0100
1000
0100
,
1000
0100
1000
0100
2000
0000
0000
0000
,
0000
0000
3002
0000
,
0000
0000
0000
0003
,
2200
3300
2002
3003
,
0110
0000
0010
0000
1000
0001
1000
0000
,
0010
0100
0010
0000
1000
0100
1000
0000
,
0001
0010
0001
0000
1000
0001
1000
0000
,
0010
0100
0010
0000
1000
0100
1000
0000
,
0001
0010
0001
0000
1010
0000
0101
0000
,
1010
0101
1100
0011
,
1100
0011
1001
1001
,
0110
0110
1100
1100
,
0011
0001
1000
0010
,
0100
0001
0010
0100
,
1000
0100
1000
0001
,
1000
0001
1000
0100
,
0010
0001
0100
0001
,
1000
0001
0100
0001
,
1000
0001
2000
0000
,
3020
0000
0230
0000
,
0302
0000
1003
0010
,
1000
0010
0100
0001
,
0100
0001
0020
0000
,
0230
0000
2300
0000
,
3002
0000
0103
0010
,
0100
0010
1000
0001
,
1000
0001
0010
0100
,
1000
0000
1000
0001
0000
0000
0001
0000
0001
0100
0000
0000
,
0100
0000
0100
0010
0000
0000
0010
0000
0010
1000
0000
0000
,
0100
0000
0100
0010
0000
0010
0001
0000
0001
0100
0000
0100
,
0010
0000
0010
1000
0000
1000
0100
0000
0100
0010
0000
0000
,
0010
0001
0001
0100
,
0010
1000
1001
0000
,
1001
0000
0000
0110
,
0110
1001
1001
1000
,
0000
0010
0000
0010
0000
0000
0100
0000
,
0000
0001
0000
1000
,
0000
0010
0000
0100
,
0000
1001
2002
0000
,
0000
3003
2200
0000
,
0000
3300
0022
0000
,
0000
0033
2002
0000
,
0000
3003
2020
0000
,
3030
0000
0202
0000
,
0303
0000
1001
0000
,
1001
0000
1001
0000
,
1001
0000
1000
0001
,
1000
0001
0100
0010
,
0100
0010
1000
0000
,
0001
0000
0100
0000
,
0010
0000
1000
0100
,
1000
0100
0010
0001
,
0100
0010
1000
0000
,
0001
0000
0100
0000
,
0010
0000
0000
0000
0000
0000
1000
0001
1000
0001
1000
0001
,
1000
0001
1000
0001
1000
0001
1000
0001
1000
0001
1000
0001
,
1000
0001
1000
0001
1000
0001
1000
0000
0000
0100
0000
0000
,
0010
0001
0100
0010
,
1000
0000
0000
0100
0000
0000
0010
0100
0010
0100
0010
0100
,
0010
0100
0010
0100
0010
0100
0010
0100
0010
0100
0010
0100
,
0010
0100
0010
0100
0010
0100
0010
0000
0000
0001
0000
0000
,
0100
0010
1000
0100
,
0010
0001
1001
1000
,
0010
0100
0001
0010
,
0100
1000
0202
0000
,
0000
0303
0220
0000
,
0000
0330
0000
0000
,
1001
0000
0110
0000
,
1001
0000
2200
0000
,
0000
0000
3300
0000
,
1001
0000
0110
0000
,
0022
0000
0000
0033
,
1000
0000
0001
1000
,
0001
0100
0010
1000
,
0100
0010
0001
0100
,
0010
1000
0100
0010
,
0001
1000
0010
0010
,
1000
1000
0001
0001
,
0100
0100
0010
1000
,
0100
0010
0001
0100
,
0010
1000
1001
1001
,
0000
0000
0010
0010
,
0010
0010
0100
0100
,
0100
0100
0001
0010
,
0100
1000
0001
0100
,
0010
0000
2002
0000
,
0000
0000
3003
0000
;

//---------------dance-single - ----------------
#NOTES:
     dance-single:
     :
     Beginner:
     2:
     0.166,0.298,0.121,0.000,0.000: // measure 1
0000
0000
0000
0000
,  // measure 2
0000
0000
0000
0000
,  // measure 3
0000
0000
1000
0000
,  // measure 4
0000
0000
0001
0000
,  // measure 5
0000
0000
0100
0000
,  // measure 6
0010
0000
1000
0000
,  // measure 7
0001
0000
1000
0000
,  // measure 8
0000
0000
0001
0000
,  // measure 9
0000
0000
1000
0000
,  // measure 10
0001
0000
0100
0000
,  // measure 11
0010
0000
0001
0000
,  // measure 12
1000
0000
0000
0000
,  // measure 13
0001
0000
1000
0000
,  // measure 14
0001
0000
0000
0000
,  // measure 15
1000
0000
0010
0000
,  // measure 16
1000
0000
0000
0000
,  // measure 17
0001
0000
1000
0000
,  // measure 18
0000
0000
0001
0000
,  // measure 19
0000
0000
1001
0000
,  // measure 20
0000
0000
0000
0000
,  // measure 21
0000
0000
1001
0000
,  // measure 22
0000
0000
0110
0000
,  // measure 23
0000
0000
0000
0000
,  // measure 24
1001
0000
1001
0000
,  // measure 25
1001
0000
1001
0000
,  // measure 26
0000
0000
0000
0000
,  // measure 27
1000
0000
0001
0000
,  // measure 28
0000
0000
0000
0000
,  // measure 29
0100
0000
0010
0000
,  // measure 30
0010
0000
1000
0000
,  // measure 31
1000
0000
0001
0000
,  // measure 32
0001
0000
1000
0000
,  // measure 33
1000
0000
0001
0000
,  // measure 34
1000
0000
0010
0000
,  // measure 35
1000
0000
0001
0000
,  // measure 36
0000
0000
0001
0000
,  // measure 37
0000
0000
1000
0000
,  // measure 38
0000
0000
0001
0000
,  // measure 39
0000
0000
1000
0000
,  // measure 40
0000
0000
0010
0000
,  // measure 41
0000
0000
0100
0000
,  // measure 42
0000
0000
0001
0000
,  // measure 43
0000
0000
0100
0000
,  // measure 44
0000
0000
0100
0000
,  // measure 45
0000
0000
0010
0000
,  // measure 46
0000
0000
0010
0000
,  // measure 47
0000
0000
1000
0000
,  // measure 48
0000
0000
1000
0000
,  // measure 49
0000
0000
0001
0000
,  // measure 50
0000
0000
1000
0000
,  // measure 51
0000
0000
0010
0000
,  // measure 52
0000
0000
1000
0000
,  // measure 53
0000
0000
0001
0000
,  // measure 54
1000
0000
0000
0100
,  // measure 55
0100
0100
0100
0000
,  // measure 56
0000
0000
0000
0000
,  // measure 57
0000
0000
0000
1000
,  // measure 58
0000
0000
0000
0000
,  // measure 59
0000
0001
0001
0000
,  // measure 60
0000
0000
1000
0000
,  // measure 61
0000
0000
0010
0000
,  // measure 62
0000
0000
0001
0000
,  // measure 63
0000
0000
1000
0000
,  // measure 64
0000
0000
0001
0000
,  // measure 65
0000
0000
1000
0000
,  // measure 66
0000
0000
0001
0000
,  // measure 67
0000
0000
1000
0000
,  // measure 68
1000
0000
0010
0000
,  // measure 69
0010
0000
0100
0000
,  // measure 70
0000
0000
0001
0000
,  // measure 71
0000
0000
1000
0000
,  // measure 72
0000
0000
1000
0000
,  // measure 73
0000
0000
0001
0000
,  // measure 74
0000
0000
0001
0000
,  // measure 75
0000
0000
1000
0000
,  // measure 76
1000
0000
1000
0000
,  // measure 77
1000
0000
0100
0000
,  // measure 78
0100
0000
0100
0000
,  // measure 79
0010
0010
0010
0000
,  // measure 80
0010
0010
0010
0000
,  // measure 81
0001
0001
0001
0000
,  // measure 82
1000
1000
1000
0000
,  // measure 83
0001
0000
1000
0000
,  // measure 84
0000
0000
0000
0000
,  // measure 85
0000
0000
1001
0000
,  // measure 86
0000
0000
1001
0000
,  // measure 87
0000
0000
0000
0000
,  // measure 88
0110
0000
0110
0000
,  // measure 89
0110
0000
0110
0000
,  // measure 90
0000
0000
0000
0000
,  // measure 91
1000
0000
0001
0000
,  // measure 92
0000
0000
0000
0000
,  // measure 93
0000
0000
1000
0000
,  // measure 94
0000
0000
0000
0000
,  // measure 95
0000
0000
0001
0000
,  // measure 96
0000
0000
0000
0000
,  // measure 97
0000
0000
0010
0000
,  // measure 98
0000
0000
0000
0000
,  // measure 99
0000
0000
0100
0000
,  // measure 100
0000
0000
0000
0000
,  // measure 101
0000
0000
1000
0000
,  // measure 102
0000
0000
1001
0000
,  // measure 103
0000
0000
1001
0000
,  // measure 104
0000
0000
1000
0000
,  // measure 105
0010
0000
0100
0000
,  // measure 106
0000
0000
0001
0000
;
