#TITLE:DRAGON KILLER;
#SUBTITLE:;
#ARTIST:96 vs Mutsuhiko Izumi;
#TITLETRANSLIT:;
#SUBTITLETRANSLIT:;
#ARTISTTRANSLIT:;
#CREDIT:;
#BANNER:DRAGON KILLER.png;
#BACKGROUND:DRAGON KILLER-bg.png;
#LYRICSPATH:;
#CDTITLE:;
#MUSIC:DRAGON KILLER.mp3;
#OFFSET:-0.480;
#SAMPLESTART:49.530;
#SAMPLELENGTH:15.620;
#SELECTABLE:YES;
#BPMS:0.000=210.001;
#STOPS:;
#BGCHANGES:;

//---------------dance-single - ----------------
#NOTES:
     dance-single:
     :
     Hard:
     9:
     0.792,0.857,0.777,0.398,0.801: // measure 1
0000
0000
0000
0000
,  // measure 2
0000
0000
0000
0000
,  // measure 3
0000
0000
0000
0000
,  // measure 4
0000
0000
0000
0000
,  // measure 5
1002
0100
1003
1100
,  // measure 6
0021
0001
0100
1030
,  // measure 7
0012
0103
2010
3100
,  // measure 8
1000
0000
1000
0010
0000
0010
0001
0000
0001
0010
0000
0010
,  // measure 9
1000
0000
1000
0100
0000
0100
0001
0000
0001
0100
0000
0100
,  // measure 10
1000
0000
0001
0100
0001
0000
1000
0000
0100
1000
0100
0000
,  // measure 11
0010
0000
0001
1000
0001
0000
0100
0000
0100
0010
0000
0000
,  // measure 12
1000
0000
0001
0010
0001
0000
1000
0000
0010
0100
0010
0000
,  // measure 13
1000
0000
0001
0100
0001
0000
1000
0000
1000
0100
0000
0000
,  // measure 14
0010
0000
0010
0001
0010
0000
0100
0000
0100
1000
0100
0000
,  // measure 15
1000
0000
1000
0001
1000
0000
0001
0000
0001
0100
0000
0000
,  // measure 16
0010
0000
1000
0100
1000
0000
0100
0000
0001
0100
0001
0000
,  // measure 17
0101
0011
1010
1001
,  // measure 18
0102
0000
0000
1003
0000
0000
1100
0000
1000
0001
0000
0000
,  // measure 19
2010
0000
0000
3001
0000
0000
0011
0000
0001
1000
0000
0000
,  // measure 20
0102
0000
0000
0013
0000
0000
1100
0000
1000
0010
0000
0000
,  // measure 21
0102
0000
0000
1003
0000
0000
1100
0000
0100
0010
0000
0000
,  // measure 22
0012
0000
0000
0013
0000
0000
1010
0000
0010
1000
0000
0000
,  // measure 23
2100
0000
0000
3100
0000
0000
0101
0000
0001
0010
0000
0000
,  // measure 24
0021
0000
0000
1030
0000
0000
1010
0000
1000
0100
0000
0000
,  // measure 25
0210
0000
0000
0310
0000
0000
0011
0000
0001
1000
0001
0000
,  // measure 26
2010
0000
0000
3001
0000
0000
0011
0000
0001
1000
0000
0000
,  // measure 27
0102
0000
0000
1003
0000
0000
1100
0000
1000
0001
0000
0000
,  // measure 28
2010
0000
0000
3100
0000
0000
0011
0000
0001
0100
0000
0000
,  // measure 29
2010
0000
0000
3001
0000
0000
0011
0000
0010
0100
0000
0000
,  // measure 30
2100
0000
0000
3100
0000
0000
0101
0000
0100
0001
0000
0000
,  // measure 31
0012
0000
0000
0013
0000
0000
1010
0000
1000
0100
0000
0000
,  // measure 32
1200
0000
0000
0301
0000
0000
0101
0000
0001
0010
0000
0000
,  // measure 33
0011
0000
0010
0100
0000
0100
1000
0000
1000
0001
0000
0001
,  // measure 34
0200
0310
1010
1100
,  // measure 35
2001
3100
1002
0013
,  // measure 36
0102
0000
0000
1003
0000
0000
0001
0000
0100
0000
0010
0000
,  // measure 37
1000
0000
1000
0100
0000
0100
0010
0000
0010
0001
0000
0000
,  // measure 38
1002
0103
0101
0110
,  // measure 39
2010
3001
0012
1003
,  // measure 40
0001
0000
0001
0100
0000
0100
0010
0000
0010
1000
0000
1000
,  // measure 41
0001
0000
0001
0010
0000
0010
0100
0000
0100
1000
0000
1000
,  // measure 42
0001
0000
1000
0100
0000
0000
1000
0000
0001
0100
0000
0000
,  // measure 43
0010
0100
0010
0100
0010
0100
0001
1000
0001
1000
0000
0000
,  // measure 44
1001
0000
0000
1000
0000
1000
0010
0000
0010
0100
0000
0100
,  // measure 45
0001
0000
0001
0010
0000
0010
0100
0000
0100
1000
0000
0000
,  // measure 46
1001
0000
0000
0001
0000
0001
0100
0000
0100
1000
0000
1000
,  // measure 47
0200
0000
0000
0301
0000
0001
0010
0000
0010
1000
0000
0000
,  // measure 48
1010
0000
0010
0001
0000
0001
0100
0000
0100
0010
0000
0010
,  // measure 49
1000
0000
1000
0001
0000
0001
0100
0000
0100
0010
0000
0010
,  // measure 50
1000
0000
1000
0001
0000
0001
0100
0000
0100
0010
0000
0010
,  // measure 51
1000
0000
0001
0100
0001
1000
0002
0000
0000
0013
0000
0000
,  // measure 52
1001
0000
0000
0001
0000
0001
0100
0000
0100
1000
0000
1000
,  // measure 53
0100
0000
0100
0001
0000
0001
0020
0000
0000
1030
0000
0000
,  // measure 54
1010
0000
0000
0010
0000
0010
0001
0000
0001
0100
0000
0100
,  // measure 55
0010
0000
0010
1000
0000
1000
0001
0000
0001
1000
0000
0000
,  // measure 56
1100
0000
0000
0101
0000
0000
1000
0000
1000
0010
0000
0010
,  // measure 57
0100
0000
0100
0001
0000
0001
1000
0000
1000
0100
0000
0100
,  // measure 58
0010
0000
0010
0001
0000
0001
0100
0000
0100
0010
0000
0010
,  // measure 59
1000
0000
1000
0001
0000
0001
0100
0000
0100
0001
0000
0001
,  // measure 60
1000
0000
1000
0100
0000
0100
0010
0000
0010
0001
0000
0001
,  // measure 61
1000
0100
1000
0001
0100
0001
1000
0010
1000
0001
0000
0000
,  // measure 62
1001
0000
0000
0000
,  // measure 63
0000
0000
0000
1010
,  // measure 64
0011
0000
0000
0000
,  // measure 65
0000
0000
0000
0101
,  // measure 66
1100
0000
0000
0000
,  // measure 67
0000
0000
0000
0101
,  // measure 68
1010
0000
0000
0011
,  // measure 69
1100
0000
0000
0011
,  // measure 70
0101
0000
0000
0000
,  // measure 71
0000
0000
0000
1010
,  // measure 72
0101
0000
0000
0000
,  // measure 73
0000
0000
0000
1100
,  // measure 74
0210
0000
0310
0001
,  // measure 75
1002
0000
0103
0010
,  // measure 76
2010
0000
3100
1000
,  // measure 77
1002
0000
0103
0010
,  // measure 78
2002
0000
0000
0000
,  // measure 79
0000
0000
0000
3003
0000
0000
0110
0000
,  // measure 80
1001
0000
0001
0100
0000
0100
0010
0000
0010
1000
0000
1000
,  // measure 81
0100
0000
0100
0010
0000
0010
0001
0000
0001
0100
0000
0100
,  // measure 82
0010
0000
0010
1000
0000
1000
0100
0000
0100
0001
0000
0001
,  // measure 83
0100
0000
0100
1000
0000
1000
0010
0000
0010
0001
0000
0001
,  // measure 84
0010
0000
0010
1000
0000
1000
0100
0000
0100
0010
0000
0010
,  // measure 85
0001
0000
0001
0100
0000
0100
0010
0000
0010
1000
0000
0000
,  // measure 86
0202
0303
2020
3030
,  // measure 87
0001
0000
0001
0100
0000
0100
0010
0100
0010
1000
0010
1000
,  // measure 88
0100
0000
0100
1000
0000
1000
0001
0010
0001
1000
0000
0000
,  // measure 89
2002
0000
0000
0000
,  // measure 90
0000
0000
0000
0000
0000
0000
3003
0000
0000
0110
0000
0100
,  // measure 91
0002
0000
0003
0000
;

//---------------dance-single - ----------------
#NOTES:
     dance-single:
     :
     Beginner:
     3:
     0.236,0.426,0.133,0.000,0.000:
0000
0000
0000
0000
,
0000
0000
0000
0000
,
0000
0000
0000
0000
,
0000
0000
0000
0000
,
1000
0000
0000
0100
,
0100
0000
0000
0010
,
0010
0000
0001
0000
,
1000
0000
0000
0000
,
0001
0000
0001
0000
,
0100
0000
0000
0000
,
0010
0000
0010
0000
,
0010
0000
0000
0000
,
1000
0000
1000
0000
,
1000
0000
0000
0000
,
0001
0000
0001
0000
,
0001
0000
0000
0000
,
0100
0000
0100
0000
,
0100
0000
0100
0000
,
0010
0000
0010
0000
,
1000
0000
1000
0000
,
0001
0000
0000
0000
,
1000
0000
1000
0000
,
0100
0000
0100
0000
,
0010
0000
0010
0000
,
0001
0000
0000
0000
,
1000
0000
1000
0000
,
0010
0000
0010
0000
,
0001
0000
0001
0000
,
0010
0000
0000
0000
,
1000
0000
1000
0000
,
0100
0000
0100
0000
,
0001
0000
0001
0000
,
0100
0000
0000
0000
,
1000
0000
0010
0010
,
0010
0000
0100
0000
,
0001
0000
0001
0000
,
1000
0000
1000
0000
,
0100
0000
0010
0010
,
0010
0000
0001
0001
,
0001
0000
1000
0000
,
0010
0000
0100
0000
,
0001
0000
1000
0000
,
0001
0001
0001
0001
,
1000
0000
0010
0000
,
1000
0000
0010
0000
,
0100
0000
0001
0000
,
0100
0000
0001
0000
,
1000
0000
0100
0000
,
1000
0000
0100
0000
,
0010
0000
0001
0000
,
0010
0000
0001
0000
,
0100
0000
0010
0000
,
1000
0000
0001
0000
,
0010
0000
0001
0000
,
1000
0000
0100
0000
,
1000
0000
0010
0000
,
0100
0000
0001
0000
,
1000
0000
0100
0000
,
0010
0000
0001
0000
,
1000
0000
0010
0000
,
0100
0000
0001
0000
,
1001
0000
0000
0000
,
0000
0000
0000
0000
,
0110
0000
0000
0000
,
0000
0000
0000
0000
,
1100
0000
0000
0000
,
0000
0000
0000
0000
,
0011
0000
0000
0000
,
0101
0000
0000
0000
,
1010
0000
0000
0000
,
0000
0000
0000
0000
,
0101
0000
0000
0000
,
0000
0000
0000
0000
,
1010
0000
0000
0000
,
0101
0000
0000
0000
,
0011
0000
0000
0000
,
1100
0000
0000
0000
,
1001
0000
0000
0000
,
0000
0000
0000
0000
,
1000
1000
1000
1000
,
0001
0001
0001
0001
,
0100
0100
0100
0100
,
0010
0010
0010
0010
,
1000
1000
1000
1000
,
0100
0100
0100
0100
,
0010
0010
0010
0010
,
0001
0001
0001
0001
,
1000
1000
1000
1000
,
1001
0000
0000
0000
,
0000
0000
0000
0000
,
0110
0000
0000
0000
;

//---------------dance-single - ----------------
#NOTES:
     dance-single:
     :
     Easy:
     5:
     0.436,0.512,0.161,0.370,0.019:
0000
0000
0000
0000
,
0000
0000
0000
0000
,
0000
0000
0000
0000
,
0000
0000
0000
0000
,
1000
0100
1000
0100
,
0010
0001
0010
0001
,
0100
0100
0010
0010
,
1000
0001
0010
0001
,
1000
0100
1000
0001
,
0100
0100
0010
0010
,
1000
0000
0000
1000
0000
0000
0001
0000
1000
0000
0000
0000
,
0001
0001
0100
0100
,
0010
0000
0000
0010
0000
0000
1000
0000
0001
0000
0000
0000
,
1000
1000
0100
0100
,
0010
0000
0000
0010
0000
0000
0001
0000
0100
0000
0000
0000
,
0010
0010
1000
1000
,
0100
0000
0000
0100
0000
0000
0010
0000
0001
0000
0000
0000
,
0200
0300
0020
0030
,
2000
3000
0002
0003
,
2000
3000
0200
0300
,
0010
0001
0100
0001
,
2000
3000
0020
0030
,
0002
0003
0020
0030
,
2000
3000
0200
0300
,
0001
0001
0001
0001
,
0200
0300
2000
3000
,
0020
0030
0200
0300
,
0002
0003
2000
3000
,
0100
0010
0001
0010
,
0200
0300
2000
3000
,
0020
0030
0200
0300
,
0002
0003
2000
3000
,
0001
0010
0100
1000
,
0002
0003
0100
0010
,
2000
3000
0002
0003
,
0100
0010
1000
0010
,
0100
0001
1000
0100
,
0020
0030
0001
0100
,
2000
3000
0100
0001
,
0010
0001
0100
0001
,
1000
0100
1000
0010
,
0200
0301
0002
1003
,
0001
0100
0010
1000
,
1001
1000
0010
0001
,
0010
1000
0100
0001
,
0100
1000
0010
0100
,
0010
1000
0100
0010
,
0100
1000
0001
0010
,
0001
0100
0010
1000
,
0100
1000
0001
0010
,
0001
0100
0010
1000
,
1001
1000
0010
0001
,
0100
0001
0010
1000
,
0100
1000
0010
0001
,
0100
1000
0010
0001
,
0100
0010
1000
0100
,
1000
0001
0010
0001
,
0100
0010
1000
0010
,
0100
0001
1000
0100
,
0010
0010
0001
0001
,
0100
0100
0010
0010
,
1001
0000
0000
0000
,
0000
0000
0000
1000
,
1100
0000
0000
0000
,
0000
0000
0000
0010
,
0011
0000
0000
0000
,
0000
0000
0000
0001
,
0101
0000
0000
0010
,
1010
0000
0000
1000
,
1100
0000
0000
0000
,
0000
0000
0000
0010
,
0011
0000
0000
0000
,
0000
0000
0000
0001
,
0102
0000
1003
0100
,
2100
0000
3001
0100
,
0120
0000
1030
0001
,
0102
0000
1003
0100
,
2002
0000
0000
0000
,
0000
0000
3003
0110
,
0010
1000
0100
0001
,
0100
1000
0010
0001
,
0010
1000
0100
1000
,
0001
0010
0001
0100
,
0010
1000
0100
0001
,
0100
1000
0010
0001
,
0010
1000
0100
0010
,
0001
0001
1000
1000
,
0010
0100
0001
1000
,
2002
0000
0000
0000
,
0000
0000
3003
0010
,
0110
0000
0000
0000
;

//---------------dance-single - ----------------
#NOTES:
     dance-single:
     :
     Medium:
     7:
     0.619,0.686,0.730,0.313,0.256: // measure 1
0000
0000
0000
0000
,  // measure 2
0000
0000
0000
0000
,  // measure 3
0000
0000
0000
0000
,  // measure 4
0000
0000
0000
0000
,  // measure 5
1100
0100
0010
0011
,  // measure 6
0101
0001
0100
0010
,  // measure 7
1010
0001
0011
1000
,  // measure 8
0001
0001
0100
0100
,  // measure 9
0010
0010
1000
1000
,  // measure 10
0001
0000
0000
1000
0000
1000
0100
0000
0000
0010
0000
0010
,  // measure 11
0001
0000
0000
1000
0000
1000
0001
0000
0001
0100
0000
0000
,  // measure 12
0010
0000
0000
1000
0000
1000
0100
0000
0000
0010
0000
0010
,  // measure 13
0001
0000
0000
1000
0000
1000
0001
0000
0001
0100
0000
0000
,  // measure 14
0010
0000
0000
1000
0000
1000
0100
0000
0000
0001
0000
0001
,  // measure 15
0100
0000
0000
1000
0000
1000
0010
0000
0010
0001
0000
0000
,  // measure 16
0010
0000
0000
1000
0000
1000
0100
0000
0000
0010
0000
0010
,  // measure 17
0002
0203
0320
1030
,  // measure 18
1100
0100
0110
0010
,  // measure 19
0011
0001
0101
0100
,  // measure 20
0110
0010
1010
1000
,  // measure 21
1001
0000
0000
1000
0000
0000
0010
0000
0010
0100
0000
0000
,  // measure 22
0101
0001
0011
0010
,  // measure 23
0110
0100
1100
1000
,  // measure 24
1010
0010
0110
0100
,  // measure 25
0101
0000
0000
0001
0000
0000
1000
0000
1000
0010
0000
0000
,  // measure 26
0110
0100
0101
0001
,  // measure 27
0011
0010
0110
0100
,  // measure 28
1100
1000
1001
0001
,  // measure 29
0101
0000
0000
0100
0000
0000
0010
0000
0010
1000
0000
0000
,  // measure 30
1010
1000
1100
0100
,  // measure 31
0110
0010
0011
0001
,  // measure 32
1001
1000
1010
0010
,  // measure 33
0110
0000
0000
0100
0000
0100
0001
0000
0001
1000
0000
0000
,  // measure 34
2010
3100
2000
3020
,  // measure 35
0230
0301
2000
3100
,  // measure 36
0011
0000
0000
0001
0000
0000
0100
0000
0100
0010
0000
0000
,  // measure 37
1000
0000
0000
0001
0000
0000
1000
0000
1000
0100
0000
0000
,  // measure 38
0210
0310
0002
0203
,  // measure 39
0320
1030
0002
2003
,  // measure 40
3200
0310
0002
1003
,  // measure 41
0020
0130
0002
1003
,  // measure 42
0102
1003
2100
3001
,  // measure 43
1000
0000
1000
0001
0000
0001
1000
0000
1000
0001
0000
0000
,  // measure 44
1001
0000
0000
1000
0000
0000
0010
0000
0010
0100
0000
0000
,  // measure 45
0001
0000
0000
0010
0000
0000
0100
0000
0100
1000
0000
0000
,  // measure 46
1001
0000
0000
0001
0000
0000
0010
0000
0010
0001
0000
0000
,  // measure 47
0100
0000
0000
0010
0000
0000
1000
0000
1000
0100
0000
0000
,  // measure 48
0011
0000
0000
0001
0000
0000
0100
0000
0100
0010
0000
0000
,  // measure 49
1000
0000
0000
0001
0000
0000
0010
0000
0010
0100
0000
0000
,  // measure 50
1100
0000
0000
1000
0000
0000
0010
0000
0010
0100
0000
0000
,  // measure 51
0001
0000
0000
1000
0000
0000
0100
0000
0100
0010
0000
0000
,  // measure 52
1001
0000
0000
0001
0000
0000
0100
0000
0100
0010
0000
0000
,  // measure 53
1000
0000
0000
0100
0000
0000
0010
0000
0010
0001
0000
0000
,  // measure 54
1001
0000
0000
1000
0000
0000
0100
0000
0100
1000
0000
0000
,  // measure 55
0010
0000
0000
0100
0000
0000
0001
0000
0001
0010
0000
0000
,  // measure 56
1100
0000
0000
1000
0000
0000
0010
0000
0010
0100
0000
0000
,  // measure 57
0001
0000
0000
1000
0000
0000
0100
0000
0100
0010
0000
0000
,  // measure 58
0011
0000
0000
0001
0000
0000
0100
0000
0100
0010
0000
0000
,  // measure 59
1000
0000
0000
0001
0000
0000
0010
0000
0010
0100
0000
0000
,  // measure 60
1000
0000
1000
0001
0000
0000
0100
0000
0100
0010
0000
0000
,  // measure 61
1000
0000
1000
0100
0000
0100
0010
0000
0010
0001
0000
0000
,  // measure 62
1001
0000
0000
0000
,  // measure 63
0000
0000
0000
1010
,  // measure 64
0101
0000
0000
0000
,  // measure 65
0000
0000
0000
0011
,  // measure 66
1100
0000
0000
0000
,  // measure 67
0000
0000
0000
0110
,  // measure 68
1001
0000
0000
0101
,  // measure 69
1010
0000
0000
1100
,  // measure 70
0011
0000
0000
0000
,  // measure 71
0000
0000
0000
0101
,  // measure 72
1010
0000
0000
0000
,  // measure 73
0000
0000
0000
1100
,  // measure 74
1002
0000
0103
0010
,  // measure 75
2010
0000
3100
0010
,  // measure 76
0012
0000
0103
0010
,  // measure 77
2010
0000
3100
1000
,  // measure 78
2002
0000
0000
0000
,  // measure 79
0000
0000
3003
0110
,  // measure 80
0010
0000
0000
1010
0000
0000
0010
0000
0010
0100
0000
0000
,  // measure 81
0001
0000
0000
1001
0000
0000
1000
0000
1000
0100
0000
0000
,  // measure 82
0010
0000
0000
0011
0000
0000
0001
0000
0001
0100
0000
0000
,  // measure 83
0010
0000
0000
1010
0000
0000
1000
0000
1000
0001
0000
0000
,  // measure 84
1000
0000
0000
1100
0000
0000
0100
0000
0010
0001
0000
0000
,  // measure 85
0100
0000
0000
0101
0000
0000
0100
0000
0010
1000
0000
0000
,  // measure 86
0202
0303
2020
3030
,  // measure 87
1001
0000
0000
0001
0000
0000
0100
0000
0100
0010
0000
0000
,  // measure 88
1001
0000
0000
1000
0000
0000
0100
0000
0100
0010
0000
0000
,  // measure 89
2002
0000
0000
0000
,  // measure 90
0000
0000
0000
0000
0000
0000
3003
0000
0000
1000
0000
1000
,  // measure 91
0020
0000
0030
0000
;
