#TITLE:Cascabel;
#SUBTITLE:;
#ARTIST:Chingon;
#TITLETRANSLIT:;
#SUBTITLETRANSLIT:;
#ARTISTTRANSLIT:;
#CREDIT:;
#BANNER:;
#BACKGROUND:;
#LYRICSPATH:;
#CDTITLE:;
#MUSIC:Cascabel.mp3;
#OFFSET:-0.548;
#SAMPLESTART:7.200;
#SAMPLELENGTH:11.720;
#SELECTABLE:YES;
#BPMS:0.000=142.667;
#STOPS:103.000=1.121
,107.000=1.121
,111.000=1.121
;
#BGCHANGES:;

//---------------dance-single - ----------------
#NOTES:
     dance-single:
     :
     Hard:
     9:
     0.687,0.701,0.015,0.089,1.000: // measure 1
0000
0000
0000
0000
,  // measure 2
0000
0000
0000
0000
,  // measure 3
0000
0000
0000
0000
,  // measure 4
0000
0000
0000
0000
,  // measure 5
0010
0000
0010
1000
0000
1000
0100
0000
0100
0010
0000
0010
,  // measure 6
0001
0000
0001
0100
0000
0100
0001
0000
0001
0010
0000
0010
,  // measure 7
0100
0000
0100
1000
0000
1000
0010
0000
0010
1000
0000
1000
,  // measure 8
0100
0000
0100
0010
0000
0010
0001
0000
0001
0100
0000
0100
,  // measure 9
0001
0000
1000
0100
1000
0100
0010
0000
0010
0001
1000
0000
,  // measure 10
1000
0000
0001
0100
0001
0100
0010
0000
0010
1000
0001
0000
,  // measure 11
0001
0000
1000
0010
1000
0010
0100
0000
0100
0001
1000
0000
,  // measure 12
1000
0000
0001
0010
0001
0010
0100
0000
0100
1000
0001
0000
,  // measure 13
0001
0000
1000
0100
0000
0100
0010
0001
0010
0100
1000
0001
,  // measure 14
2000
0100
0001
3010
,  // measure 15
1000
0000
0001
0100
0000
0100
0010
1000
0010
0100
0001
1000
,  // measure 16
0002
0010
1000
0103
,  // measure 17
0011
0000
0000
1000
0000
0001
0100
0000
0010
0000
1000
0001
,  // measure 18
1000
0000
0000
0100
0000
0010
0100
0000
1000
0000
0001
1000
,  // measure 19
0001
0000
0000
1000
0000
0010
0100
0000
0001
0000
1000
0100
,  // measure 20
1000
0000
0000
0001
0000
0010
0100
0000
1000
0000
0001
0100
,  // measure 21
0001
0000
1000
0000
0001
0000
1000
0000
0100
0010
0000
0100
,  // measure 22
0010
0000
0000
0001
0000
1000
0010
0000
1000
0000
0010
0100
,  // measure 23
0010
0000
0000
0000
0100
0001
0100
0000
0010
1000
0000
1000
,  // measure 24
0001
0000
0001
0010
0000
0010
0100
0000
0100
1000
0000
1000
,  // measure 25
0001
1000
0100
0010
,  // measure 26
0001
0100
0010
1000
0001
0100
0000
0000
0010
1000
0000
0100
,  // measure 27
0010
0001
1000
0100
0010
0001
0000
0000
1000
0100
0000
0010
,  // measure 28
0001
0100
0010
1000
0100
0010
0000
0000
0001
1000
0001
0100
,  // measure 29
0010
0000
0010
1000
0000
1000
0100
0000
0100
0001
0000
0001
,  // measure 30
1000
0000
1000
0001
0000
0001
0100
0000
0100
1000
0000
1000
,  // measure 31
0010
0000
0010
0100
0000
0100
0001
0000
0001
0010
0000
0010
,  // measure 32
0001
0000
0001
0100
0000
0100
0010
0000
0010
1000
0000
1000
,  // measure 33
0100
0010
0001
1000
0100
0010
0001
1000
0100
0010
0001
1000
,  // measure 34
0100
0010
0100
1000
0001
0010
0100
1000
0001
0010
0100
1000
,  // measure 35
0010
0100
0001
1000
0010
0100
0001
1000
0010
0100
0001
1000
,  // measure 36
0010
1000
0000
0000
0001
0100
0000
0000
0010
1000
0000
0000
0001
0100
0000
0000
0001
1000
0000
0000
0100
1000
0000
0000
,  // measure 37
0001
0010
0000
0000
0100
1000
0000
0000
0001
0010
0000
0000
0100
1000
0000
0000
0001
1000
0000
0000
0010
0100
0000
0000
,  // measure 38
0001
1000
0000
0000
0010
0100
0000
0000
0001
1000
0000
0000
0010
0100
0000
0000
0001
1000
0000
0000
0001
0010
0000
0000
,  // measure 39
0100
1000
0001
1000
0001
0010
0001
1000
0010
1000
0001
0100
,  // measure 40
0001
1000
0100
1000
0001
0010
0001
1000
0010
1000
0001
0100
,  // measure 41
0001
1000
0100
1000
0001
0010
0001
0010
0100
0010
0100
1000
,  // measure 42
0100
1000
0001
1000
0010
0100
0010
0100
0001
0100
0001
1000
,  // measure 43
0001
0000
0100
0010
0000
0000
1000
0000
0100
0010
0000
0000
,  // measure 44
0001
0000
1000
0010
0000
0000
0100
0000
0001
0010
0000
0000
,  // measure 45
0100
0000
0100
1000
0000
1000
0010
0000
0010
1000
0000
1000
,  // measure 46
0001
0000
0001
0010
0000
0010
0100
0000
0100
0010
0000
0010
,  // measure 47
0001
1000
0001
0100
0000
0000
0010
1000
0001
0100
0000
0000
,  // measure 48
0010
1000
0100
0010
0000
0000
0100
0010
0001
0100
0000
0000
,  // measure 49
0001
1000
0010
0100
0000
0000
0001
0010
0100
1000
0000
0000
,  // measure 50
1000
0001
0010
0100
0000
0000
0010
0100
1000
0001
0000
0000
,  // measure 51
2000
3020
0230
0302
,  // measure 52
2003
3200
0320
0032
,  // measure 53
1003
0010
0000
0000
1000
0010
0000
0000
0100
0001
0000
0000
0100
0001
0000
0000
1000
0001
0000
0000
1000
0001
0000
0000
,  // measure 54
0010
0001
0000
0000
0010
0001
0000
0000
0010
0100
0000
0000
0010
0100
0000
0000
1000
0100
0000
0000
1000
0100
0000
0000
,  // measure 55
0010
0001
0010
0001
1000
0010
1000
0010
1000
0001
0100
0001
,  // measure 56
0100
0001
1000
0100
1000
0100
0010
0001
0010
0001
1000
0001
,  // measure 57
1000
0010
1000
0010
1000
0001
0100
0001
0100
0001
1000
0001
,  // measure 58
1000
0010
1000
0010
1000
0001
0100
0001
0100
0001
1000
0001
,  // measure 59
1000
0001
0010
0001
0010
0100
0010
0100
1000
0100
1000
0100
,  // measure 60
0010
0001
0010
0001
1000
0001
1000
0001
1000
0010
1000
0010
,  // measure 61
1000
0000
0001
0100
0001
1000
0010
0000
1000
0100
0010
0001
,  // measure 62
1000
0000
0001
0010
0100
1000
0010
0000
1000
0100
0010
0001
,  // measure 63
1000
0000
0001
0010
0001
0010
0100
0000
0010
0100
0010
0100
,  // measure 64
1000
0000
0100
1000
0100
1000
0010
0000
1000
0001
1000
0010
,  // measure 65
0100
0000
0100
0001
0000
0001
0010
0000
0010
0100
0000
0100
,  // measure 66
1000
0000
1000
0010
0000
0010
1000
0000
1000
0100
0000
0100
,  // measure 67
0010
0000
0010
0001
0000
0001
0100
0000
0100
0001
0000
0001
,  // measure 68
0010
0000
0010
0100
0000
0100
1000
0000
1000
0010
0000
0010
,  // measure 69
1000
0000
0001
0010
0001
0010
0100
0000
0100
1000
0001
0000
,  // measure 70
0001
0000
1000
0010
1000
0010
0100
0000
0100
0001
1000
0000
,  // measure 71
1000
0000
0001
0100
0001
0100
0010
0000
0010
1000
0001
0000
,  // measure 72
0001
0000
1000
0100
1000
0100
0010
0000
0010
0001
1000
0000
,  // measure 73
1000
0000
0001
0010
0000
0010
0100
1000
0100
0010
0001
1000
,  // measure 74
0002
0010
1000
0103
,  // measure 75
0001
0000
1000
0010
0000
0010
0100
0001
0100
0010
1000
0001
,  // measure 76
2000
0100
0001
3010
,  // measure 77
1001
0000
0000
0000
;

//---------------dance-single - ----------------
#NOTES:
     dance-single:
     :
     Medium:
     6:
     0.422,0.477,0.007,0.207,0.546:
0000
0000
0000
0000
,
0000
0000
0000
0000
,
0000
0000
0000
0000
,
0000
0000
0000
0000
,
1000
0000
0000
0001
0000
1000
0001
0000
0000
0000
0000
0000
,
1000
0000
0000
0100
0000
1000
0100
0000
0000
0000
0000
0000
,
0010
0000
0000
0001
0000
0010
0001
0000
0000
0000
0000
0000
,
1000
0000
0000
0010
0000
1000
0010
0000
0000
0000
0000
0000
,
0100
0000
0001
0100
0000
0000
0001
0000
1000
0001
0000
0000
,
1000
0000
0100
1000
0000
0000
0100
0000
0010
0100
0000
0000
,
0010
0000
0001
0010
0000
0000
0001
0000
1000
0001
0000
0000
,
1000
0000
0010
1000
0000
0000
0001
0000
0010
0001
0000
0000
,
1000
0000
0001
0100
0000
0001
1000
0000
0001
0100
0000
0001
,
0020
0000
0100
0130
,
1000
0000
0100
0010
0000
0100
1000
0000
0001
1000
0000
0100
,
0020
0000
0100
0130
,
0010
0000
0000
0000
0000
0000
0001
0000
1000
0000
0100
0000
,
0010
0000
0000
0000
0000
0000
0001
0000
1000
0000
0010
0000
,
0100
0000
0000
0000
0000
0000
0001
0000
0010
0000
0001
0000
,
1000
0000
0000
0000
0000
0000
0010
0000
1000
0000
0010
0000
,
0100
0000
0000
0000
0000
0000
0001
0000
0010
0000
0100
0000
,
1000
0000
0000
0000
0000
0000
0001
0000
1000
0000
0010
0000
,
1000
0000
0000
0000
0000
0000
0001
0000
0010
0000
0001
0000
,
1000
0000
0000
0000
0000
0000
0100
0000
0010
0000
0001
0000
,
1000
0000
0000
0000
0000
0000
0010
0000
0100
0000
0010
0000
,
0000
1000
0001
0100
0001
0000
0000
0000
0100
0001
0000
0000
,
0000
0000
1000
0001
1000
0100
0000
0000
1000
0100
0000
0000
,
0000
0000
0010
0100
0010
0100
0000
0000
0010
0100
1000
0001
,
0100
0000
0000
0010
0000
0010
1000
0000
0000
1000
0000
0001
,
0100
0000
0000
0100
0000
0010
1000
0000
0000
1000
0000
0100
,
0010
0000
0000
0010
0000
0001
1000
0000
0000
1000
0000
0001
,
0010
0000
0000
0010
0000
0010
0100
0000
0000
0100
0000
1000
,
0002
0203
2300
3200
,
0302
0023
0230
2300
,
3020
0032
2003
3200
,
0301
0000
0010
0000
0001
0000
1000
0000
0100
0000
0010
0000
,
0001
0000
1000
0000
0010
0000
0100
0000
0001
0000
1000
0000
,
0010
0000
0100
0000
0001
0000
1000
0000
0100
0000
0010
0000
,
0002
0000
0000
0000
2003
0000
0000
0000
3020
0000
0000
0000
,
0230
0000
0000
0000
0302
0000
0000
0000
2003
0000
0000
0000
,
3100
0000
0010
0000
0001
0000
0100
0000
0010
0000
1000
0000
,
0001
0000
1000
0000
0100
0000
0010
0000
0001
0000
1000
0000
,
0020
0000
0230
0000
,
0302
0000
2003
0000
,
3100
0010
0001
0100
,
0001
1000
0010
0100
,
0001
0000
1000
0100
0000
0000
0010
0000
0100
1000
0000
0000
,
0010
0000
0100
0001
0000
0000
0010
0000
0001
0100
0000
0000
,
0010
1000
0010
1000
0000
0000
0001
0100
0001
0100
0000
0000
,
0001
1000
0001
1000
0000
0000
0100
1000
0100
1000
0000
0000
,
0002
0000
0000
0000
,
2003
0000
0000
0000
,
3010
0000
0100
0000
0001
0000
0010
0000
0100
0000
1000
0000
,
0001
0000
0100
0000
0010
0000
1000
0000
0001
0000
1000
0000
,
0100
0000
0010
0001
0000
0000
0100
0000
0010
1000
0000
0000
,
0100
0000
0010
0001
0000
0000
0100
0000
0010
1000
0000
0000
,
0001
0100
0001
0100
0000
0000
0010
1000
0010
1000
0000
0000
,
0100
1000
0100
1000
0000
0000
0001
0010
0001
0010
0000
0000
,
0100
0000
0100
1000
0000
0000
1000
0000
0001
0100
0000
0000
,
0100
0000
0001
1000
0000
0000
1000
0000
0100
0010
0000
0000
,
0010
0000
0000
0001
1000
0001
1000
0000
0000
0010
0000
0000
,
0100
0000
0000
0001
1000
0001
1000
0000
0000
0100
0000
0000
,
0010
0000
0000
0001
1000
0001
1000
0000
0000
0010
0000
0000
,
0100
0000
0000
0001
1000
0001
1000
0000
0000
0001
0000
0000
,
1000
0000
0000
0001
0000
1000
0001
0000
0000
0000
0000
0000
,
1000
0000
0000
0100
0000
1000
0100
0000
0000
0000
0000
0000
,
0010
0000
0000
0001
0000
0010
0001
0000
0000
0000
0000
0000
,
1000
0000
0000
0010
0000
1000
0010
0000
0000
0000
0000
0000
,
0100
0000
0001
0100
0000
0000
0001
0000
1000
0001
0000
0000
,
1000
0000
0100
1000
0000
0000
0100
0000
0010
0100
0000
0000
,
0010
0000
0001
0010
0000
0000
0001
0000
1000
0001
0000
0000
,
1000
0000
0010
1000
0000
0000
0001
0000
0010
0001
0000
0000
,
1000
0000
0001
0100
0000
0001
1000
0000
0001
0100
0000
0001
,
0020
0000
0100
0130
,
1000
0000
0100
0010
0000
0100
1000
0000
0001
1000
0000
0100
,
0020
0000
0100
0130
,
0110
0000
0000
0000
;

//---------------dance-single - ----------------
#NOTES:
     dance-single:
     :
     Easy:
     3:
     0.216,0.252,0.052,0.059,0.000:
0000
0000
0000
0000
,
0000
0000
0000
0000
,
0000
0000
0000
0000
,
0000
0000
0000
0000
,
1000
0001
0010
0000
,
0010
0001
1000
0000
,
0010
0100
0001
0000
,
0001
1000
0100
0000
,
0010
0100
0010
0100
,
1000
0001
1000
0001
,
0100
0010
0100
0010
,
1000
0001
1000
0001
,
0100
0000
0010
0000
,
2000
0000
0000
3000
,
0001
0000
1000
0000
,
0020
0000
0000
0030
,
0100
0000
0101
0000
,
0001
0000
1001
0000
,
1000
0000
1100
0000
,
0100
0000
0110
0000
,
0001
0100
0010
1000
,
0001
0000
1000
0010
,
0100
0000
0001
0010
,
0100
0000
1000
0001
,
0100
0000
0010
0000
,
1000
0000
0000
1001
,
0000
0000
0000
1001
,
0000
0000
0000
1001
,
1000
0100
1000
0000
,
0010
1000
0010
0000
,
0100
0001
0100
0000
,
0001
0010
0001
0000
,
0010
0000
0000
0000
,
0100
0000
0000
0000
,
1000
0000
0000
0000
,
0010
0100
0010
0100
,
0001
1000
0001
1000
,
0100
0010
0100
0010
,
0001
0000
0000
0000
,
0100
0000
0000
0000
,
0010
0000
0000
0000
,
1000
0000
0000
0000
,
0100
0010
0001
0010
,
0100
1000
0100
0010
,
0001
0100
0010
1000
,
0010
0100
0001
0100
,
0010
0000
0000
0000
,
1000
0000
0000
0000
,
0001
0000
0000
0000
,
0010
0000
0000
0000
,
2000
0000
0000
3000
,
0002
0000
0000
0003
,
0200
0000
0000
0300
,
0020
0000
0000
0030
,
1000
0100
1000
0100
,
0010
0001
0010
0001
,
0100
0001
0100
0001
,
1000
0010
1000
0010
,
0100
0001
1000
0100
,
0010
0001
1000
0010
,
0100
0001
0010
0100
,
1000
0001
0100
0010
,
1000
0001
0010
0001
,
0010
0100
1000
0010
,
1000
0001
0010
0000
,
0010
0001
1000
0000
,
0010
0100
0001
0000
,
0001
1000
0100
0000
,
0010
0100
0010
0100
,
1000
0001
1000
0001
,
0100
0010
0100
0010
,
1000
0001
1000
0001
,
0100
0000
0010
0000
,
2000
0000
0000
3000
,
0001
0000
1000
0000
,
0020
0000
0000
0030
;
