#TITLE:Bodhisattva;
#SUBTITLE:;
#ARTIST:Steely Dan;
#TITLETRANSLIT:;
#SUBTITLETRANSLIT:;
#ARTISTTRANSLIT:;
#CREDIT:;
#BANNER:;
#BACKGROUND:bodhisattva.bg.png;
#LYRICSPATH:;
#CDTITLE:;
#MUSIC:Bodhisattva v2.mp3;
#OFFSET:-0.080;
#SAMPLESTART:55.120;
#SAMPLELENGTH:12.000;
#SELECTABLE:YES;
#BPMS:0.000=235.281;
#STOPS:118.502=0.383
;
#BGCHANGES:;

//---------------dance-single - ----------------
#NOTES:
     dance-single:
     :
     Hard:
     9:
     0.672,0.812,0.300,0.120,0.097:
0000
0000
0000
0000
,
0000
0000
0000
0000
,
0000
0000
0000
0000
,
0000
0000
0000
0000
,
1000
0000
0000
0000
0000
0100
0000
0000
0000
0000
0010
0000
,
0000
0000
0000
0000
0000
0000
0001
0000
0000
0000
0000
0000
0001
0000
0100
0000
0000
0000
0000
0000
0000
0010
0000
0000
,
0000
1000
0000
1010
0000
0000
1001
0000
,
0000
0110
0000
0000
0011
0000
0001
0010
,
0000
0001
0000
0010
0000
0100
0000
1000
,
0000
0000
0000
0010
0000
0000
0000
0001
0000
0000
0000
0010
0000
0000
0000
1000
0000
0000
0000
0100
0000
0000
0000
0010
,
0000
0002
0000
1000
0000
0000
0000
1000
,
0000
0000
0000
1003
0000
0000
0000
0001
,
1000
0001
0010
0100
,
1000
0000
0000
0000
0000
0000
1000
0000
0000
0000
0000
0001
0000
0000
0000
0100
0000
0000
0000
0010
0000
0000
0000
1000
,
0000
0000
0000
0100
0000
0000
0000
0010
0000
0000
0000
0000
0000
0001
0000
0000
0000
0000
0000
0000
0000
0011
0000
0000
,
0000
0000
0101
0000
0000
0110
0000
1000
,
0100
0010
0001
0100
,
1000
0100
0001
0010
,
0001
0010
0001
0000
0100
0000
0010
0000
,
1000
0000
1000
0100
0000
0010
0000
0010
,
0001
0000
0020
0000
0000
0130
0000
0000
,
0000
0000
0000
0000
0000
0000
0000
0000
0000
1000
0000
0000
0000
0100
0000
0000
0000
0010
0000
0000
0000
0001
0000
0000
,
0000
0010
0000
0000
0000
0100
0000
0000
0000
2000
0000
0000
0000
0000
0000
0002
0000
0000
0000
0000
0000
0000
0000
0000
,
0000
3003
0000
1000
0001
0000
1001
0000
,
0001
0100
0000
0100
0000
1000
0000
0100
,
0000
0001
0000
0010
0000
1000
0000
0010
,
0000
0000
0000
0001
0000
0000
0000
0000
0000
1000
0000
0000
0000
0000
0000
0100
0000
0010
0000
0000
0000
0200
0000
0000
,
0000
0000
0000
0310
0000
0000
0000
1001
,
0000
0000
0000
0000
0000
0000
0000
0000
0000
0000
0000
0000
1000
0000
0000
0000
0000
0100
0000
0000
0000
0010
0000
0000
,
0000
0002
0000
0000
0000
0000
0000
0000
0000
0000
0000
0000
0000
1003
0000
0000
0000
0000
0000
0000
0000
1000
0000
0000
,
0000
0100
0000
0010
0000
0001
0100
0000
,
0010
1100
0010
0101
,
0001
0000
0010
0000
0100
0000
0000
1000
,
0000
0000
0001
0000
0000
0001
1000
0000
,
0100
0000
0010
0000
0000
0001
0010
0000
,
0001
0000
0100
0000
0010
0000
1000
0100
,
0000
0010
0000
0001
0000
0000
0000
1000
,
0000
0000
0001
0000
0000
0100
0010
0000
,
1000
0100
0000
0100
0000
0010
0000
0001
,
0100
0000
0000
0010
0000
0000
0100
0001
,
0000
1000
0000
1000
0001
0000
1000
0100
,
0000
0100
0000
0010
0000
0001
0000
0101
,
0000
0110
0000
0010
0000
0010
1000
0100
,
0000
0100
0010
0000
0001
0100
0000
0101
,
0000
0001
0000
0000
1000
0100
0000
1100
,
0000
1000
0000
0000
0000
0100
0000
0000
,
0000
0001
0000
0000
0100
0010
0000
0010
,
0000
0000
0000
0001
0000
0000
0000
0000
0000
0001
0000
0000
0000
0000
0000
0001
0000
0000
0000
0100
0000
0000
0000
0000
,
0000
1000
0000
0000
0000
1000
0000
0000
,
0000
1000
0000
0000
0000
0100
0010
0000
,
0010
0000
0100
0000
0000
0101
0000
0000
,
0110
0000
0000
0000
1100
0000
0000
1001
,
0000
1000
0100
0010
,
0001
0000
0000
0110
0000
0001
0100
0000
,
0010
0000
0000
1000
0100
1000
0010
0100
,
0001
0010
0100
1000
0010
0100
0010
0100
,
0001
0010
0100
1000
0010
0100
0010
0100
,
0010
1000
0100
0010
0001
1000
0001
1000
,
0001
1000
0100
0010
0001
0010
0100
1000
,
0001
0010
0100
1000
0100
0010
0001
0000
,
1001
0000
0000
0000
0000
1000
0001
0000
,
1001
0000
0000
0000
,
1001
0000
0000
1000
0000
0100
0010
0000
,
0001
0000
0000
0001
0000
0100
0010
0000
,
1000
0100
0000
0100
0010
0000
0010
0001
0000
0001
0100
0000
,
0100
0010
0000
0010
1000
0000
1000
0100
0000
0100
0010
0000
,
0000
0001
0000
0000
0010
0000
1000
0001
,
0000
0000
0001
0000
0000
0010
0000
1000
,
0100
0000
0100
0000
0000
0010
0000
0001
,
0100
0000
0010
0000
0000
0100
0000
0001
,
1000
0000
1100
0000
0000
0010
0000
0100
,
0001
0000
0011
0000
0000
0100
0000
0010
,
0000
1000
1001
0000
0000
0001
0000
0100
,
0000
0010
1010
0000
0000
1000
0000
0001
,
0100
0000
0000
1000
0100
1000
0010
0100
,
0001
0010
0000
0100
0000
1000
0000
0010
,
0000
0100
0001
0010
0100
0000
1000
0001
,
0100
0001
0000
1000
0100
1000
0000
0001
,
0000
0010
0001
1000
0000
1000
0100
0010
,
0001
0010
0100
1000
0001
0000
0010
0000
,
0100
1000
0100
0001
,
1000
0010
0001
0100
,
1000
0000
0100
0000
0001
0000
0001
0100
,
0010
1000
0000
0100
0000
0001
0000
1001
,
0000
0000
1000
0000
0001
0100
0010
0000
,
0110
0000
1000
0010
0100
0001
1000
0000
,
0110
0000
1000
0100
0010
0001
2000
0000
,
0001
3002
0100
0203
,
0301
0000
0000
1000
0000
0001
0100
0000
,
0001
0010
0001
1000
0000
0100
0010
0000
,
0101
0000
0001
0100
0000
0100
0010
0000
,
0010
1000
0000
1000
0100
0010
0022
0000
,
0000
0000
0033
2020
,
0000
0000
3030
0220
,
0000
0000
0000
0000
0330
0000
0000
2002
,
0000
0000
0000
0000
0000
3003
0000
1000
,
0000
0000
0000
0001
0000
0000
0000
1000
,
0000
0000
0000
0001
0000
0000
0000
0000
,
1001
1000
0100
0010
,
0001
0000
1000
0100
0000
0100
0010
0000
,
0010
0001
0000
0001
0100
0000
0100
0010
,
0000
0010
1000
0000
1000
0100
0010
0001
,
1000
0000
0000
0010
0000
0100
0001
1000
,
0000
0010
0000
0100
0000
0001
0000
0000
,
1000
0000
0000
0100
0000
0001
0010
0000
,
1000
0000
0000
0001
0000
0100
0010
0000
,
0011
0000
0000
0001
0000
1000
0010
0000
,
1010
0000
0000
1000
0000
0001
0010
0000
,
1001
0000
0000
0010
0000
0001
1000
0000
,
1001
0000
0001
1000
0000
1000
0001
0000
,
0001
0100
0001
0010
0001
1000
0010
0100
,
0001
1000
0100
0010
0001
0000
1000
0100
,
0010
0001
0010
0100
1000
0000
0001
0100
,
0010
0100
0010
0001
1000
0000
1000
0010
,
0100
0010
0100
0001
0010
0100
1000
0000
,
0001
0010
0100
1000
0100
0010
0001
0000
,
1000
0000
0001
0100
0000
0100
0001
0000
,
1000
0010
0100
0010
0000
0010
1000
0000
,
1000
0001
1000
0010
0100
0000
0110
0000
,
1001
0110
1001
1001
,
1000
0100
0001
0100
,
1000
0100
0001
0100
,
1000
0100
1000
0100
0001
0100
0001
0100
,
1000
0100
1000
0100
0001
0100
0001
0100
,
0010
0001
0010
1000
,
0010
0001
0010
1000
,
0010
0001
0010
1000
0010
0001
0010
1000
,
0010
0100
0010
0001
0100
0010
1000
0100
,
0000
0010
0000
0001
0000
0100
0000
0010
,
0000
1000
0000
0100
0000
0010
0000
0001
,
0010
0100
1000
0010
0100
0001
0010
0100
,
1000
0100
0010
0001
0100
0010
1000
0100
,
0000
0010
0000
1000
0000
0010
0000
0100
,
0000
0010
0000
0001
0000
1000
0000
1000
,
0100
0010
0100
1000
0001
0100
0010
0100
,
1000
0100
0010
0100
0001
0000
1000
0000
,
1000
0001
1000
0000
1000
0001
0100
0000
,
0100
0000
0100
0000
0100
0010
0100
0000
,
0000
0100
0000
0000
0010
0000
1000
0001
,
1000
0000
0001
0000
0100
0010
1000
0001
,
0000
0000
0000
1000
0000
0001
0010
0100
,
1000
0000
0001
0100
0000
0100
0010
1000
,
0010
1000
0002
0000
0000
0000
0000
0000
,
0003
0000
0000
0000
;

//---------------dance-single - Copied from----------------
#NOTES:
     dance-single:
     Copied from:
     Medium:
     7:
     0.387,0.621,0.200,0.047,0.000:
0000
0000
0000
0000
,
0000
0000
0000
0000
,
0000
0000
0000
0000
,
0000
0000
0000
0000
,
0001
0000
0000
0001
,
0000
1000
1000
0000
,
0000
0100
0000
0000
0000
0000
1001
0000
,
0000
0000
0000
0000
,
1000
0000
0000
0000
,
0001
0000
0010
0000
,
0000
0000
0000
0000
,
1000
0000
0000
0000
,
0001
1000
0100
0010
,
0001
0001
0000
0000
,
1000
0000
0000
0000
,
0000
1010
0000
0000
,
0010
0000
1000
0000
,
0001
0010
0100
0100
,
1000
1000
0010
0100
,
0001
0001
0000
0000
,
1000
0000
0200
0000
0000
0300
0000
0000
,
0000
0000
0000
0010
0000
0001
0000
0100
,
0000
0001
0000
0010
0000
0000
0000
0000
,
0001
0000
1000
0001
,
1000
0000
0000
1000
0000
0100
0000
0010
,
0000
0001
0000
0010
0000
0100
0000
0010
,
0000
0001
0000
0100
0000
0010
0000
2000
,
0000
0000
0000
0000
,
0000
0000
0002
0000
,
0000
0000
0000
0000
0000
3003
0000
0000
,
1000
0000
0001
0000
,
0100
0001
1000
1010
,
1000
0100
0010
0000
,
0001
1000
0000
0001
,
0010
0100
0000
0100
,
1000
0010
0100
0001
,
1000
0000
0000
0000
,
0001
1000
0000
0100
,
0001
0000
0000
0000
,
0010
0000
0000
0010
,
0000
0000
1000
0000
,
0001
0000
0000
0000
,
1000
0000
0000
0001
,
0000
0100
1000
0000
,
0001
0000
1000
0000
,
0001
0000
0000
0000
,
1000
0001
0010
0000
,
0100
1000
0010
0000
,
0100
0001
0010
0000
,
0001
0000
0000
0100
,
0100
0010
0000
0000
,
0110
0000
0011
0000
,
1000
0001
0010
0100
,
1000
0000
0000
0010
,
0100
0000
0010
0100
,
0001
0010
0100
0100
,
1000
0010
0100
0100
,
0100
0010
1000
1000
,
1000
0010
1000
0100
,
0010
0001
0001
1000
,
1001
0000
0000
1000
,
1001
0000
0000
0000
,
1001
0000
0000
0100
,
1000
0000
0000
1000
,
0001
0010
0100
1000
,
0010
0100
0001
0010
,
0100
0000
0100
0001
,
0000
0100
0000
0000
,
0010
0010
0000
0000
,
0010
0100
0000
0000
,
0001
0011
0000
0000
,
1000
1100
0000
0000
,
0000
1001
0000
0000
,
0000
0101
0000
0000
,
0010
0000
0010
0100
,
1000
0000
0000
0000
,
0000
1000
0010
0001
,
0010
0000
0010
0000
,
0000
1000
0000
0010
,
1000
0010
1000
0100
,
0010
0001
0010
1000
,
0010
0010
1000
0010
,
0001
0010
1000
1000
,
0010
0000
0000
1001
,
0000
0001
1000
0100
,
0110
0001
0010
0001
,
0110
0001
0100
0002
,
1000
2003
0010
3020
,
1030
0000
0000
0010
,
1000
1000
0000
0100
,
1010
1000
0000
0100
,
0100
0000
0010
1100
,
0000
0000
0000
0101
,
0000
0000
0000
0110
,
0000
0000
0000
0000
0000
0000
0000
1001
,
0000
0000
0000
0000
0000
0000
0000
0110
,
0000
0000
0000
0000
0000
0000
0000
1001
,
0000
0000
0000
0000
,
1001
0001
0010
0100
,
1000
0001
0000
0100
,
0100
0000
0010
0010
,
0000
0001
0001
0100
,
0001
0000
0000
0000
,
1000
0000
0000
0000
,
0001
0000
0000
0100
,
0001
0000
0000
0100
,
1100
0000
0000
0100
,
0101
0000
0000
0100
,
1001
0000
0000
0001
,
1001
1000
0000
1000
,
1000
1000
1000
0100
,
1000
0010
1000
0001
,
0100
0100
0001
1000
,
0100
0100
0001
0001
,
0100
0010
0100
1000
,
0100
0010
0001
0100
,
0010
1000
0000
1000
,
0001
0010
0000
0001
,
0001
0001
0010
0110
,
1001
0110
0001
1000
,
0001
0010
1000
0010
,
0001
0010
1000
0010
,
0001
0001
1000
1000
,
0001
0001
1000
1000
,
0100
1000
0100
0001
,
0100
1000
0100
0001
,
0100
0100
0100
0100
,
0100
0100
0010
0001
,
0000
0100
0000
0010
0000
0100
0000
0001
,
0000
1000
0000
0001
0000
1000
0000
0000
,
0100
0001
0010
0100
,
0001
0100
0010
0001
,
0000
1000
0000
0100
0000
0010
0000
0001
,
0000
1000
0000
0100
0000
0010
0000
0001
,
0000
0010
1000
0100
,
0001
0100
1000
0001
,
0001
0001
0001
0010
,
0010
0010
0010
0010
,
0000
0000
0100
0001
,
0001
1000
0010
0001
,
0000
0000
0000
0100
,
0001
1000
0000
0100
,
0100
2000
0000
0000
,
3000
0000
0000
0000
;

//---------------dance-single - Copied from Copied from----------------
#NOTES:
     dance-single:
     Copied from Copied from:
     Easy:
     5:
     0.302,0.427,0.127,0.000,0.000: // measure 1
0000
0000
0000
0000
,  // measure 2
0000
0000
0000
0000
,  // measure 3
0000
0000
0000
0000
,  // measure 4
0000
0000
0000
0000
,  // measure 5
0010
0000
0000
0010
,  // measure 6
0000
0100
0000
0000
,  // measure 7
0000
0000
0000
0110
,  // measure 8
0000
0000
0000
0000
,  // measure 9
0100
0000
0000
0000
,  // measure 10
0010
0000
0100
0000
,  // measure 11
0000
0000
0000
0000
,  // measure 12
0100
0000
0000
0000
,  // measure 13
0010
0000
1000
0001
,  // measure 14
0000
0000
0000
0000
,  // measure 15
1001
0000
0000
0000
,  // measure 16
0000
0101
0000
0000
,  // measure 17
0001
0000
0000
0000
,  // measure 18
0010
0000
1000
0000
,  // measure 19
1000
0000
0000
1000
,  // measure 20
0000
0010
0000
0000
,  // measure 21
0000
1000
0000
0000
,  // measure 22
0000
0000
0000
0001
0000
0000
0000
1000
,  // measure 23
0000
0000
0000
0001
0000
0000
0000
0000
,  // measure 24
0010
0000
0100
0000
,  // measure 25
0010
0000
0000
1000
0000
0000
0000
0001
,  // measure 26
0000
0000
0000
1000
0000
0000
0000
0001
,  // measure 27
0000
1000
0000
0001
0000
1000
0000
0000
,  // measure 28
0000
0000
0000
0000
,  // measure 29
0000
0000
0010
0000
,  // measure 30
0000
0000
0000
0000
0000
0010
0000
0000
,  // measure 31
0100
0000
0010
0000
,  // measure 32
1000
0000
0100
0000
,  // measure 33
0010
0000
0001
0000
,  // measure 34
0010
0000
0000
0010
,  // measure 35
0000
0100
0000
1000
,  // measure 36
0000
0001
0000
0000
,  // measure 37
0100
0000
0000
0000
,  // measure 38
0010
0000
0000
0000
0000
0000
0000
1000
,  // measure 39
0000
0000
0000
0000
,  // measure 40
0001
0000
0000
0001
,  // measure 41
0000
0000
0100
0000
,  // measure 42
0010
0000
0000
0000
,  // measure 43
0100
0000
0000
0010
,  // measure 44
0000
1000
0000
0000
,  // measure 45
0010
0000
0100
0000
,  // measure 46
0010
0000
0000
0000
,  // measure 47
0100
0010
1000
0000
,  // measure 48
1000
0100
0010
0000
,  // measure 49
1000
0001
1000
0000
,  // measure 50
0010
0000
0000
1000
,  // measure 51
0001
0000
0000
0000
,  // measure 52
1001
0000
0011
0000
,  // measure 53
1000
0001
1000
0001
,  // measure 54
0100
0000
0000
0001
,  // measure 55
1000
0000
0001
1000
,  // measure 56
0010
1000
0000
1000
,  // measure 57
0100
1000
0000
1000
,  // measure 58
0000
0001
0000
0100
,  // measure 59
0000
0001
0100
0001
,  // measure 60
0001
0010
0010
0100
,  // measure 61
0010
0000
0000
0100
,  // measure 62
0010
0000
0000
0000
,  // measure 63
0110
0000
0000
1000
,  // measure 64
0100
0000
0000
0100
,  // measure 65
0000
0001
1000
0000
,  // measure 66
0001
1000
0010
1000
,  // measure 67
1000
0000
1000
0010
,  // measure 68
0000
1000
0000
0000
,  // measure 69
0001
0001
0000
0000
,  // measure 70
0001
1000
0000
0000
,  // measure 71
0010
0011
0000
0000
,  // measure 72
0100
1100
0000
0000
,  // measure 73
0000
0110
0000
0000
,  // measure 74
0000
1010
0000
0000
,  // measure 75
0001
0000
0001
1000
,  // measure 76
0100
0000
0000
0000
,  // measure 77
0000
0100
0001
0010
,  // measure 78
0001
0000
0001
0000
,  // measure 79
0000
0100
0000
0001
,  // measure 80
0100
0001
0100
0010
,  // measure 81
1000
0010
1000
0000
,  // measure 82
0001
0000
0100
0000
,  // measure 83
0010
0000
0100
0100
,  // measure 84
0001
0000
0000
0110
,  // measure 85
0000
0010
0100
0000
,  // measure 86
1001
0000
0000
0010
,  // measure 87
1000
0010
1000
0010
,  // measure 88
0100
0100
0001
0001
,  // measure 89
0100
0000
0000
0001
,  // measure 90
0100
0100
0000
1000
,  // measure 91
0001
0100
0000
1000
,  // measure 92
1000
0000
0001
1000
,  // measure 93
0000
0000
0000
1000
,  // measure 94
0000
0000
0000
0001
,  // measure 95
0000
0000
0000
0000
0000
0000
0000
0100
,  // measure 96
0000
0000
0000
0000
0000
0000
0000
1001
,  // measure 97
0000
0000
0000
0000
0000
0000
0000
0110
,  // measure 98
0000
0000
0000
0000
,  // measure 99
0110
0000
0000
0000
,  // measure 100
0000
0000
0000
1000
,  // measure 101
0000
0000
0001
0000
,  // measure 102
0000
0000
0000
0000
,  // measure 103
0001
0000
0000
0000
,  // measure 104
0100
0000
0000
0000
,  // measure 105
0010
0000
0000
1000
,  // measure 106
0010
0000
0000
1000
,  // measure 107
1100
0000
0000
1000
,  // measure 108
1010
0000
0000
1000
,  // measure 109
0010
0000
0000
0010
,  // measure 110
0010
0100
0000
0100
,  // measure 111
0010
0100
0010
0000
,  // measure 112
0100
0001
0100
0010
,  // measure 113
1000
1000
0010
0100
,  // measure 114
0000
0000
0010
0010
,  // measure 115
1000
0001
1000
0100
,  // measure 116
1000
0001
0010
0001
,  // measure 117
0001
0100
0000
0100
,  // measure 118
0010
0000
0000
0010
,  // measure 119
0000
0010
0000
1001
,  // measure 120
0000
1001
0000
0000
,  // measure 121
0010
0100
0010
0100
,  // measure 122
0010
0001
0100
0001
,  // measure 123
0010
0010
0100
0100
,  // measure 124
0010
0010
0100
0100
,  // measure 125
1000
0100
1000
0010
,  // measure 126
1000
0100
1000
0010
,  // measure 127
1000
1000
0001
0001
,  // measure 128
1000
1000
0001
0010
,  // measure 129
0000
1000
0000
0001
0000
1000
0000
0010
,  // measure 130
0000
0100
0000
0010
0000
0100
0000
0000
,  // measure 131
1000
0010
1000
1000
,  // measure 132
0010
1000
0001
0010
,  // measure 133
0000
0100
0000
1000
0000
0001
0000
0010
,  // measure 134
0000
0100
0000
1000
0000
0001
0000
0010
,  // measure 135
0000
0001
0100
0000
,  // measure 136
0010
1000
0100
0010
,  // measure 137
0000
0010
0010
0000
,  // measure 138
0001
0000
0001
0000
,  // measure 139
0000
0000
1000
0010
,  // measure 140
0000
0100
0000
0000
,  // measure 141
0000
0000
0000
1000
,  // measure 142
0010
0100
0000
1000
,  // measure 143
1000
0100
0000
0000
;
