#TITLE:BRIDAL FESTIVAL !!!;
#SUBTITLE:;
#ARTIST:S.S.D. with ななっち;
#TITLETRANSLIT:BRIDAL FESTIVAL !!!;
#SUBTITLETRANSLIT:;
#ARTISTTRANSLIT:S.S.D. with nanacchi;
#GENRE:;
#CREDIT:Silverhawke;
#MENUCOLOR:;
#METERTYPE:DDR;
#BANNER:[12th Week] - BRIDAL FESTIVAL !!!.png;
#BACKGROUND:[12th Week] - BRIDAL FESTIVAL !!!-bg.png;
#LYRICSPATH:;
#CDTITLE:cdtitle.png;
#MUSIC:[12th Week] - BRIDAL FESTIVAL !!!.mp3;
#OFFSET:1.337;
#SAMPLESTART:21.240;
#SAMPLELENGTH:13.000;
#SELECTABLE:YES;
#LISTSORT:;
#BPMS:0.000=138.000;
#STOPS:;
#BGCHANGES:0.000=[12th Week] - BRIDAL FESTIVAL !!!.avi=1.000=1=0=0,
99999=-nosongbg-=1.000=0=0=0 // don't automatically add -songbackground-
;
#ATTACKS:;

//---------------dance-single - ----------------
#NOTES:
     dance-single:
     :
     Hard:
     8:
     0.597,0.569,0.025,0.402,0.871:
0000
0000
0000
0000
,
0000
0000
0000
0000
,
0000
0000
0000
0000
,
0000
0000
0000
0000
,
0002
0000
0000
1003
0000
0010
0100
0010
0100
0010
0000
0000
,
2000
0000
0000
3200
0000
0000
0320
0000
0000
0031
1000
0001
,
1000
0000
0001
0100
0000
0001
1000
0000
0000
0010
0000
1000
,
0100
0000
1000
0001
0000
1000
0100
0000
0000
0010
0000
0001
,
0100
0000
0001
1000
0000
0001
0100
0000
0000
0110
0000
0000
,
0002
0000
0000
0023
0000
0000
0230
0000
0000
1300
0001
1000
,
0001
0000
1000
0010
0000
1000
0001
0000
0000
0100
0000
0001
,
0010
0000
0001
1000
0000
0001
0010
0000
0000
0100
0000
1000
,
0010
0000
1000
0001
0000
1000
0010
0000
0000
0110
0000
0000
,
0010
0000
1000
0100
0000
1000
0010
0000
1000
0001
0100
0001
,
1000
0000
0001
1000
0100
1000
0001
0000
0010
0200
0000
0000
,
1300
0000
0010
0100
0000
0001
0100
0000
0001
1000
0100
1000
,
0001
0000
1000
0001
0100
0001
1000
0000
0010
0200
0000
0000
,
0310
0000
1000
0100
0000
1000
0010
0000
0100
0001
1000
0001
,
0010
0000
0100
1000
0001
1000
0010
0000
1000
0002
0000
0000
,
0103
0000
0001
1000
0000
0010
1000
0000
0100
1000
0001
1000
,
0010
0000
0100
0001
1000
0001
0020
0000
0000
0130
0000
0000
,
1000
0000
0010
0000
0000
0010
0100
0000
0010
1000
0000
1000
,
0000
0000
0001
0000
0000
0010
0001
0000
0100
0001
0000
0000
,
0000
0000
0100
0000
0000
0010
1000
0000
0010
0100
0000
0100
,
0000
0000
0001
0000
0000
1000
0002
0000
0000
0003
0000
0000
,
0010
0000
0100
1000
0000
0100
0020
0000
0000
0030
0000
0000
,
0100
0000
0010
0001
0000
0010
0200
0000
0000
0300
0000
0000
,
1000
0000
0010
0100
0000
0001
0100
0000
0001
1000
0000
0100
,
0020
0032
2003
3200
,
0310
0000
0001
0010
0000
0001
0010
0000
0001
0100
0000
0010
,
0100
0000
0010
1000
0000
0100
2000
0000
0000
3001
0000
1000
,
0001
0000
1000
0100
0000
1000
0100
0000
1000
0010
0000
1000
,
0001
0000
0100
0010
0000
0100
0002
0000
0000
0103
0000
0001
,
0010
0000
0001
1000
0000
0001
1000
0000
0100
1000
0000
0010
,
1000
0000
0100
0010
0000
0001
0020
0000
0000
0031
0000
0100
,
0001
0000
0010
0001
0000
0010
0001
0000
1000
0100
0000
1000
,
0100
0010
0100
1000
0000
0001
1000
0001
1000
0001
0000
0000
,
0100
0000
0001
1000
0000
0001
1000
0000
0001
0010
0100
0010
,
0001
0000
1000
0010
0100
0010
1000
0000
0001
2000
0000
0000
,
3010
0000
0100
0001
0000
0100
0001
0000
1000
0100
0010
0100
,
1000
0000
0001
0100
0010
0100
0001
0000
1000
0002
0000
0000
,
0103
0000
0001
0010
0000
0001
0010
0000
0001
0100
1000
0100
,
0001
0000
1000
0100
0001
0100
1000
0000
0010
0200
0000
0000
,
0310
0000
0100
0001
0000
0100
0001
0000
1000
0100
0001
0100
,
1000
0000
0001
0100
1000
0100
0002
0000
0000
1003
0000
1000
,
0100
0000
0100
0010
0000
0010
0001
0000
0001
0100
0000
0100
,
0010
0000
0010
1000
0000
1000
0100
0000
0100
0020
0000
0000
,
0130
0000
0100
1000
0000
1000
0001
0000
0001
0100
0000
0100
,
0010
0000
0010
0100
0000
0100
0001
0000
0001
0020
0000
0000
,
0230
0000
0000
0300
0000
0000
1000
0001
1000
0001
0000
0000
,
0200
0000
0000
0302
0000
0000
2003
0000
0000
3100
1000
0002
,
2000
0000
3003
0000
,
0002
0000
0000
0023
0000
0000
0230
0000
0000
1300
0010
1000
,
0001
0000
0100
0001
0000
1000
0001
0000
0000
0100
0000
0010
,
1000
0000
0001
1000
0000
0100
1000
0000
0000
0010
0000
0100
,
0001
0000
1000
0001
0000
0010
0001
0000
1000
0010
0000
1000
,
0200
0000
0000
0320
0000
0000
0032
0000
0000
1003
0100
1000
,
0010
0000
0100
0010
0000
0100
0001
0000
0000
0100
0000
0010
,
1000
0000
0010
0100
0000
0010
1000
0000
0000
0100
0000
0010
,
0001
0000
0010
0100
0000
0010
0001
0000
0010
0100
0000
1000
,
0200
0000
0000
2300
0000
0000
3002
0000
0000
0103
0001
1000
,
0001
0000
0000
0100
0000
0001
2000
0000
0000
3000
0000
0000
,
0001
0000
0000
0010
0000
0100
0020
0000
0000
0030
0000
0000
,
0001
0000
0000
1000
0000
0010
0200
0000
0000
0300
0000
0000
,
0002
0000
0000
2003
0000
0000
3020
0000
0000
0130
0010
0100
,
0001
0000
0001
0010
0000
0010
0100
1000
0100
0010
0000
0000
,
0010
0000
0010
0001
0000
0001
0100
0010
0100
0001
0000
0000
,
0001
0000
1000
0100
0000
1000
0010
0100
0001
1000
0100
0010
,
1001
0000
0000
0000
;

//---------------dance-single - ----------------
#NOTES:
     dance-single:
     :
     Medium:
     7:
     0.432,0.455,0.184,0.477,0.251:
0000
0000
0000
0000
,
0000
0000
0000
0000
,
0000
0000
0000
0000
,
0000
0000
0000
0000
,
0002
0023
0230
1300
,
0020
0000
0000
0230
0000
0000
0320
0000
0000
0130
0000
0001
,
1000
0000
0000
0001
0000
0000
1000
0000
0000
0001
0000
0100
,
0010
0000
0000
0100
0000
0000
0010
0000
0000
0100
0000
0001
,
1000
0000
0000
0001
0000
1000
0001
0000
1000
0001
0000
0000
,
2000
0000
0000
3200
0000
0000
0320
0000
0000
0031
0000
1000
,
0001
0000
0000
1000
0000
0000
0001
0000
0000
1000
0000
0001
,
0010
0000
0000
0100
0000
0000
0010
0000
0000
0100
0000
1000
,
0001
0100
0010
1000
,
0001
0101
1000
1100
,
0001
0000
0000
0101
0000
0000
1000
0000
0100
1000
0000
0000
,
0001
0011
1000
1010
,
0001
0000
0000
0011
0000
0000
1000
0000
0010
1000
0000
0000
,
0001
0000
1000
0001
0000
0000
1000
0000
0001
1000
0000
0000
,
0001
0000
1000
0001
0000
0000
1000
0000
0001
1000
0000
0000
,
0001
0000
1000
0100
0000
0000
0010
0000
0001
1000
0000
0000
,
1100
0011
0220
0330
,
2001
0000
0000
0000
,
0002
0000
3000
0000
,
0200
0000
0003
0000
,
0020
0000
0300
0000
,
1030
0001
1001
0000
,
0010
0100
0110
0000
,
0001
0010
0011
0000
,
2000
3200
0320
0032
,
0103
0000
0100
0001
0000
0000
0001
0000
0001
0100
0000
0000
,
0100
0000
0100
0010
0000
0000
0010
0000
0000
1001
0000
0000
,
1000
0000
1000
0100
0000
0000
0100
0000
0100
0010
0000
0000
,
0010
0000
0010
0001
0000
0000
0001
0000
0000
1010
0000
0000
,
1000
0000
1000
0001
0000
0000
0001
0000
0001
0100
0000
0000
,
0100
0000
0100
0010
0000
0000
0010
0000
0000
0101
0000
0000
,
0010
0000
0010
0100
0000
0000
0100
0000
0100
0001
0000
0000
,
1000
0001
1000
0001
0000
0000
2002
0000
0000
3003
0000
0000
,
0020
1030
0200
0310
,
0002
0000
0000
0103
0000
0000
0010
0000
1000
0001
0000
0000
,
0200
0301
0020
0130
,
2000
0000
0000
3010
0000
0000
0100
0000
0001
1000
0000
0000
,
0020
1030
0200
0310
,
0002
0000
0000
0103
0000
0000
0010
0000
1000
0001
0000
0000
,
0200
0301
0020
0130
,
1000
0000
0001
1000
0000
1000
0002
0000
0000
0003
0000
0000
,
0100
0000
0010
0000
,
1000
0000
0001
0000
,
0010
0000
0100
0000
,
1000
0000
0010
0000
,
2002
0000
3003
0000
,
0002
0000
0000
0023
0000
0000
0230
0000
0000
1300
0000
0001
,
1000
0000
0010
0000
,
0200
0000
0000
0302
0000
0000
2003
0000
0000
3100
0000
0010
,
0001
0000
0000
0100
0000
0001
0010
0000
0000
0100
0000
0010
,
0001
0000
0000
0100
0000
0001
0010
0000
0000
0100
0000
1000
,
0010
0000
0000
0100
0000
0010
1000
0000
0010
1000
0000
0010
,
2000
0000
0000
3020
0000
0000
0230
0000
0000
0301
0000
1000
,
0100
0000
0000
1000
0000
0001
0100
0000
0000
0001
0000
1000
,
0100
0000
0000
1000
0000
0001
0100
0000
0000
0001
0000
1000
,
0100
0000
0000
1000
0000
0010
1000
0000
0010
1000
0000
0010
,
2000
0000
0000
3020
0000
0000
0230
0000
0000
0301
0000
0010
,
0001
0100
0202
0303
,
1000
0100
2200
3300
,
1000
0010
2020
3030
,
0001
0010
0022
0033
,
1000
0000
0001
1000
0000
0001
2000
0000
0000
3010
0000
0000
,
0100
0000
0001
0100
0000
0001
0200
0000
0000
0310
0000
0000
,
1000
0000
0100
1000
0000
0100
1000
0000
0010
0100
0000
0001
,
0010
0000
0000
0000
;

//---------------dance-single - ----------------
#NOTES:
     dance-single:
     :
     Easy:
     3:
     0.165,0.199,0.050,0.008,0.000:
0000
0000
0000
0000
,
0000
0000
0000
0000
,
0000
0000
0000
0000
,
0000
0000
0000
0000
,
0000
0000
0000
0000
,
1000
0000
1000
0000
,
0001
0000
0001
0000
,
1000
0000
1000
0000
,
0001
0000
0001
0000
,
1000
0000
0100
0000
,
0001
0000
0100
0000
,
1000
0000
0100
0000
,
0001
0000
0100
0000
,
1000
0000
0100
0000
,
0001
0001
0001
0000
,
0001
0000
0100
0000
,
1000
1000
1000
0000
,
0010
0000
0100
0000
,
0001
0001
0001
0000
,
0010
0000
0100
0000
,
1000
0000
1001
0000
,
1000
0000
0000
0000
,
0100
0000
0000
0000
,
0010
0000
0000
0000
,
0001
0000
0000
0000
,
1000
0000
1000
0000
,
0010
0000
0010
0000
,
0001
0000
0001
0000
,
0100
0100
0100
0000
,
1000
0000
0100
0000
,
0010
0001
0010
0000
,
0001
0000
0100
0000
,
0010
1000
0010
0000
,
1000
0000
0010
0000
,
0100
0001
0100
0000
,
0001
0000
0010
0000
,
0100
1000
0100
0000
,
1001
0000
1000
0000
,
0001
0000
0100
0000
,
0110
0000
0010
0000
,
0100
0000
0001
0000
,
1001
0000
1000
0000
,
0100
0000
0010
0000
,
0110
0000
0100
0000
,
1000
0000
0001
0000
,
0100
0000
0000
0001
,
0001
0000
0000
0000
,
1000
0000
0000
0010
,
0010
0000
0000
0000
,
0100
0000
0000
0000
,
1000
0001
1000
0001
,
2000
0000
3000
0000
,
0001
1000
0001
1000
,
0001
0000
0000
1000
,
1000
0000
0000
0010
,
0010
0000
0000
0100
,
0100
0010
0100
0010
,
0100
0000
0000
0010
,
0010
0000
0000
1000
,
1000
0000
0000
0001
,
0001
1000
0001
1000
,
0001
0000
0000
0000
,
1000
0000
0000
0000
,
0010
0000
0000
0000
,
0100
0000
0000
0000
,
0010
0000
0010
0000
,
0100
0000
0100
0000
,
0001
0000
1000
0000
,
1001
0000
0000
0000
;

//---------------dance-double - ----------------
#NOTES:
     dance-double:
     :
     Hard:
     8:
     0.567,0.569,0.033,0.285,0.791:
00000000
00000000
00000000
00000000
,
00000000
00000000
00000000
00000000
,
00000000
00000000
00000000
00000000
,
00000000
00000000
00000000
00000000
,
00001000
00000000
00000000
00011000
00000000
00000000
00010000
00000000
00000000
00001000
00010000
00001000
,
00100000
00000000
00100000
00010000
00000000
00010000
01000000
00000000
01000000
00100000
00000000
00100000
,
10000000
00000000
10000000
01000000
00000000
01000000
00100000
00000000
00100000
00010000
00000000
00010000
,
00001000
00000000
00001000
00000100
00000000
00000100
00000010
00000000
00000010
00000001
00000000
00000001
,
00000100
00000000
00000100
00001000
00000000
00001000
00020000
00000000
00000000
00031000
00000000
00000000
,
00010000
00000000
00010000
01000000
00000000
01000000
10000000
00000000
10000000
00100000
00000000
00100000
,
01000000
00000000
01000000
00001000
00000000
00001000
00010000
00000000
00010000
00000100
00000000
00000100
,
00001000
00000000
00001000
00000001
00000000
00000001
00000010
00000000
00000010
00000100
00000000
00000100
,
00001000
00000000
00001000
00000010
00000000
00000010
00000100
00000000
00000100
00000001
00000000
00000000
,
00000001
00000000
00000001
00000010
00000000
00000010
00000100
00000000
00001000
00000100
00000000
00000100
,
00010000
00000000
00001000
01000000
00000000
01000000
00010000
00000000
00010000
10000000
00000000
00000000
,
10000000
00000000
10000000
00100000
00000000
00100000
01000000
00000000
00010000
01000000
00000000
01000000
,
00001000
00000000
00010000
00000100
00000000
00000100
00001000
00000000
00001000
00000001
00000000
00000000
,
00000001
00000000
00000001
00000100
00000000
00000100
00000010
00000000
00001000
00000010
00000000
00000010
,
00010000
00000000
00001000
00100000
00000000
00100000
00010000
00000000
00010000
10000000
00000000
00000000
,
10000000
00000000
10000000
01000000
00000000
01000000
00100000
00000000
00010000
00100000
00000000
00100000
,
00001000
00000000
00010000
00000010
00000000
00000010
00001000
00000000
00000000
00001001
00000000
00000000
,
00000001
00000010
00000100
00000000
,
00010000
00001000
00100000
00000000
,
00010000
10000000
01000000
00000000
,
00100000
00001000
00011000
00000000
,
00010000
00000000
00000010
00001000
00000010
00001000
00000010
00000000
00000000
00001000
00000000
00000000
,
00000100
00000000
00010000
00001000
00010000
00001000
00010000
00000000
00000000
00001000
00000000
00000000
,
01000000
00000000
00100000
10000000
00100000
10000000
00100000
00000000
00000000
10000000
00000000
00000000
,
02000000
03020000
00032000
00003020
,
00000031
00000000
00000100
00000001
00000000
00000100
00000001
00000000
00001000
00000100
00000000
00001000
,
00000100
00000000
00010000
00001000
00000000
00010000
00002000
00000000
00000000
02003000
00000000
00000000
,
03100000
00000000
10000000
00010000
00000000
10000000
00010000
00000000
00100000
01000000
00000000
00100000
,
01000000
00000000
00010000
00001000
00000000
00010000
00002000
00000000
00000000
00023000
00000000
00000000
,
00030100
00000000
00001000
00000010
00000000
00001000
00000010
00000000
00000100
00000001
00000000
00000100
,
00000001
00000000
00001000
00000100
00000000
00001000
00000200
00000000
00000000
00020300
00000000
00000000
,
00031000
00000000
01000000
00010000
00000000
01000000
00010000
00000000
10000000
01000000
00000000
10000000
,
01000000
00000000
00100000
00010000
00000000
00100000
00010000
00100000
00010000
00100000
00000000
00000000
,
01000000
00000000
01000000
10000000
00000000
10000000
00100000
00000000
00100000
01000000
00000000
01000000
,
00001000
00000000
00001000
00010000
00000000
00010000
00000100
00000000
00000100
00000020
00000000
00000000
,
00000031
00000000
00000001
00000100
00000000
00000100
00001000
00000000
00001000
00010000
00000000
00010000
,
01000000
00000000
01000000
10000000
00000000
10000000
00100000
00000000
00100000
02000000
00000000
00000000
,
03010000
00000000
00010000
00100000
00000000
00100000
00001000
00000000
00001000
00010000
00000000
00010000
,
00000100
00000000
00000100
00001000
00000000
00001000
00000010
00000000
00000010
00000200
00000000
00000000
,
00000301
00000000
00000001
00000010
00000000
00000010
00001000
00000000
00001000
00010000
00000000
00010000
,
01000000
00000000
01000000
10000000
00000000
10000000
00200000
00000000
00000000
01300000
00000000
01000000
,
00010000
00000000
00010000
10000000
00000000
10000000
00100000
00000000
00100000
01000000
00000000
01000000
,
00010000
00000000
00010000
00100000
00000000
00100000
00001000
00000000
00001000
00020000
00000000
00000000
,
00030100
00000000
00000100
00001000
00000000
00001000
00000010
00000000
00000010
00000100
00000000
00000100
,
00000001
00000000
00000001
00000010
00000000
00000010
00000100
00000000
00000100
00020000
00000000
00000000
,
00031000
00000000
00000000
00000000
00000000
00000000
00010000
00001000
00010000
00001000
00000000
00000000
,
00002000
00000000
00000000
00023000
00000000
00000000
02030000
00000000
00000000
13000000
00010000
10000000
,
00020000
00000000
02030000
03000000
,
00100000
00000000
00000000
11000000
00000000
00000000
00100000
00000000
00000000
00010000
01000000
00010000
,
00100000
00000000
00010000
00100000
00000000
00001000
00010000
00000000
00000100
00001000
00000000
00000100
,
00000010
00000000
00000001
00000100
00000000
00000001
00000010
00000000
00000100
00001000
00000000
00000100
,
00010000
00000000
00001000
00100000
00000000
00001000
01000000
00000000
00010000
00100000
00000000
01000000
,
20000000
00000000
00000000
30200000
00000000
00000000
02300000
00000000
00000000
03010000
00100000
00001000
,
00010000
00000000
00001000
01000000
00000000
00010000
01000000
00000000
00100000
01000000
00000000
00100000
,
10000000
00000000
01000000
10000000
00000000
01000000
00100000
00000000
00010000
01000000
00000000
00001000
,
00010000
00000000
00000100
00010000
00000000
00000100
00001000
00000000
00000010
00001000
00000000
00000010
,
00000200
00000000
00000000
00000302
00000000
00000000
00002003
00000000
00000000
00003100
00010000
00001000
,
01000000
00000000
00000000
00100000
00000000
10000000
02000000
00000000
00000000
03000000
00000000
00000000
,
00100000
00000000
00000000
00001000
00000000
00010000
00002000
00000000
00000000
00003000
00000000
00000000
,
00000010
00000000
00000000
00000001
00000000
00001000
00000020
00000000
00000000
00000030
00000000
00000000
,
00000200
00000000
00000000
00002300
00000000
00000000
00023000
00000000
00000000
00130000
10000000
00010000
,
01000000
00000000
00010000
00100000
00000000
00010000
01000000
00010000
01000000
00010000
00000000
00000000
,
00100000
00000000
00001000
00010000
00000000
00000100
00001000
00000100
00001000
00000100
00000000
00000000
,
00010000
00000000
00001000
00010000
00100000
00010000
00001000
00000010
00000001
00000100
00000010
00001000
,
00000001
00000000
00000000
00000000
;

//---------------dance-double - ----------------
#NOTES:
     dance-double:
     :
     Medium:
     5:
     0.353,0.399,0.134,0.226,0.209:
00000000
00000000
00000000
00000000
,
00000000
00000000
00000000
00000000
,
00000000
00000000
00000000
00000000
,
00000000
00000000
00000000
00000000
,
20000000
32000000
03200000
00320000
,
00130000
00001000
00010000
00000100
,
00001000
00000010
00000100
00000001
,
00000010
00000100
00001000
00000001
,
00001000
00000000
00000000
00000010
00000000
00000000
00010000
00000000
00000100
00000020
00000000
00000000
,
00000130
00001000
00000100
00010000
,
00001000
01000000
00100000
10000000
,
01000000
00100000
00010000
01000000
,
00001000
00000000
00000000
00010000
00000000
00000000
00001000
00000000
00010000
00000200
00000000
00000000
,
00001300
00001100
00000100
00000110
,
00000010
00000000
00000000
00000011
00000000
00000000
00000001
00000000
00000001
00000100
00000000
00000000
,
00000100
00000110
00000010
00001010
,
00001000
00000000
00000000
00001100
00000000
00000000
00000100
00000000
00000100
00010000
00000000
00000000
,
00010000
00011000
00001000
01001000
,
01000000
00000000
00000000
01010000
00000000
00000000
00010000
00000000
00010000
00100000
00000000
00000000
,
00100000
01100000
01000000
11000000
,
10010000
01010000
02200000
03300000
,
02000000
00000000
00000000
03000000
,
00002000
00000000
00000000
00003000
,
00020000
00000000
00000000
00030000
,
00000200
00000000
00000000
00000300
,
00001000
00000000
00000000
00000000
00000000
00000100
00001000
00000000
00000000
00000000
00000000
00000000
,
00000001
00000000
00000000
00000000
00000000
00000100
00000001
00000000
00000000
00000000
00000000
00000000
,
00000100
00000000
00000000
00000000
00000000
00000001
00000100
00000000
00000000
00000000
00000000
00000000
,
00000020
00020030
00032000
00203000
,
01300000
00000000
00000000
01000000
00000000
10000000
01000000
00000000
00000000
00000000
00000000
00000000
,
00100000
00000000
00000000
00100000
00000000
00010000
00100000
00000000
00000000
00000000
00000000
00000000
,
00001000
00000000
00000000
00001000
00000000
00010000
00001000
00000000
00000000
00000000
00000000
00000000
,
00010000
00000000
00000000
00010000
00000000
00000100
00010000
00000000
00000000
00000000
00000000
00000000
,
00000010
00000000
00000000
00000010
00000000
00001000
00000010
00000000
00000000
00000000
00000000
00000000
,
00000100
00000000
00000000
00000100
00000000
00000001
00000100
00000000
00000000
00000000
00000000
00000000
,
00000001
00000000
00000000
00000001
00000000
00000010
00000001
00000000
00000000
00000000
00000000
00000000
,
00000010
00000000
00000100
00000010
00000000
00000100
00000020
00000000
00000000
00000030
00000000
00000000
,
00000100
00000000
00000000
00000100
00000000
00001000
00000100
00000000
00000000
00000100
00000000
00000000
,
00010000
00000000
00000000
00010000
00000000
00001000
00010000
00000000
00000000
00010000
00000000
00000000
,
00001000
00000000
00000000
00001000
00000000
01000000
00001000
00000000
00000000
00001000
00000000
00000000
,
01000000
00000000
00000000
01000000
00000000
00100000
01000000
00000000
00000000
01000000
00000000
00000000
,
00100000
00000000
00000000
00100000
00000000
10000000
00100000
00000000
00000000
00100000
00000000
00000000
,
10000000
00000000
00000000
10000000
00000000
00010000
10000000
00000000
00000000
10000000
00000000
00000000
,
01000000
00000000
00000000
01000000
00000000
00100000
01000000
00000000
00000000
01000000
00000000
00000000
,
00100000
00000000
00100000
00001000
00000000
00001000
00020000
00000000
00000000
00030000
00000000
00000000
,
00002000
00000000
00000000
00003000
,
02000000
00000000
00000000
03000000
,
00200000
00000000
00000000
00300000
,
20000000
00000000
00000000
30000000
,
10010000
00000000
00000000
00100000
00100000
00000000
00000000
00000000
,
10000000
01000000
00010000
00001000
,
00000200
00000000
00000300
00000000
,
00000001
00000000
00000000
00001000
00000000
00000000
00000001
00000000
00000000
00000100
00000000
00000010
,
00000100
00000000
00000000
00000010
00000000
00000100
00000010
00000000
00000000
00001000
00000000
00000100
,
00001000
00000000
00000000
00000100
00000000
00001000
00000100
00000000
00000000
00010000
00000000
00001000
,
00010000
00000000
00000000
00001000
00000000
00010000
00001000
00000000
00000000
01000000
00000000
00010000
,
01000000
00000000
00000000
00010000
00000000
01000000
00010000
00000000
00000000
10000000
00000000
01000000
,
10000000
00000000
00000000
01000000
00000000
10000000
01000000
00000000
00000000
00100000
00000000
00001000
,
00100000
00000000
00000000
00001000
00000000
00100000
00001000
00000000
00000000
00010000
00000000
00000010
,
00010000
00000000
00000000
00000010
00000000
00010000
00000010
00000000
00000000
00001000
00000000
00000001
,
00001000
00000000
00000000
00000001
00000000
00001000
00000001
00000000
00000000
00000010
00000000
00000100
,
00000020
00000000
00001000
00000000
,
00010000
00000000
00001030
00000000
,
00020000
00000000
00000010
00000000
,
00000100
00000000
00030010
00000000
,
00010000
00000000
00001000
00010000
00000000
00001000
00020000
00000000
00000000
00030000
00000000
00000000
,
00001000
00000000
01000000
00001000
00000000
01000000
00002000
00000000
00000000
00003000
00000000
00000000
,
10010000
00000000
00000000
00000000
00000000
10000000
01000000
00000000
01000000
00010000
00000000
00010000
,
00001000
00000000
00000000
00000000
;

//---------------dance-double - ----------------
#NOTES:
     dance-double:
     :
     Easy:
     2:
     0.152,0.171,0.092,0.025,0.000:
00000000
00000000
00000000
00000000
,
00000000
00000000
00000000
00000000
,
00000000
00000000
00000000
00000000
,
00000000
00000000
00000000
00000000
,
00000000
00000000
00000000
00000000
,
10000000
00000000
10000000
00000000
,
00010000
00000000
00010000
00000000
,
10000000
00000000
01000000
00000000
,
00010000
00000000
01000000
00000000
,
10000000
00000000
10000000
00000000
,
00010000
00000000
00010000
00000000
,
10000000
00000000
01000000
00000000
,
00010000
00000000
00001000
00000000
,
00010000
00000000
00001000
00000000
,
00010000
00010000
00010000
00000000
,
00000100
00000000
00001000
00000000
,
00000100
00000100
00000100
00000000
,
00000010
00000000
00000001
00000000
,
00000010
00000010
00000010
00000000
,
00000100
00000000
00010000
00000000
,
00000100
00000000
00010100
00000000
,
00010000
00000000
00000000
00000000
,
00001000
00000000
00000000
00000000
,
00010000
00000000
00000000
00000000
,
01000000
00000000
00000000
00000000
,
10000000
00000000
10000000
00000000
,
01000000
01000000
01000000
00000000
,
00010000
00000000
00010000
00000000
,
00001000
00001000
00001000
00000000
,
00010000
00000000
00001000
00000000
,
00010000
00000000
00001000
00000000
,
00010000
00000000
00000100
00000000
,
00010000
00000000
00000100
00000000
,
00001000
00000000
00000100
00000000
,
00001000
00000000
00000100
00000000
,
00001000
00000000
00000010
00000000
,
00001000
00000000
00000010
00000000
,
00001001
00000000
00000000
00000000
,
00011000
00000000
00000000
00000000
,
10010000
00000000
00000000
00000000
,
00011000
00000000
00000000
00000000
,
00001001
00000000
00000000
00000000
,
00011000
00000000
00000000
00000000
,
10010000
00000000
00000000
00000000
,
00011000
00000000
00000000
00000000
,
00001000
00000000
00000000
00000000
,
00010000
00000000
00000000
00000000
,
01000000
00000000
00000000
00000000
,
10000000
00000000
00000000
00000000
,
10010000
00000000
00000000
00000000
,
01000000
01000000
01000000
00000000
,
01000000
00000000
00000000
00000000
,
00001000
00000000
00010000
00000000
,
00001000
00000000
00000000
00010000
,
00010000
00000000
00000000
00000100
,
00000100
00000000
00000000
00001000
,
00001000
00000000
00000000
00000001
,
00000001
00000000
00000000
00000100
,
00000100
00000000
00000000
00001000
,
00001000
00000000
00000000
00010000
,
00010000
00000000
00000000
01000000
,
02000000
00000000
03000000
00000000
,
20000000
00000000
30000000
00000000
,
00020000
00000000
00030000
00000000
,
01000000
01000000
01000000
00000000
,
00010000
00000000
01000000
00000000
,
00001000
00000000
00010000
00000000
,
00000100
00000000
00010000
00000000
,
00011000
00000000
00000000
00000000
;

//---------------dance-single - ----------------
#NOTES:
     dance-single:
     :
     Beginner:
     1:
     0.100,0.171,0.017,0.008,0.000: // measure 1
0000
0000
0000
0000
,  // measure 2
0000
0000
0000
0000
,  // measure 3
0000
0000
0000
0000
,  // measure 4
0000
0000
0000
0000
,  // measure 5
0000
0000
0000
0000
,  // measure 6
1000
0000
0000
0000
,  // measure 7
0001
0000
0000
0000
,  // measure 8
1000
0000
0000
0000
,  // measure 9
0001
0000
0000
0000
,  // measure 10
0001
0000
0000
0000
,  // measure 11
1000
0000
0000
0000
,  // measure 12
0001
0000
0000
0000
,  // measure 13
1000
0000
0000
0000
,  // measure 14
0001
0000
0001
0000
,  // measure 15
0001
0000
0000
0000
,  // measure 16
1000
0000
1000
0000
,  // measure 17
1000
0000
0000
0000
,  // measure 18
0001
0000
0001
0000
,  // measure 19
0001
0000
0000
0000
,  // measure 20
1000
0000
1000
0000
,  // measure 21
1000
0000
0000
0000
,  // measure 22
0100
0000
0000
0000
,  // measure 23
0100
0000
0000
0000
,  // measure 24
0100
0000
0000
0000
,  // measure 25
0100
0000
0000
0000
,  // measure 26
0001
0000
0001
0000
,  // measure 27
0001
0000
0000
0000
,  // measure 28
1000
0000
1000
0000
,  // measure 29
1000
0000
0000
0000
,  // measure 30
0100
0000
0000
0000
,  // measure 31
0100
0000
0100
0000
,  // measure 32
0100
0000
0000
0000
,  // measure 33
0100
0000
0100
0000
,  // measure 34
0100
0000
0000
0000
,  // measure 35
0100
0000
0100
0000
,  // measure 36
0100
0000
0000
0000
,  // measure 37
0100
0000
0100
0000
,  // measure 38
0100
0000
0000
0000
,  // measure 39
0001
0000
0000
0000
,  // measure 40
1000
0000
0000
0000
,  // measure 41
0001
0000
0000
0000
,  // measure 42
1000
0000
0000
0000
,  // measure 43
0001
0000
0000
0000
,  // measure 44
1000
0000
0000
0000
,  // measure 45
0001
0000
0001
0000
,  // measure 46
0001
0000
0000
0000
,  // measure 47
0100
0000
0000
0000
,  // measure 48
1000
0000
0000
0000
,  // measure 49
0100
0000
0000
0000
,  // measure 50
1001
0000
0000
0000
,  // measure 51
0100
0000
0000
0000
,  // measure 52
0200
0000
0300
0000
,  // measure 53
0000
0000
0000
0000
,  // measure 54
1000
0000
1000
0000
,  // measure 55
1000
0000
0000
0000
,  // measure 56
0001
0000
0001
0000
,  // measure 57
0001
0000
0000
0000
,  // measure 58
1000
0000
1000
0000
,  // measure 59
1000
0000
0000
0000
,  // measure 60
0001
0000
0001
0000
,  // measure 61
0001
0000
0000
0000
,  // measure 62
0100
0000
0000
0000
,  // measure 63
0100
0000
0000
0000
,  // measure 64
0100
0000
0000
0000
,  // measure 65
0100
0000
0000
0000
,  // measure 66
0001
0000
0001
0000
,  // measure 67
1000
0000
1000
0000
,  // measure 68
0100
0000
0100
0000
,  // measure 69
1001
0000
0000
0000
;
