#TITLE:Akai Suzu;
#SUBTITLE:;
#ARTIST:Asaki;
#TITLETRANSLIT:;
#SUBTITLETRANSLIT:;
#ARTISTTRANSLIT:;
#GENRE:;
#CREDIT:dominatorstrangeman8;
#BANNER:[12th Week] - Akai Suzu.png;
#BACKGROUND:[12th Week] - Akai Suzu-bg.png;
#LYRICSPATH:;
#CDTITLE:;
#MUSIC:[12th Week] - Akai Suzu.ogg;
#OFFSET:1.080;
#SAMPLESTART:27.303;
#SAMPLELENGTH:12.000;
#LASTBEATHINT:0.293;
#SELECTABLE:YES;
#BPMS:0.000=220.000,420.000=110.000
;
#STOPS:427.500=0.260;
#BGCHANGES:;
#KEYSOUNDS:;
#ATTACKS:;

//---------------dance-single - ----------------
#NOTES:
     dance-single:
     :
     Beginner:
     2:
     0.115,0.134,0.017,0.000,0.000,95.000,2.000,0.000,0.000,0.000,0.000,0.115,0.134,0.017,0.000,0.000,95.000,2.000,0.000,0.000,0.000,0.000:
0000
0000
0000
0000
,
0100
0000
0000
0000
,
0000
0000
0000
0000
,
0001
0000
0000
0000
,
0100
0000
0000
0000
,
0010
0000
0000
0000
,
0000
0000
0000
0000
,
1000
0000
0000
0000
,
0100
0000
0000
0000
,
0010
0000
0000
0000
,
0000
0000
0000
0000
,
0001
0000
0000
0000
,
0100
0000
0000
0000
,
0010
0000
0000
0000
,
1000
0000
0000
0000
,
0001
0000
0000
0000
,
0010
0000
0000
0000
,
0100
0000
0000
0000
,
0100
0000
0000
0000
,
1000
0000
0000
0000
,
0100
0000
0000
0000
,
0010
0000
0000
0000
,
0010
0000
0000
0000
,
0100
0000
0000
0000
,
1001
0000
0000
0000
,
0001
0000
0000
0000
,
0001
0000
0000
0000
,
0100
0000
0000
0000
,
0010
0000
0000
0000
,
1000
0000
0000
0000
,
0001
0000
0000
0000
,
0100
0000
0000
0000
,
0100
0000
0000
0000
,
0010
0000
0000
0000
,
0010
0000
0000
0000
,
1000
0000
0000
0000
,
0100
0000
0000
0000
,
0010
0000
0000
0000
,
0001
0000
0000
0000
,
0100
0000
0000
0000
,
0000
0000
0000
0000
,
0001
0000
0000
0000
,
0000
0000
0000
0000
,
1000
0000
0000
0000
,
0100
0000
0000
0000
,
1000
0000
0000
0000
,
0001
0000
0000
0000
,
0100
0000
0000
0000
,
0000
0000
0000
0000
,
0010
0000
0000
0000
,
0010
0000
0000
0000
,
1000
0000
0000
0000
,
0100
0000
0000
0000
,
0010
0000
0000
0000
,
0010
0000
0000
0000
,
0001
0000
0000
0000
,
0100
0000
0000
0000
,
0010
0000
0000
0000
,
0010
0000
0000
0000
,
1000
0000
0000
0000
,
0100
0000
0000
0000
,
0010
0000
0000
0000
,
0001
0000
0000
0000
,
0100
0000
0000
0000
,
0010
0000
0000
0000
,
0010
0000
0000
0000
,
0010
0000
0000
0000
,
1000
0000
0000
0000
,
1000
0000
0000
0000
,
0100
0000
0000
0000
,
0000
0000
0000
0000
,
0010
0000
0000
0000
,
0000
0000
0000
0000
,
0001
0000
0000
0000
,
0001
0000
0000
0000
,
0100
0000
0000
0000
,
0100
0000
0000
0000
,
0010
0000
0000
0000
,
1000
0000
0000
0000
,
0100
0000
0000
0000
,
0010
0000
0000
0000
,
0001
0000
0000
0000
,
0001
0000
0000
0000
,
0100
0000
0000
0000
,
0100
0000
0000
0000
,
0010
0000
0000
0000
,
0010
0000
0000
0000
,
0100
0000
0000
0000
,
0001
0000
0000
0000
,
0010
0000
0000
0000
,
0100
0000
0000
0000
,
0100
0000
0000
0000
,
1000
0000
0000
0000
,
0010
0000
0000
0000
,
0000
0000
0000
0000
,
0100
0000
0000
0000
,
0001
0000
0000
0000
,
0010
0000
0000
0000
,
0000
0000
0000
0000
,
0100
0000
0000
0000
,
0000
0000
0000
0000
,
1000
0000
0000
0000
,
0000
0000
0000
0000
,
0001
0000
0000
0000
,
0100
0000
0000
0000
,
0010
0000
0000
0000
,
0100
0000
0000
0000
,
1001
0000
0000
0000
;

//---------------dance-single - ----------------
#NOTES:
     dance-single:
     :
     Easy:
     4:
     0.256,0.268,0.183,0.108,0.000,180.000,22.000,13.000,0.000,0.000,0.000,0.256,0.268,0.183,0.108,0.000,180.000,22.000,13.000,0.000,0.000,0.000:
0000
0000
0000
0000
,
0200
0000
0000
0000
,
0310
0000
0001
0000
,
0200
0000
0000
0000
,
0320
0000
0000
0000
,
2030
0000
0000
0000
,
3100
0000
0010
0000
,
0002
0000
0000
0000
,
0203
0000
0000
0000
,
0320
0000
0000
0000
,
1030
0000
0100
0000
,
0020
0000
0000
0000
,
0130
0000
0000
0000
,
0001
0000
0100
0000
,
1000
0000
0010
0000
,
0200
0000
0000
0000
,
0301
0000
0000
0000
,
1000
0000
0100
0000
,
0010
0000
0001
0000
,
1001
0000
0000
0000
,
0110
0000
0000
0000
,
0100
0000
0100
0000
,
0001
0000
0001
0000
,
0010
0000
0010
0000
,
0110
0000
0000
0000
,
0100
0000
0100
0000
,
1000
0000
0001
0000
,
0100
0000
0100
0000
,
0010
0000
1000
0000
,
0001
0000
0001
0000
,
0010
0000
0100
0000
,
1000
0000
1000
0000
,
0100
0001
0100
0000
,
1000
0000
1000
0000
,
0010
0000
0010
0000
,
0100
0000
0001
0000
,
1000
0100
1000
0000
,
0002
0000
0000
0000
,
2003
0000
0000
0000
,
3010
0000
0100
0000
,
0001
0010
0100
0010
,
0001
0000
1000
0000
,
0001
0000
0010
0000
,
0100
0000
1000
0000
,
0010
0000
0100
0000
,
0020
0000
1000
0000
,
0130
0001
0100
0000
,
0010
0000
1000
0000
,
0100
0000
0000
0000
,
0010
0000
0010
0000
,
0001
0000
0001
0000
,
0100
0000
0010
0000
,
1000
0100
1000
0000
,
0001
0000
0001
0000
,
1000
0000
0010
0000
,
0100
0001
0100
0000
,
0010
1000
0010
0000
,
0100
0000
0001
0000
,
1000
0000
0100
0000
,
0010
0100
0010
0000
,
0001
0100
0001
0000
,
2000
0000
0000
0000
,
3100
0000
0010
0000
,
0001
0000
0100
0000
,
0010
0000
1000
0000
,
1100
0000
1100
0000
,
1100
0000
0000
0000
,
0110
0000
0110
0000
,
0110
0000
0000
0000
,
1100
0000
0100
0000
,
0000
0000
0010
0000
,
0011
0000
0001
0000
,
0000
0000
0000
0000
,
0101
0000
0101
0000
,
0101
0000
0000
0000
,
1100
0000
1100
0000
,
1100
0000
0000
0000
,
0110
0000
0000
0000
,
1001
0000
0000
0000
,
1100
0000
0000
0000
,
0011
0000
0000
0000
,
1000
0000
1000
0000
,
0100
0000
0100
0000
,
0010
0000
0010
0000
,
0001
0000
0001
0000
,
0100
0000
0100
0000
,
0010
0000
0010
0000
,
1000
0000
0000
0000
,
0001
0000
0000
0000
,
0010
0000
0010
0000
,
0100
0000
0000
0000
,
1000
0000
1000
0000
,
0001
0000
1000
0000
,
0100
0000
0000
0000
,
0000
0000
0000
0000
,
0100
0000
0000
0000
,
1000
0000
0000
0000
,
0010
0000
0010
0000
,
0100
0000
0100
0000
,
0001
0000
1000
0000
,
0100
0000
0000
0000
,
0010
0000
0000
0000
,
0100
0000
0000
0000
,
1000
0000
0000
0000
,
0001
0000
0100
0000
,
0010
0000
0000
0000
,
0100
0000
0000
0000
,
1001
0000
0000
0000
;

//---------------dance-single - ----------------
#NOTES:
     dance-single:
     :
     Medium:
     8:
     0.475,0.446,0.183,0.200,0.083,353.000,22.000,24.000,0.000,0.000,0.000,0.475,0.446,0.183,0.200,0.083,353.000,22.000,24.000,0.000,0.000,0.000:
0000
0000
0000
0000
,
0100
1000
0001
0000
,
0100
0010
1000
0100
,
0020
0001
0100
0031
,
2000
0010
0100
3010
,
0100
0001
1000
0000
,
0100
0000
0000
0010
0000
0000
0001
0000
0000
0100
0000
0010
,
1000
0100
0100
0000
,
0010
0000
0001
0000
0001
0100
0000
0000
,
1001
0100
0010
1000
,
0100
0000
0000
0001
0000
0000
0100
0000
0000
1000
0000
0010
,
0100
0001
0001
0000
,
0010
0100
0100
1000
,
0020
0000
0000
0230
0000
0000
0302
0000
,
0023
0000
0000
0230
0000
0000
2300
0000
,
3002
0000
0203
0000
,
0310
0100
0001
0010
,
0100
1000
0100
0000
,
0010
0000
0001
0000
0010
0100
0000
1001
,
0000
0000
0000
0000
,
0110
0000
0100
0000
,
0010
0000
0000
0000
0000
0010
0000
0000
0000
0000
0000
0000
,
1000
0000
0000
0000
0000
0100
0000
0000
0000
0000
0000
0000
,
0010
0000
0000
0000
0010
0000
0000
1001
,
0000
0010
0100
0010
,
0100
0100
0001
0010
,
0100
0000
1000
0100
0000
1000
0000
0000
0000
0010
0000
0000
,
0100
0100
0001
0010
,
0100
0000
1000
0001
0000
0100
0010
0000
0000
0000
0000
0000
,
1000
0000
0001
0010
0000
0000
0100
0000
0000
0100
0000
0000
,
0010
0000
0001
0001
,
0100
0010
1000
1000
,
0100
0010
0010
0001
,
0001
0000
0000
1000
0000
0000
0010
0000
0100
0000
0000
0001
,
0000
0010
0100
1000
,
0001
0100
1000
0100
,
0001
0000
0010
0000
0100
1000
0000
0000
,
0020
0000
0000
0000
0000
0230
0000
0320
,
0000
0000
0000
0030
2000
0000
0000
0000
,
3200
0000
0320
0000
,
0031
0100
0001
0010
,
0100
0000
0100
1000
0000
0000
0001
0000
0000
0000
0000
0000
,
0100
0000
0010
0000
,
1000
0100
0010
0000
,
0001
0000
0100
0000
,
0010
0000
0010
0000
0010
0000
0000
1000
,
0000
1000
0000
1000
0100
0000
0000
0000
,
0010
0000
0001
0000
0010
0000
0100
0000
1000
0000
0100
0000
,
0020
0000
0031
0000
,
0100
0001
0100
0010
,
1000
0000
0100
1000
0000
1000
0000
0000
0000
0001
0000
0000
,
0100
1000
0100
0001
,
0010
0100
1000
0000
,
0010
0100
0001
1000
,
0100
0010
0001
0100
,
0010
0010
0010
0100
,
0001
1000
1000
0100
,
0010
0000
0001
0010
0000
0000
0100
0000
0000
1000
0000
1000
,
0000
0001
0100
1000
,
0100
0001
0010
0100
,
1000
0010
0010
0100
,
0002
0000
0000
0000
0003
0010
0000
0200
,
0000
0000
2300
0000
,
3020
0000
0230
0000
,
0301
0010
0100
1000
,
0011
1000
1100
0001
,
0011
0000
1000
0000
,
1010
0100
0101
1000
,
1010
0000
0100
0000
,
1001
0000
0100
0000
,
0000
0000
0100
0000
,
0110
0000
0010
0000
,
0000
0010
0010
0000
,
1001
0100
0110
1000
,
1001
0000
0010
0000
,
0011
1000
1100
0001
,
1001
0000
0100
0000
,
0110
0000
0100
0000
,
1001
0000
0001
0000
,
0010
0000
0010
0100
,
1000
0000
1000
0010
,
0100
0100
0100
0001
,
1000
1000
1000
0100
,
0010
0010
0010
0001
,
0100
0100
0100
0001
,
1000
0100
1000
0010
,
0100
0001
0100
0010
,
1000
0001
1000
0100
,
0010
0000
0001
0000
,
0100
0010
0010
1000
,
0100
0010
0000
0000
,
0100
1000
0001
0100
,
0010
0000
0010
1000
,
0100
0000
0000
0000
,
0010
0000
0001
0100
,
0010
0000
0010
1000
,
0100
0000
0100
0000
,
0020
0001
0001
0001
,
0032
0100
0100
0100
,
0103
0010
0100
0001
,
0010
0100
0010
0100
,
1000
0000
0010
0100
0000
0000
0001
0000
,
0010
0100
0000
0000
1000
0000
0001
0000
,
0100
0010
0100
0001
,
0001
0000
1000
0000
,
1001
0010
0000
0010
,
0100
1000
0000
1000
,
1001
0000
0000
0000
;

//---------------dance-single - ----------------
#NOTES:
     dance-single:
     :
     Hard:
     10:
     0.777,0.803,0.350,0.183,0.933,589.000,42.000,22.000,0.000,0.000,0.000,0.777,0.803,0.350,0.183,0.933,589.000,42.000,22.000,0.000,0.000,0.000: // measure 0
0000
0000
0000
0000
,  // measure 1
0100
0010
0001
0100
,  // measure 2
0010
0000
0000
1000
0000
0000
0100
0000
0000
0001
0000
0100
,  // measure 3
0020
0001
0100
0031
,  // measure 4
0200
0001
1000
0301
,  // measure 5
0010
0100
1000
0001
,  // measure 6
0100
0000
0000
0010
0000
0000
1000
0000
0000
0001
0000
0100
,  // measure 7
0010
0000
0000
0010
0000
0000
0010
0000
0000
0100
0000
0001
,  // measure 8
1000
0001
1000
0001
0000
0010
0100
0000
0010
0000
0000
0000
,  // measure 9
1001
0100
0001
1000
,  // measure 10
0100
0000
0000
0010
0000
0000
0001
0000
0000
0100
0000
0010
,  // measure 11
2000
0001
0010
0100
,  // measure 12
3002
1000
0010
0100
,  // measure 13
0013
0000
0000
0100
0000
0000
1000
0000
,  // measure 14
0010
0000
0000
0100
0000
0000
0001
0000
,  // measure 15
2000
0010
0100
3010
,  // measure 16
0100
0001
0100
0010
1000
0001
0010
0100
1000
0100
0010
0001
,  // measure 17
0100
0000
0010
0000
1000
0000
0000
0100
,  // measure 18
0000
0000
0010
0000
0001
1001
0000
2002
,  // measure 19
0000
0000
0000
0000
0000
0000
3000
0003
,  // measure 20
0100
0000
0000
0010
0000
0000
1000
0001
1000
0001
1000
0001
,  // measure 21
1000
0000
0010
0000
0000
0100
0001
0000
0000
0000
0000
0000
,  // measure 22
1001
0000
0000
0000
0000
1100
0000
0000
0001
0010
0000
0100
,  // measure 23
1000
0000
0000
0000
0000
0100
0010
0000
0001
0000
0000
1001
,  // measure 24
0000
0000
0000
0110
0000
0000
0010
1000
0010
0100
0000
0000
,  // measure 25
1001
0000
1000
0100
0000
0100
0010
0000
0010
0001
0000
0001
,  // measure 26
1000
0000
1000
0010
0000
0010
0000
0000
0100
0001
0000
0001
,  // measure 27
1000
0000
1000
0100
0000
0100
0010
0000
0010
0100
0000
0100
,  // measure 28
1000
0000
1000
0001
0000
0100
0010
0000
0010
0000
0000
0000
,  // measure 29
0110
0000
0000
1000
0000
0100
0000
0000
0010
0001
0000
0100
,  // measure 30
0010
0000
0000
0000
0000
1000
0100
0000
0010
0001
0000
0100
,  // measure 31
0010
0000
0100
0001
0000
0010
0100
0000
1000
0001
0000
0100
,  // measure 32
0010
0100
0101
1100
,  // measure 33
0100
0000
0010
0001
0000
0000
1000
0000
1100
0000
0000
0101
,  // measure 34
0000
1000
0100
0010
,  // measure 35
0001
0000
0100
0010
0000
1000
0001
0000
0010
0100
0000
0010
,  // measure 36
0000
0000
0001
0010
0000
0100
1000
0000
0010
0000
0000
0000
,  // measure 37
2000
0000
0000
0000
0000
0000
0000
0000
3100
0000
0000
0020
,  // measure 38
0000
0000
0032
0000
,  // measure 39
0203
0010
0320
0030
,  // measure 40
1010
0001
0011
1000
,  // measure 41
1001
0000
0100
0010
0000
0100
0000
0000
0001
0000
0000
1000
,  // measure 42
0100
0000
0000
0010
0001
1000
0010
0000
0100
0001
0000
1000
,  // measure 43
0000
0000
0000
0100
0000
0000
0010
0000
0001
0100
0000
0010
,  // measure 44
0000
0000
0100
0010
1000
0100
0010
0001
1000
0010
0000
0000
,  // measure 45
0010
0000
1001
0000
1001
0000
0000
0110
,  // measure 46
0000
0110
0000
0010
1000
0000
0000
0000
,  // measure 47
0100
0000
0010
0000
0001
0000
0100
0000
0010
0000
1000
0000
,  // measure 48
0100
0000
0000
0010
0000
0000
0001
1000
0001
0010
0000
0000
,  // measure 49
0011
0000
1000
0100
0000
0010
0001
0000
0100
0010
0000
1000
,  // measure 50
0001
1000
0001
1000
0000
0010
0000
0000
0100
0001
0000
1000
,  // measure 51
0100
0000
0010
0001
0000
0100
0010
0000
0010
0100
0000
0001
,  // measure 52
1000
0000
0100
0010
0000
0001
0100
0000
0010
0000
0000
0000
,  // measure 53
0100
0000
0100
0001
0000
1000
0000
0000
0100
0010
0000
0001
,  // measure 54
0100
0000
0010
1000
0000
0001
0010
0000
0100
1000
0000
1000
,  // measure 55
0100
0000
0000
0100
0000
0000
0010
0000
0000
0001
0000
0100
,  // measure 56
0010
1000
1000
0100
,  // measure 57
0010
0000
0001
0010
0000
0100
1000
0000
0001
0000
0000
0100
,  // measure 58
0000
0100
0010
1000
,  // measure 59
0100
0000
0010
0001
0000
0100
0010
0000
1000
0100
0000
0010
,  // measure 60
0000
0000
0001
0100
0000
0010
1000
0000
0001
0000
0000
0000
,  // measure 61
0020
0000
0000
0000
0000
0230
0000
2300
,  // measure 62
0000
0000
3001
0000
,  // measure 63
0100
0010
0100
0001
0000
1000
0100
0000
0010
0001
1000
0001
,  // measure 64
1000
0100
0010
0001
,  // measure 65
0101
1001
1100
1001
,  // measure 66
0101
0000
0000
0000
0000
0000
1000
0000
0000
0100
0000
0000
0000
0000
0000
0000
0010
0000
0001
0000
0000
0000
1000
0000
,  // measure 67
0100
1001
0101
1001
,  // measure 68
1100
0000
0000
0000
0000
0000
0010
0000
0000
0001
0000
0000
0000
0000
0000
0000
0100
0000
0010
0000
0000
0000
1000
0000
,  // measure 69
0100
0000
0010
0001
0000
2000
0000
0000
,  // measure 70
0000
3010
0100
0001
,  // measure 71
0010
0000
0100
2000
0000
0000
0000
0000
,  // measure 72
3010
0000
0000
0100
0001
0100
0010
1000
0010
1000
0001
0010
,  // measure 73
0100
1100
0011
1100
,  // measure 74
1001
0000
0000
0000
0000
0000
0100
0000
0000
0010
0000
0000
0000
0000
0000
0000
1000
0000
0100
0000
0000
0000
0001
0000
,  // measure 75
0100
1001
0110
1001
,  // measure 76
0110
0000
0000
0000
0000
0000
0100
0000
0000
1000
0000
0000
0000
0000
0000
0000
0000
0000
0001
0000
0000
0000
0100
0000
,  // measure 77
0010
0000
0000
0000
0000
0000
1000
0000
0000
0100
0000
0000
0000
0000
0000
0000
0000
0000
0010
0000
0000
0000
0001
0000
,  // measure 78
0100
0000
0000
0000
0000
0000
1000
0000
0000
0100
0000
0000
0000
0000
0000
0000
0000
0000
0001
0000
0000
0000
0010
0000
,  // measure 79
0100
0000
1000
0001
0000
0100
0010
0000
1000
0001
0000
0010
,  // measure 80
0100
0000
1000
0001
0000
0100
0010
0000
1000
0100
0000
0010
,  // measure 81
0001
0000
0001
0100
0000
0100
0010
0000
0010
1000
0000
1000
,  // measure 82
0100
0000
0100
0010
0000
0010
0001
0000
0001
0100
0000
0100
,  // measure 83
0010
0000
0010
1000
0000
1000
0100
0000
0100
0010
0000
0010
,  // measure 84
0001
0000
0100
0010
0000
1000
0000
0000
0100
0010
0000
0001
,  // measure 85
0010
0000
0010
0100
0000
0100
1000
0000
1000
0001
0000
0001
,  // measure 86
0100
0000
0100
0010
0000
0010
1000
0000
0001
0010
0000
0100
,  // measure 87
1000
0000
0000
0001
0000
0000
0100
0000
0010
0100
0000
0001
,  // measure 88
0100
0001
0100
0010
0000
1000
0001
1000
0100
0010
0000
0100
,  // measure 89
1000
0000
1000
0001
0000
0001
0100
0000
0010
1000
0000
0100
,  // measure 90
0010
0000
0001
0000
0000
0000
0100
0000
0010
1000
0000
1000
,  // measure 91
0100
0000
0010
0001
0000
0100
0010
0000
1000
0010
0000
0100
,  // measure 92
0000
0000
0001
1000
0000
0100
0010
0000
0001
0100
0000
0010
,  // measure 93
2000
0010
0100
0010
,  // measure 94
3002
0000
0000
0010
0000
0000
0100
0000
0000
0013
0000
0001
,  // measure 95
1000
0000
0000
0010
0000
0000
0100
0000
0001
0010
0000
0100
,  // measure 96
0010
0001
0101
1000
,  // measure 97
1100
0000
0010
0001
0000
0100
0000
0000
0100
0010
0000
0010
,  // measure 98
1000
0000
1000
0100
0000
0100
0010
0000
0010
0001
0000
0001
,  // measure 99
1000
0000
1000
0010
0000
0100
0000
0000
0100
0001
0000
0001
,  // measure 100
2000
0000
0000
3001
0000
0001
0100
0000
0010
0000
1000
0000
,  // measure 101
0100
0000
0010
0001
0000
0000
0100
0000
,  // measure 102
0010
0000
0000
1000
0000
0000
0000
0000
0000
0000
0000
0000
0100
0000
0000
0000
0100
0000
0010
0000
0000
0000
0000
0000
,  // measure 103
0001
0000
0100
0010
0000
1000
0000
0000
0100
0010
0001
0100
,  // measure 104
0010
0000
0100
0000
,  // measure 105
2001
0010
0000
0010
,  // measure 106
3002
0010
0000
0013
,  // measure 107
1001
0000
0000
0000
;
