#TITLE:9-bit Skies;
#SUBTITLE:;
#ARTIST:halc;
#TITLETRANSLIT:;
#SUBTITLETRANSLIT:;
#ARTISTTRANSLIT:;
#CREDIT:;
#BANNER:bn.png;
#BACKGROUND:bg.png;
#LYRICSPATH:;
#CDTITLE:cd.png;
#MUSIC:9-bit Skies.mp3;
#OFFSET:-14.167;
#SAMPLESTART:42.400;
#SAMPLELENGTH:12.000;
#SELECTABLE:YES;
#BPMS:0.000=136.000;
#STOPS:125.667=0.882
,131.667=0.882
,137.667=0.882
,151.667=0.882
,157.667=0.882
,163.667=0.441
,178.667=0.882
,184.667=0.882
,190.667=0.441
,197.667=0.882
,198.000=3.971
;
#BGCHANGES:;

//---------------dance-single - ----------------
#NOTES:
     dance-single:
     :
     Hard:
     8:
     0.376,0.393,0.155,0.095,0.564:
1000
0000
0000
0001
0000
0000
0100
0000
0000
0010
0000
0010
,
0000
0000
1000
0001
0000
0000
0001
0000
0010
0000
0000
0000
,
0010
0000
0000
0001
0000
0000
0010
0000
0000
0001
0000
1000
,
0000
0000
0010
1000
0000
0000
1000
0010
0100
0001
0010
1000
,
0010
0000
0000
0100
0000
0000
1000
0000
0000
0001
0000
0100
,
0000
0000
0010
0100
0001
0100
0001
0000
1000
0000
1000
0100
,
0010
0000
0000
0100
0000
0000
1000
0000
0000
0001
0000
0100
,
0000
0000
0001
0010
0000
0000
0010
0100
1000
0001
0100
0010
,
0100
0000
0000
0010
0000
0000
1000
0000
0000
0010
0000
0100
,
0000
0000
0010
1000
0000
0000
0001
0000
1001
0000
0000
0000
,
0001
0000
0000
0010
0000
0000
0100
0000
0000
0010
0000
0001
,
0000
0000
0001
0100
0000
0000
0010
1000
0010
0001
0010
1000
,
0100
0000
0000
0010
0000
0000
0001
0000
0000
1000
0000
0001
,
0000
0000
0001
0100
0010
0100
0010
0000
0100
0000
0010
1000
,
0001
0000
0000
1100
0000
0000
0101
0000
0000
0001
0000
0001
,
0000
0000
1000
0100
0000
0000
0010
0001
0100
1000
0100
0010
,
1000
0000
0000
1000
0000
0001
0000
0000
0000
0001
0000
0001
,
0000
0000
0000
0001
0000
0100
0000
0000
0010
1000
0000
1000
,
0100
0000
0000
0100
0000
0000
0010
0000
0000
0100
0000
1000
,
0000
0000
0000
1000
0000
0001
0000
0000
0001
0100
0000
0001
,
0020
0000
0000
0100
0000
0000
0130
0000
0100
0010
0000
0001
,
0000
0000
1000
0000
0000
0010
0000
0000
0100
0010
0000
0010
,
2000
0000
0000
0001
0000
0000
3001
0000
0001
0010
0000
0100
,
0000
0000
0010
0001
0000
1000
0000
0000
1000
0010
0000
0200
,
0000
0000
0000
0000
0000
0000
0010
0000
0010
0000
0000
0020
,
0000
0000
0000
0000
0000
0000
0000
0000
0000
0330
0000
0000
0100
0000
0000
0000
0010
0000
0100
0000
0000
0000
0010
0000
,
2000
0000
0000
3000
0000
0000
0001
0000
0001
0000
0000
0002
,
0000
0000
0000
0100
0003
0100
0001
0000
0001
0010
0000
0010
,
0200
0000
0000
0010
0000
0000
0310
0000
0010
0001
0000
2000
,
0000
0000
0000
0000
0000
0000
3001
0000
1000
0001
0000
0001
,
0100
0000
0000
1000
0000
0000
0100
0000
0000
0010
0000
1000
,
0000
0000
0001
0000
0000
0010
0100
0000
0000
1000
0000
0000
,
0010
0000
0000
0100
0000
0001
0000
0000
1000
0000
0000
1100
,
0101
0000
0000
0100
0000
0000
0001
0000
0000
1000
0000
0001
,
0000
0000
0010
0100
0000
0010
0001
0000
0000
0100
0000
0000
,
0010
0000
0000
0010
0000
0100
0000
0000
0100
0000
0000
0001
,
0100
0010
0100
0010
1000
0010
0100
0000
0000
0001
0000
0000
,
0010
0000
0000
0010
0000
0100
0000
0000
1000
0000
0000
1001
,
0101
0000
0000
0100
0000
0000
0001
0000
0000
0001
0000
0010
,
0000
0000
0010
0000
0000
0200
1300
0000
0000
0100
0000
0000
,
1000
0000
0000
1000
0000
0001
0000
0000
0010
0000
0000
0011
,
0001
0100
0001
0010
0000
0000
0100
0000
0000
1000
0000
0000
,
1000
0000
0001
0000
0000
0110
0000
0000
0100
0010
1000
0010
,
0001
0010
1000
0010
0000
1000
0010
0000
0000
0100
0000
0000
,
0010
0000
1000
0000
0000
0001
0000
0000
0110
0011
0000
0001
,
0010
0000
0100
1000
0000
1000
0001
0000
0010
0000
0000
0100
,
0000
0000
1001
0101
0000
0000
0110
0000
0000
1010
0000
0010
,
1000
0000
0100
0000
0000
0010
0001
0000
0100
0010
1000
0010
,
0100
0000
0000
0010
0000
0000
1000
0000
0000
0001
0000
1010
,
0000
0000
0100
0010
0000
1001
0220
0000
0000
0000
0000
0000
,
0000
0000
0000
0330
;

//---------------dance-single - ----------------
#NOTES:
     dance-single:
     :
     Medium:
     5:
     0.283,0.262,0.069,0.069,0.344:
1000
0000
0000
0001
0000
0000
0010
0000
0000
0001
0000
0001
,
0000
0000
0001
0100
0000
0000
0010
0000
0010
0000
0000
0000
,
0100
0000
0000
0010
0000
0000
0100
0000
0000
0010
0000
1000
,
0000
0000
1000
0100
0000
0000
0010
0000
0000
0001
0000
0000
,
1000
0000
0000
0001
0000
0000
0100
0000
0000
0001
0000
0010
,
0000
0000
0100
0020
0000
0000
0031
0000
1000
0000
0001
0000
,
0100
0000
0000
0100
0000
0000
0001
0000
0000
1000
0000
0100
,
0000
0000
0010
0001
0000
0000
0001
0000
0000
0100
0000
0000
,
0001
0000
0000
1000
0000
0000
0100
0000
0000
1000
0000
1000
,
0000
0000
1000
0010
0000
0000
0100
0000
0100
0000
0000
0000
,
0010
0000
0000
0100
0000
0000
0010
0000
0000
0100
0000
0001
,
0000
0000
0001
0010
0000
0000
0100
0000
0000
1000
0000
0000
,
0001
0000
0000
1000
0000
0000
0010
0000
0000
1000
0000
0100
,
0000
0000
0010
0200
0000
0000
1300
0000
0001
0000
1000
0000
,
0010
0000
0000
0010
0000
0000
1000
0000
0000
0001
0000
0010
,
0000
0000
0100
1000
0000
0000
1000
0000
0000
0010
0000
0000
,
0100
0000
0000
0010
0000
0000
1010
0000
0000
0010
0000
0100
,
0000
0000
0001
0000
0000
0000
1001
0000
0000
0001
0000
0000
,
0100
0000
0000
1000
0000
0000
0100
0000
0000
0001
0000
0010
,
0000
0000
0000
0100
0000
0100
0000
0000
0010
0001
0000
0010
,
0001
0000
0000
0000
0000
0000
0001
0000
0001
0100
0000
0010
,
0000
0000
1000
0000
0000
0001
0000
0000
0001
0100
0000
0100
,
0010
0000
0000
0000
0000
0000
0000
0000
0010
0000
0000
1000
,
0000
0000
1000
0000
0000
0001
0000
0000
0001
0000
0000
0010
,
0000
0000
0000
0000
0000
0000
0010
0000
0100
0000
0000
2200
,
0000
0000
0000
0000
0000
3300
1000
0000
0000
1000
0000
0000
,
1200
0000
0000
0000
0000
0000
0310
0000
0010
0000
0000
0020
,
0000
0000
0030
0000
,
1001
0000
0000
0000
0000
0000
0001
0000
0100
0000
0000
0010
,
0000
0000
0100
0100
,
1001
0000
0000
0001
0000
0000
1000
0000
0000
0100
0000
1000
,
0000
0000
0100
0000
0000
0010
0010
0000
0000
0001
0000
0000
,
0010
0000
0000
0001
0000
0100
0000
0000
1000
0000
0000
0100
,
0010
0000
0000
1000
0000
0000
0010
0000
0000
0100
0000
0100
,
0000
0000
0010
0000
0000
1000
1000
0000
0000
0001
0000
0000
,
1000
0000
0000
0001
0000
0001
0000
0000
0100
0000
0000
0010
,
0100
0100
0010
1000
,
0001
0000
0000
0010
0000
0100
0000
0000
0100
0000
0000
0100
,
0100
0000
0000
1000
0000
0000
0100
0000
0000
1000
0000
0010
,
0000
0000
0001
0000
0000
0010
0100
0000
0000
0010
0000
0000
,
1000
0000
0000
0001
0000
1000
0000
0000
0001
0000
0000
0100
,
0010
0010
1000
0010
,
0001
0000
0010
0000
0000
0100
0000
0000
0010
0000
0000
0000
,
0000
0001
1001
1000
,
0001
0000
0000
0100
0000
0001
0000
0000
0010
0010
0000
0000
,
0100
0000
0000
1000
0000
0000
0100
0000
0000
1000
0000
0010
,
0000
0000
0100
0010
0000
0000
1000
0000
0000
0001
0000
0000
,
0010
0000
0100
0000
0000
0100
1000
0000
0100
0000
0000
0000
,
1000
0000
0000
1000
0000
0000
0001
0000
0000
1000
0000
0001
,
0000
0000
0001
0100
0000
0010
2002
0000
0000
0000
0000
0000
,
0000
0000
0000
3003
;

//---------------dance-single - ----------------
#NOTES:
     dance-single:
     :
     Easy:
     2:
     0.171,0.170,0.077,0.043,0.000:
1000
1000
0010
0000
,
0100
0000
0010
0000
,
1000
1000
0001
0000
,
0100
0000
0002
0000
,
0013
0010
0100
0000
,
1000
0000
1000
0000
,
0001
0001
0001
0000
,
0100
0000
0001
1000
,
0100
1000
0100
0000
,
0010
0000
0001
0000
,
0100
0001
0100
1000
,
0100
0100
0010
0000
,
0100
0000
0001
0000
,
1000
0100
0010
0000
,
0100
0000
1000
0000
,
0001
0100
0020
0000
,
0130
0000
0010
0000
,
1000
1000
0001
0000
,
1000
0000
0100
0000
,
0010
0010
0100
0000
,
0001
0001
0100
0000
,
0010
1000
0001
1000
,
0010
0000
1000
0000
,
0001
1000
0100
0000
,
2000
0000
0000
0000
,
0000
0000
3100
0010
,
0002
0000
0000
0000
,
0000
0000
0013
0100
,
2000
0000
0000
0000
,
0000
0000
3100
0010
,
0001
0001
0001
0000
,
1000
0000
0010
0010
,
0010
0000
0100
0000
,
1001
0000
0000
0000
,
0110
0000
1010
0000
,
0000
0000
0101
0000
,
0100
0100
0010
1000
,
0001
0000
1000
1000
,
1000
0000
0001
0000
,
0100
0100
0110
0000
,
0000
0000
1001
0000
,
0000
0101
0000
0000
,
0000
1010
0000
0010
,
1000
0001
1000
0100
,
0000
0100
0010
0001
,
0010
0100
0000
0100
,
1000
0010
0100
0001
,
0000
1000
0001
0100
,
0100
0001
1000
0000
,
0100
1000
0110
0000
;

//---------------dance-single - ----------------
#NOTES:
     dance-single:
     :
     Beginner:
     1:
     0.080,0.107,0.000,0.000,0.000: // measure 1
0010
0000
0000
0000
,  // measure 2
0000
0000
0000
0000
,  // measure 3
0100
0000
0000
0000
,  // measure 4
0000
0000
0001
0000
,  // measure 5
0001
0000
0000
0000
,  // measure 6
0000
0000
0000
0000
,  // measure 7
1000
0000
0000
0000
,  // measure 8
0000
0000
0100
0000
,  // measure 9
0010
0000
0000
0000
,  // measure 10
0001
0000
0000
0000
,  // measure 11
0100
0000
0000
0000
,  // measure 12
0010
0000
0100
0000
,  // measure 13
0010
0000
0000
0000
,  // measure 14
1000
0000
0000
0000
,  // measure 15
0001
0000
0000
0000
,  // measure 16
1000
0000
0100
0000
,  // measure 17
1000
0000
0000
0001
,  // measure 18
0001
0000
0000
0000
,  // measure 19
0100
0000
0100
0000
,  // measure 20
0100
0000
0000
0010
,  // measure 21
0010
0000
1000
0000
,  // measure 22
0000
0000
0001
0000
,  // measure 23
0100
0000
0000
0000
,  // measure 24
0010
0000
0000
0000
,  // measure 25
0100
0000
0010
0000
,  // measure 26
0000
0000
1000
1000
,  // measure 27
1000
0000
0001
0000
,  // measure 28
0000
0000
0100
0100
,  // measure 29
0100
0000
0010
0000
,  // measure 30
0000
0000
0000
0000
,  // measure 31
0100
0000
0000
0000
,  // measure 32
0010
0000
1000
0000
,  // measure 33
0000
0000
0001
0000
,  // measure 34
0100
0000
0000
0000
,  // measure 35
0100
0000
0001
0000
,  // measure 36
0000
0000
1000
0000
,  // measure 37
0010
0000
1000
0000
,  // measure 38
0000
0000
0001
0000
,  // measure 39
0100
0000
0000
0000
,  // measure 40
0010
0000
0100
0000
,  // measure 41
0000
0000
0001
0000
,  // measure 42
0000
1000
0000
0000
,  // measure 43
0000
1000
0000
0001
,  // measure 44
0000
0100
0000
0000
,  // measure 45
0000
0010
0000
1000
,  // measure 46
0000
0000
0000
0001
,  // measure 47
0000
0100
0000
0000
,  // measure 48
0000
0001
0000
0000
,  // measure 49
1000
0000
0000
0000
,  // measure 50
0100
0000
0010
0000
;
