#TITLE:iyahhhhhAAA (犯犯犯 MIX);
#SUBTITLE:;
#ARTIST:kenta-v.ez.;
#TITLETRANSLIT:iyahhhhhAAA (HanHanHan MIX);
#SUBTITLETRANSLIT:;
#ARTISTTRANSLIT:;
#CREDIT:348 with Timer Rabbit;
#BANNER:iyahhhhhAAA Banner.png;
#BACKGROUND:iyahhhhhAAA Background.png;
#LYRICSPATH:;
#CDTITLE:348 with Timer Rabbit.png;
#MUSIC:iyahhhhhAAA (HanHanHan MIX).mp3;
#OFFSET:-1.426;
#SAMPLESTART:22.759;
#SAMPLELENGTH:15.000;
#SELECTABLE:YES;
#BPMS:0.000=180.000;
#STOPS:;
#BGCHANGES:;

//---------------dance-single - ----------------
#NOTES:
     dance-single:
     :
     Beginner:
     2:
     0.121,0.181,0.008,0.000,0.000:
0000
0000
0000
0000
,
0000
0000
0000
0000
,
0000
0000
0000
0000
,
0000
0000
0000
0000
,
0000
0000
0000
0000
,
0000
0000
0000
0000
,
0000
0000
0000
0000
,
0000
0000
0000
0000
,
1000
0000
0000
0000
,
1000
0000
0000
0000
,
1000
0000
0000
0000
,
1000
0000
0000
0000
,
0001
0000
0000
0000
,
0001
0000
0000
0000
,
0001
0000
0000
0000
,
0001
0000
0000
0000
,
0100
0000
0000
0000
,
0100
0000
0000
0000
,
0100
0000
0000
0000
,
0100
0000
0000
0000
,
0010
0000
0000
0000
,
0010
0000
0000
0000
,
0010
0000
0000
0000
,
0010
0000
0000
0000
,
1000
0000
1000
0000
,
1000
0000
0000
0000
,
0100
0000
0100
0000
,
0100
0000
0000
0000
,
0010
0000
0010
0000
,
0010
0000
0000
0000
,
0001
0000
0001
0000
,
0001
0000
0000
0000
,
1000
0000
0000
0000
,
0001
0000
0000
0000
,
1000
0000
0000
0000
,
0001
0000
0000
0000
,
0100
0000
0000
0000
,
0010
0000
0000
0000
,
0100
0000
0000
0000
,
0010
0000
0000
0000
,
1000
0000
0000
0000
,
1000
0000
1000
0000
,
0010
0000
0000
0000
,
0010
0000
0010
0000
,
0100
0000
0000
0000
,
0100
0000
0100
0000
,
0001
0000
0000
0000
,
0001
0000
0001
0000
,
1000
0000
0000
0000
,
0100
0000
0100
0000
,
0010
0000
0000
0000
,
0001
0000
0001
0000
,
0001
0000
0000
0000
,
0010
0000
0010
0000
,
0100
0000
0000
0000
,
1000
0000
1000
0000
,
0001
0000
0000
0000
,
0001
0000
0000
0000
,
0010
0000
0000
0000
,
0010
0000
0000
0000
,
0100
0000
0000
0000
,
0100
0000
0000
0000
,
1000
0000
0000
0000
,
1000
0000
0000
0000
,
0010
0000
0010
0000
,
0000
0000
0010
0000
,
1000
0000
1000
0000
,
0000
0000
1000
0000
,
0001
0000
0001
0000
,
0000
0000
0001
0000
,
0100
0000
0100
0000
,
0000
0000
0100
0000
,
0001
0000
1000
0000
,
0000
0000
1000
0000
,
0010
0000
0100
0000
,
0000
0000
0100
0000
,
0100
0000
0010
0000
,
0000
0000
0010
0000
,
1000
0000
0001
0000
,
0000
0000
0001
0000
,
1000
0000
0000
0000
,
0001
0000
0000
0000
,
0001
0000
0000
0000
,
1000
0000
0000
0000
,
0010
0000
0000
0000
,
0100
0000
0000
0000
,
0100
0000
0000
0000
,
0010
0000
0000
0000
,
1000
0000
0000
0000
,
0001
0000
1000
0000
,
1001
0000
0000
0000
;

//---------------dance-single - ----------------
#NOTES:
     dance-single:
     :
     Easy:
     6:
     0.403,0.399,0.331,0.105,0.000:
0000
0000
0000
0000
,
0000
0000
0000
0000
,
0000
0000
0000
0000
,
0000
0000
0000
0000
,
0000
0000
0000
0000
,
0000
0000
0000
0000
,
0000
0000
0000
0000
,
0000
0000
0000
0000
,
1000
1000
1000
1100
,
0001
0001
0001
0011
,
0100
0100
0100
0101
,
0010
0010
0010
1010
,
0001
0001
0001
1001
,
0100
0100
0100
0110
,
0010
0010
0010
0110
,
1000
1000
1000
1001
,
0100
0100
0100
0100
,
0100
0001
0100
0100
,
0010
0010
0010
0010
,
0010
1000
0010
0010
,
1000
1000
1000
1000
,
0100
1000
1000
1000
,
0001
0001
0001
0001
,
0010
0001
0001
0001
,
2000
0100
3100
0000
,
0200
0010
0310
0000
,
0020
0001
0031
0000
,
0002
1000
1003
0000
,
0200
0010
0310
0000
,
0020
0100
0130
0000
,
2000
0001
3001
0000
,
1001
0000
0110
0000
,
1000
0100
0100
1000
,
1000
0010
0010
1000
,
1000
0001
0001
1000
,
0110
0000
0110
0000
,
0001
0010
0010
0001
,
0001
0100
0100
0001
,
0001
1000
1000
0001
,
1001
0000
1001
0000
,
1000
0010
1000
1000
,
1000
0000
0010
0000
1000
1000
1000
0000
,
0010
0100
0010
0010
,
0010
0000
0100
0000
0010
0010
0010
0000
,
0100
0001
0100
0100
,
0100
0000
0001
0000
0100
0100
0100
0000
,
0001
0010
0001
0001
,
0001
0000
0010
0000
0001
0001
0001
0000
,
2000
0100
0000
3100
,
0200
1000
0000
1300
,
0020
0001
0000
0031
,
0002
0010
0000
0013
,
0001
0001
0100
0100
,
0010
0010
1000
1000
,
0001
0001
1000
1000
,
0110
0000
1001
0000
,
1000
1000
0100
0100
,
1000
0000
1000
0000
1000
0000
0001
0001
,
0001
0001
0010
0010
,
0001
0000
0001
0000
0001
0000
0100
0100
,
0100
0100
0001
0001
,
1000
0000
1000
0000
1000
0000
0010
0010
,
0010
0010
0100
0100
,
0001
0000
0001
0000
0001
0000
1000
1000
,
1000
1000
0100
0100
,
0001
0001
0010
0010
,
1000
1000
0100
0100
,
0001
0001
0100
0100
,
1000
1000
0100
0100
,
0010
0010
0001
0001
,
0100
0100
0001
0001
,
1000
1000
0010
0010
,
1001
0000
1001
0000
,
1100
0000
1100
0000
,
1001
0000
1001
0000
,
0101
0000
0101
0000
,
0110
0000
0110
0000
,
1010
0000
1010
0000
,
0110
0000
0110
0000
,
0011
0000
0011
0000
,
1000
1000
0001
0011
,
0100
0100
0010
1010
,
1000
1000
0100
1100
,
0010
0010
0001
0101
,
1000
0010
0010
0110
,
0100
0001
0001
1001
,
1000
0100
0100
0110
,
0010
0001
0001
1001
,
2000
0000
0000
3000
,
0002
0000
0000
0003
,
0110
0000
0000
0000
;

//---------------dance-single - ----------------
#NOTES:
     dance-single:
     :
     Medium:
     7:
     0.465,0.472,0.347,0.274,0.000:
0000
0000
0000
0000
,
0000
0000
0000
0000
,
0000
0000
0000
0000
,
0000
0000
0000
0000
,
0000
0000
0000
0000
,
0000
0000
0000
0000
,
0000
0000
0000
0000
,
0000
0000
0000
0000
,
1000
0000
1000
0000
0001
0001
0001
0000
,
0100
0000
0100
0000
0010
0010
0010
0000
,
1000
0000
1000
0000
0100
0100
0100
0000
,
1000
1000
1000
0000
0002
0000
1003
0000
,
0001
0000
0001
0000
1000
1000
1000
0000
,
0010
0000
0010
0000
0100
0100
0100
0000
,
0010
0010
0100
0100
,
0020
1030
0200
0301
,
0001
0101
0001
0101
,
1000
1010
1000
1010
,
0100
1100
0100
1100
,
0010
0011
0010
0011
,
1000
1001
0001
1001
,
0100
0110
0010
0110
,
0001
1001
1000
1001
,
0010
0110
0100
0110
,
1000
1010
0010
0110
,
0100
0101
0001
1001
,
0001
0011
0010
0110
,
0100
1100
1000
1001
,
0001
0001
0001
1001
,
0100
0100
0100
0110
,
0010
0010
0010
0110
,
1000
1000
1000
1001
,
0002
0000
0020
0003
,
0200
0030
2000
0300
,
0020
3000
0200
0030
,
0002
0300
2000
3003
,
2000
0000
0010
0010
,
0020
3000
0100
0100
,
0200
0030
0001
0301
,
0002
0000
2000
3003
,
0100
0000
0100
0000
0010
0010
0010
0000
,
1000
1000
1000
0000
0001
0000
0001
0000
,
0010
0000
0010
0000
1000
1000
1000
0000
,
0010
0010
0010
0000
0001
0000
0001
0000
,
0100
0000
0100
0000
0001
0001
0001
0000
,
0100
0100
0100
0000
0010
0000
0010
0000
,
1000
0000
1000
0000
0100
0100
0100
0000
,
0001
0001
0001
0000
0100
0000
0100
0000
,
2000
0100
0100
3100
,
0020
0001
0001
0031
,
0002
0010
0010
0013
,
0200
1000
1000
1300
,
2000
3010
0100
0100
,
0002
0103
0010
0010
,
0200
0301
1000
1000
,
0020
1030
0001
0001
,
1000
0000
1000
0000
0001
0010
0001
0000
,
1000
0000
1000
0000
0010
0100
0010
0000
,
1000
0000
1000
0000
0100
1000
0100
0000
,
1000
1100
0011
0001
,
0001
0000
0001
0000
1000
0100
1000
0000
,
0001
0000
0001
0000
0100
0010
0100
0000
,
0001
0000
0001
0000
0010
0001
0010
0000
,
0001
0101
1010
1000
,
1000
0000
1000
0010
1000
0000
1000
0000
,
0100
0000
0100
1000
0100
0000
0100
0000
,
0010
0000
0010
0001
0010
0000
0010
0000
,
0001
0000
0001
0100
0001
0000
0001
0000
,
1000
0000
1000
0100
1000
0000
1000
0000
,
0010
0000
0010
1000
0010
0000
0010
0000
,
0100
0000
0100
0001
0100
0000
0100
0000
,
0001
0000
0001
0010
0001
0000
0001
0000
,
2100
0000
3100
0000
,
0012
0000
0013
0000
,
0201
0000
0301
0000
,
1020
0000
1030
0000
,
1002
0000
1003
0000
,
2001
0000
3001
0000
,
0120
0000
0130
0000
,
0210
0000
0310
0000
,
1000
1000
0100
1000
,
1000
0000
0100
0000
1000
0000
0001
0001
,
0001
0001
0010
0001
,
0001
0000
0010
0000
0001
0000
0100
0100
,
0100
0100
0001
0100
,
0100
0000
0001
0000
0100
0000
0010
0010
,
0010
0010
1000
0010
,
0010
1000
0010
0010
,
0200
0300
1001
0000
,
0020
0030
1001
0000
,
0110
0000
0000
0000
;

//---------------dance-single - ----------------
#NOTES:
     dance-single:
     :
     Hard:
     8:
     0.574,0.689,0.476,0.234,0.052:
0000
0000
0000
0000
,
0000
0000
0000
0000
,
0000
0000
0000
0000
,
0000
0000
0000
0000
,
0000
0000
0000
0000
,
0000
0000
0000
0000
,
0000
0000
0000
0000
,
0000
0000
0000
0000
,
1000
1000
1000
0000
0001
0001
0001
0000
,
0100
0100
0100
0000
0010
0010
0010
0000
,
1000
0100
1000
0000
1000
0100
1000
0000
,
0001
0001
0010
0001
0001
0000
0110
0000
,
0001
0001
0001
0000
0100
0100
0100
0000
,
0010
0010
0010
0000
1000
1000
1000
0000
,
0010
0010
0100
0100
0010
0100
0010
0000
,
0110
0000
0110
0110
,
1000
1000
0100
0000
0100
1000
1000
0000
,
0001
0001
0010
0000
0010
0001
0001
0000
,
0100
0100
0010
0000
0010
0100
0100
0000
,
0010
0010
0010
0010
0010
0000
1001
0000
,
0100
0100
0001
0000
0001
0100
0100
0000
,
0010
0010
1000
0000
1000
0010
0010
0000
,
1000
1000
0001
0000
0001
1000
1000
0000
,
0001
0000
0000
0010
0000
0000
0100
0000
1000
0000
0000
0000
0110
0000
0000
0000
,
1000
0100
0100
0000
0100
0100
0010
0000
,
0010
0001
0001
0000
0001
0001
1000
0000
,
1000
1000
1000
0000
0001
0001
0001
0000
,
1000
1000
1000
1000
1000
0000
0110
0000
,
0001
0001
0100
0000
0100
0010
0010
0000
,
0010
0010
1000
0000
1000
0100
0100
0000
,
0010
0010
0010
0000
0100
0100
0100
0000
,
1000
0000
0000
0010
0000
0000
0100
0000
0001
0000
0000
0000
1001
0000
0000
0000
,
2000
0100
0100
0001
,
3002
0010
0010
1003
,
1001
0000
1001
0000
,
1001
0000
0000
1001
0000
0000
1001
0000
1001
0000
0000
0000
1001
0000
0000
0000
,
0020
1000
0100
0100
,
0230
0010
0010
0301
,
0110
0000
0110
0000
,
0110
0110
0110
0110
,
1000
0100
0100
0000
0100
0100
1000
0000
,
0001
0010
0010
0000
0010
0010
0001
0000
,
1000
0001
0001
0000
0001
0001
1000
0000
,
0011
0101
1010
1100
,
0010
1000
1000
0000
1000
1000
0010
0000
,
0100
0001
0001
0000
0001
0001
0100
0000
,
0010
0100
0100
0000
0100
0100
0010
0000
,
0100
0000
0000
0100
0000
0000
0100
0000
0020
0000
0000
0000
0130
0000
0000
0000
,
0002
0023
0230
2300
,
3020
0230
0302
2003
,
3002
0023
2030
3020
,
0032
0203
2300
3200
,
0301
0000
0000
0001
0000
0000
0001
0000
0010
0000
0000
0010
0000
0000
0010
0000
,
0100
0000
0000
0100
0000
0000
0100
0000
1000
0000
0000
1000
0000
0000
1000
0000
,
0001
0000
0000
1000
0000
0000
1001
0000
0010
0000
0000
0100
0000
0000
0110
0000
,
0110
0000
0000
1001
0000
0000
0110
0000
0110
0000
0000
0000
1001
0000
0000
0000
,
1000
0000
1000
0000
0001
0001
0010
0001
,
0001
0000
0001
0000
0100
0100
0001
0100
,
0100
0000
0100
0000
0010
1000
1000
1000
,
0010
1100
0011
0110
,
0001
0000
0001
0000
1000
0100
0100
0100
,
1000
0000
1000
0000
0001
0010
0010
0010
,
0001
0000
0100
0000
0010
0010
0010
0000
,
1010
0000
0000
0101
0000
0000
1001
0000
1001
0000
0000
0000
0110
0000
0000
0000
,
1000
1000
1000
1000
1000
0000
0101
0000
,
0001
0001
0001
0001
0001
0000
1010
0000
,
1000
0100
0100
0000
0010
0010
0001
0000
,
1001
1010
0101
1001
,
0100
0100
0100
0100
0100
0000
0011
0000
,
0010
0010
0010
0010
0010
0000
1100
0000
,
0010
0010
1000
0000
0001
0100
0100
0000
,
1001
0000
0000
0110
0000
0000
1001
0000
1001
0000
0000
0000
0110
0000
0000
0000
,
0002
0000
1000
0000
,
0100
0100
1000
1003
,
0200
0000
0001
0000
,
0010
0010
0001
0301
,
0020
0000
0100
0000
,
1000
1000
0100
0130
,
2000
0000
0001
0000
,
0010
0010
0001
3001
,
0001
0000
0010
0010
0010
0000
0001
0000
,
0010
0000
0100
0100
0100
0000
0010
0000
,
0100
0000
1000
1000
1000
0000
0100
0000
,
1000
1100
0001
0011
,
1000
0000
0010
0010
0010
0000
1000
0000
,
0010
0000
0100
0100
0100
0000
0010
0000
,
0100
0000
0001
0001
0001
0000
0100
0000
,
2002
3003
0110
1001
,
2000
3000
0002
0003
,
1000
1000
0001
0001
,
0110
0000
0000
0000
;

//---------------dance-single - ----------------
#NOTES:
     dance-single:
     :
     Challenge:
     9:
     0.710,0.762,0.492,0.347,0.294: // measure 1
0000
0000
0000
0000
,  // measure 2
0000
0000
0000
0000
,  // measure 3
0000
0000
0000
0000
,  // measure 4
0000
0000
0000
0000
,  // measure 5
0000
0000
0000
0000
,  // measure 6
0000
0000
0000
0000
,  // measure 7
0000
0000
0000
0000
,  // measure 8
0000
0000
0000
0000
,  // measure 9
1000
0000
1000
0000
1000
0000
0000
0001
1000
0000
1000
0000
1000
0000
0000
0000
,  // measure 10
0010
0000
0010
0000
0010
0000
0000
0100
0010
0000
0010
0000
0010
0000
0000
0000
,  // measure 11
1000
0000
1000
0000
0100
0000
0000
0100
0010
0000
0001
0000
0001
0000
0000
0000
,  // measure 12
0100
0000
0100
0000
0010
0000
0100
0000
0100
0000
0000
0000
0001
1000
0001
1000
,  // measure 13
0001
0000
0001
0000
0001
0000
0000
0100
0010
0000
0010
0000
0010
0000
0000
0000
,  // measure 14
1000
0000
1000
0000
1000
0000
0000
0010
0100
0000
0100
0000
0100
0000
0000
0000
,  // measure 15
0001
0000
0001
0000
1000
0000
0001
0000
1000
0000
0001
0010
0001
0000
1000
0100
,  // measure 16
2000
3000
0110
0110
,  // measure 17
1000
1000
1000
1000
0001
0001
0001
0001
,  // measure 18
0100
0000
0100
0000
0100
0000
0100
0000
0010
0000
0010
0000
0010
0000
0100
0010
,  // measure 19
0100
0100
0001
0100
0100
0010
0010
1000
,  // measure 20
0010
0000
0010
0000
1000
0000
1000
0000
0001
0000
0001
0000
1000
0001
1000
0001
,  // measure 21
1000
1000
0100
0100
1000
1000
1000
1000
,  // measure 22
0001
0000
0001
0000
0010
0000
0010
0000
0001
0000
0001
0000
0001
0000
1000
0001
,  // measure 23
1000
1000
0010
0010
0100
0100
0001
0001
,  // measure 24
1001
0000
1000
0100
0000
0010
0001
0000
1001
0000
0000
0000
1001
0000
0000
0000
,  // measure 25
2000
0000
0100
0000
3100
0000
0000
1000
0002
0000
0010
0000
0013
0000
0000
0000
,  // measure 26
0200
0000
0001
0000
0301
0000
0000
1000
0020
0000
1000
0000
1030
0000
0000
0000
,  // measure 27
1000
1000
1100
0000
0001
0001
0011
0000
,  // measure 28
0100
0000
0100
0000
0010
0000
0010
0000
0110
0000
0000
0000
0010
0100
0010
0100
,  // measure 29
0020
0000
1000
0000
1030
0000
0000
0001
0200
0000
0001
0000
0301
0000
0000
0000
,  // measure 30
0002
0000
0010
0000
0013
0000
0000
0001
2000
0000
0100
0000
3100
0000
0000
0000
,  // measure 31
0100
0100
1010
0000
0010
0010
0101
0000
,  // measure 32
0110
0000
0100
0001
0000
1000
0010
0000
0110
0000
0000
0000
0110
0000
0000
0000
,  // measure 33
1000
0000
0000
0110
0000
0000
0001
0000
0000
0110
0000
0000
1000
0000
0001
0000
,  // measure 34
0100
0000
0000
1001
0000
0000
0010
0000
0000
1001
0000
0000
0100
0000
0010
0000
,  // measure 35
0200
0000
0000
0010
0000
0000
0010
0000
0000
0010
0000
0000
0001
0000
0301
0000
,  // measure 36
0002
0000
0000
0100
0000
0000
0100
0000
0000
0100
0000
0000
1000
0000
1003
0000
,  // measure 37
1000
0000
0000
1000
0000
0000
1001
0000
0000
0001
0000
0000
0001
0000
1000
0000
,  // measure 38
0010
0000
0000
0010
0000
0000
0110
0000
0000
0100
0000
0000
0100
0000
0010
0000
,  // measure 39
2000
0000
0000
0001
0000
0000
0001
0000
0000
0001
0000
0000
0010
0000
3010
0000
,  // measure 40
0020
0030
1001
1001
,  // measure 41
1000
0000
1000
0000
0001
0000
0000
0001
0100
0000
0100
0000
0010
0000
0010
0000
,  // measure 42
0100
0000
0100
0000
0001
0000
0000
1000
0010
0000
0010
0000
0100
0000
0100
0000
,  // measure 43
0001
0001
0001
1000
0001
0001
0001
0000
,  // measure 44
1000
0000
1000
0000
0100
0000
1000
0000
1000
0000
0000
0000
0010
0100
0010
0100
,  // measure 45
0010
0000
1000
0000
1000
0000
0000
0100
1000
0000
1000
0000
0010
0000
0000
0000
,  // measure 46
0100
0000
0001
0000
0001
0000
0000
0010
0001
0000
0001
0000
0100
0000
0000
0000
,  // measure 47
0001
0000
1000
0000
1000
0000
0000
0010
0100
0000
0010
0000
0010
0000
0000
1000
,  // measure 48
0001
0000
0100
0010
0000
0100
0010
0000
1000
0000
0000
0000
1001
0000
0000
0000
,  // measure 49
2200
3300
0202
0303
,  // measure 50
2020
3030
0022
0033
,  // measure 51
2002
3003
0220
0330
,  // measure 52
0220
0330
2002
3003
,  // measure 53
0100
0000
0000
0100
0000
0000
0100
0001
0010
0000
0000
0010
0000
0000
0010
0001
,  // measure 54
1000
0000
0000
1000
0000
0000
1000
0010
0100
0000
0000
0100
0000
0000
0100
0001
,  // measure 55
1000
1000
0100
1000
0001
0001
0010
0001
,  // measure 56
1100
0011
1010
0101
,  // measure 57
1000
0000
1000
0000
1000
0000
0001
0010
0001
0000
0100
0000
0100
0000
0100
0000
,  // measure 58
0010
0000
0010
0000
0010
0000
1000
0001
1000
0000
0001
0000
0001
0000
0001
0000
,  // measure 59
1000
0000
0100
0000
0100
0000
1000
0001
0010
0000
0001
0000
0001
0000
0010
0001
,  // measure 60
1000
1000
0001
0001
1001
0000
1001
0000
,  // measure 61
1000
0000
1000
0000
0100
0000
0000
1000
0100
0000
1000
0000
1000
0000
0000
0000
,  // measure 62
0001
0000
0001
0000
0010
0000
0000
0001
0010
0000
0001
0000
0001
0000
0000
0000
,  // measure 63
0100
0001
0101
0000
1000
0010
1010
0000
,  // measure 64
1100
0000
0000
1001
0000
0000
0011
0000
1001
0000
0000
0000
1001
0000
0000
0000
,  // measure 65
1000
0000
0100
0000
0100
0000
1000
0000
0001
0000
0010
0000
0010
0000
0001
1000
,  // measure 66
0001
0000
0100
0000
0100
0000
0001
0000
1000
0000
0010
0000
0010
0000
1000
0010
,  // measure 67
0100
0100
0100
0000
0010
0010
0010
0000
,  // measure 68
1000
1000
0001
0001
0110
0000
0110
0000
,  // measure 69
1000
0000
1000
0000
0010
0000
0000
0010
1000
0000
1000
0000
0001
0000
0000
0000
,  // measure 70
0001
0000
0001
0000
0010
0000
0000
0010
0001
0000
0001
0000
1000
0000
0000
0000
,  // measure 71
0001
0001
0001
0000
1000
1000
1000
0000
,  // measure 72
0101
0000
0000
1010
0000
0000
1001
0000
1001
0000
0000
0000
0110
0000
0000
0000
,  // measure 73
1200
0000
0310
0000
,  // measure 74
0021
0000
0130
0000
,  // measure 75
2100
0000
3001
0000
,  // measure 76
0012
0000
1003
0000
,  // measure 77
2100
0000
3010
0000
,  // measure 78
0201
0000
0310
0000
,  // measure 79
1020
0000
0130
0000
,  // measure 80
0012
0000
1003
0000
,  // measure 81
1000
1000
0100
1000
1000
0100
1000
0000
,  // measure 82
0001
0001
0010
0001
0001
0010
0001
0000
,  // measure 83
1000
0100
0100
1000
0010
0010
0100
0001
,  // measure 84
0001
0010
0001
0001
1000
0001
1000
0000
,  // measure 85
0001
1000
0001
1000
0001
0000
0100
0000
0010
0000
0010
0000
0020
0000
0000
0000
,  // measure 86
1030
0001
1000
0001
1000
0000
0010
0000
0100
0000
0100
0000
0200
0000
0000
0000
,  // measure 87
0301
0001
0002
0000
1003
1000
2000
0000
,  // measure 88
3001
0000
0000
0001
0000
0000
1001
0000
0000
1000
0000
0000
1000
0000
0000
0000
,  // measure 89
0220
0000
0000
0000
,  // measure 90
0000
0000
0330
0000
,  // measure 91
1001
0000
0000
0000
;
