#TITLE:Cannibal;
#SUBTITLE:;
#ARTIST:Ke$ha;
#TITLETRANSLIT:;
#SUBTITLETRANSLIT:;
#ARTISTTRANSLIT:;
#CREDIT:;
#BANNER:CANNIBAL-BN.png;
#BACKGROUND:CANNIBAL-BG.png;
#LYRICSPATH:;
#CDTITLE:;
#MUSIC:01 - Cannibal.mp3;
#OFFSET:-0.480;
#SAMPLESTART:52.100;
#SAMPLELENGTH:12.000;
#SELECTABLE:YES;
#BPMS:0.000=130.000;
#STOPS:108.000=1.380
;
#BGCHANGES:0.000=blow.avi=1.000=1=1=0,
99999=-nosongbg-=1.000=0=0=0 // don't automatically add -songbackground-
;

//---------------dance-single - ----------------
#NOTES:
     dance-single:
     :
     Easy:
     4:
     0.286,0.313,0.141,0.381,0.000: // measure 1
0000
0000
0000
0000
,  // measure 2
0000
0000
0000
0000
,  // measure 3
0000
0000
0000
0000
,  // measure 4
0000
0000
0000
0000
,  // measure 5
1000
0100
1000
1001
,  // measure 6
0001
0001
0100
0110
,  // measure 7
0010
1000
0100
1000
,  // measure 8
2002
0000
3003
0000
0001
1000
0001
0000
,  // measure 9
0100
0100
0001
0001
,  // measure 10
0010
0110
0010
0001
,  // measure 11
1000
1000
0100
1000
,  // measure 12
0110
0000
0010
0000
1000
0001
1000
0000
,  // measure 13
0020
0030
0020
0030
,  // measure 14
0020
0000
0030
0000
0020
0000
0030
0010
,  // measure 15
0200
0300
0200
0300
,  // measure 16
0200
0000
0300
0000
0200
0000
0300
0100
,  // measure 17
0002
0003
0002
0003
,  // measure 18
0002
0000
0003
0000
0002
0000
0003
0001
,  // measure 19
2000
3000
2000
3000
,  // measure 20
2000
3000
1001
0000
,  // measure 21
0002
0000
0000
0000
,  // measure 22
2003
0000
0000
0000
,  // measure 23
3002
0000
0000
0000
,  // measure 24
0203
0000
0000
0000
,  // measure 25
0320
0000
0000
0000
,  // measure 26
2030
0000
0000
0000
,  // measure 27
3200
0000
0000
0000
,  // measure 28
0310
0001
0100
0010
,  // measure 29
0010
1000
0100
1000
,  // measure 30
1000
0001
0001
0010
,  // measure 31
0010
0001
0001
1001
,  // measure 32
1001
1000
0100
1000
,  // measure 33
1000
0010
0100
0001
,  // measure 34
0001
1000
1000
0100
,  // measure 35
0100
1000
1000
0020
,  // measure 36
0030
0100
0001
0100
,  // measure 37
0101
0010
1000
0010
,  // measure 38
1010
1000
0100
1000
,  // measure 39
1100
0001
0100
0001
,  // measure 40
0101
1000
1000
0010
,  // measure 41
0200
0301
0010
0001
,  // measure 42
2000
3100
1000
0001
,  // measure 43
1000
1001
0000
0010
,  // measure 44
0010
0200
0300
0200
,  // measure 45
0300
0200
0300
0200
,  // measure 46
0300
0001
0002
0000
0003
0000
0002
0000
,  // measure 47
0003
0002
0003
0002
,  // measure 48
0003
1000
2000
0000
3000
0000
2000
0000
,  // measure 49
3000
2000
3000
2000
,  // measure 50
3000
0001
0002
0000
0003
0000
0002
0000
,  // measure 51
0003
0002
0003
1000
,  // measure 52
0000
1000
0010
1000
,  // measure 53
1000
0100
1000
0001
,  // measure 54
0001
0100
0100
0010
,  // measure 55
0010
0100
0100
0110
,  // measure 56
0110
0010
1000
0010
,  // measure 57
0100
0001
1000
0100
,  // measure 58
0100
1000
1000
0001
,  // measure 59
0001
1000
0001
1000
,  // measure 60
1001
2000
3000
0000
,  // measure 61
0000
0002
0003
0000
,  // measure 62
0000
2000
3000
0000
,  // measure 63
0000
0002
0003
0000
,  // measure 64
1001
0000
0000
0000
;

//---------------dance-single - ----------------
#NOTES:
     dance-single:
     :
     Medium:
     7:
     0.399,0.418,0.323,0.340,0.004:
0000
0000
0000
0000
,
0000
0000
0000
0000
,
0000
0000
0000
0000
,
0000
0000
0000
0000
,
1000
0000
0001
0000
0010
0001
1000
0000
,
0100
0000
1000
0000
0010
0100
0001
0000
,
0100
0000
0010
0000
1000
0100
0001
0000
,
0201
0000
0301
0100
1000
0000
2010
0000
,
3010
0100
0001
0000
1000
0100
1000
0000
,
0001
0000
0010
0000
0001
0100
0010
0000
,
1000
1100
0001
0101
,
1000
0000
0010
0000
0100
0001
0101
0000
,
0020
1030
0200
0310
,
0002
0000
0103
0000
0020
0000
1030
0100
,
0200
0310
0002
1003
,
0200
0000
1300
0000
0020
0000
0130
0001
,
0002
1003
0020
0130
,
0002
0000
1003
0000
0200
0000
1300
0010
,
0020
0130
0002
1003
,
0100
0000
0000
1000
0000
0000
0010
0000
0100
0000
0000
0000
0000
0000
0000
0000
,
2002
0000
0000
3003
,
0220
0000
0000
0330
,
2000
0000
3002
0000
,
0023
0000
0130
1001
,
2200
0000
0000
3300
,
0022
0000
0000
0033
,
0002
0000
2003
0000
,
3001
0000
1000
0100
1000
0000
0010
0000
,
0110
0000
0001
0100
0010
0000
1000
0000
,
1100
0000
1000
0100
1000
0100
1000
0000
,
1100
0000
0001
0100
0001
0100
0001
0000
,
0101
0000
0001
0100
0010
0000
1000
0000
,
1010
0000
1000
0010
0100
0000
0001
0000
,
1001
0000
1000
0100
1000
0100
1000
0000
,
1001
0001
0010
0100
,
1000
0000
0001
0000
0100
0010
1000
0000
,
0100
0000
0010
0000
0001
0100
1000
0000
,
0100
0000
0010
0000
1000
0100
0001
0000
,
0010
0000
0001
0100
0010
0000
1000
0000
,
1010
0000
0010
0000
0100
0000
0001
1000
,
0200
0000
1300
0000
0001
0000
0100
0001
,
0020
0031
0100
0010
,
1000
0100
0010
0001
,
1000
2001
3001
0010
,
0001
0210
0310
1000
,
0100
2100
3100
0010
,
0001
2001
3001
0100
,
0010
2010
3010
0100
,
0010
2010
3010
1000
,
0100
2100
3010
0100
,
0001
0021
0031
1000
,
0000
0000
0100
1000
0010
0100
0001
0000
,
0101
0000
0001
0100
0010
1000
0100
0000
,
1100
0000
1000
1000
1000
0000
0001
0001
,
0001
0011
1100
1001
,
0110
0000
0010
1000
0010
0100
0010
0000
,
0110
0000
0001
0100
0001
0100
0010
0000
,
0110
0000
0010
0010
0010
0000
1000
0000
,
1001
0000
1000
1000
1000
0000
0100
0000
,
1100
2000
0000
3001
,
0011
0002
0000
1003
,
1100
0000
1000
0000
0010
0000
0100
0001
,
1000
0100
1000
0001
,
1001
0000
0000
0000
;

//---------------dance-couple - ----------------
#NOTES:
     dance-couple:
     :
     Medium:
     5:
     0.339,0.521,0.531,0.000,0.066:
00000000
00000000
00000000
00000000
,
00000000
00000000
00000000
00000000
,
00000000
00000000
00000000
00000000
,
01100110
00000000
00000000
10001000
00000000
01000100
00000000
00000000
,
00010001
00010001
00000000
10001000
01000100
00000000
00000000
00010001
,
00000000
00110011
00000000
00000000
10001000
01000100
00000000
00100010
,
00000001
00000100
00000001
00100000
,
10000000
01000000
00000010
00001000
,
00001000
01000000
00010000
00010000
,
00000100
00000100
00000000
00100000
,
00100000
00000000
00001000
00001000
,
00000000
00010000
00010000
00000000
,
00001001
00000000
00000010
00000100
00000010
00000000
01100000
00000000
,
00010000
10000000
00010000
00000000
00001001
00000000
00000010
00000001
,
00000100
00000000
01100000
00000000
10000000
00010000
01000000
00000000
,
10000000
00000000
00100000
01000000
00000000
00100000
01000000
00000000
00010000
00000000
00000000
00000000
00000001
00000000
00000010
00000100
,
00000000
00000010
00000100
00000000
00001000
00000000
00000000
00000000
00010000
00000000
00100000
01000000
00000000
00100000
01000000
00000000
,
10000000
00000000
00000000
00000000
00001000
00000000
00000010
00000100
00000000
00000010
00000100
00000000
00000001
00000000
00000000
00000000
,
00100000
10000000
01000000
00010000
,
00100000
10010000
00000010
00001000
,
00000100
00000001
00000010
00001001
,
00100000
10000000
01000000
00010000
,
00100000
01000000
00100000
00000000
00000010
00000000
00001000
00000000
,
00000100
00000000
00000001
00000000
00000010
00000100
00000010
00000000
,
10011001
00000000
00000000
01100110
00000000
10011001
00000000
00000000
,
01010101
11001100
00000000
10011001
00000000
00000000
00010000
00000000
,
00000000
00000000
00000100
00000000
,
00000000
10000000
00000000
00000000
,
00000010
00000000
00100000
01000000
,
00010000
00001000
00000001
00000100
,
10000000
01000000
00100000
00000010
,
00001000
00000000
00000001
00000000
00100000
00010000
01000000
00000000
,
00010000
00000000
00000010
00000100
00000010
00000000
00001000
00000000
,
00100000
01000000
00100000
00000000
10000000
00000000
00000001
00000100
,
00000010
00000000
00000000
00000000
00001000
00000000
00000000
00000000
10000000
00000000
00100000
01000000
00000000
00100000
01000000
00000000
,
00010000
00000000
00000000
00000000
00001000
00000000
00000010
00000100
00000000
00000010
00000100
00000000
00000001
00000000
00000000
00000000
,
00010000
00000000
00100000
01000000
00000000
00100000
01000000
00000000
10000000
00000000
00000000
00000000
00000001
00000000
00000010
00000100
,
00000000
00000010
00000100
00000000
00001000
00000000
00000000
00000000
00100010
00000000
00000000
00000000
10001000
00000000
00010001
00000000
,
01000100
00010001
00100010
10011001
,
00100010
01000100
00010001
10001000
00100010
01000100
00010001
01000100
,
00100010
00000000
01000100
00000000
00000000
00100010
00000000
00010001
,
00000000
01000100
00000000
10001000
00100010
01000100
00100010
00000000
,
10001000
00010001
01000100
00010001
10001000
00010001
00100010
01000100
,
10001000
00000000
00010001
00000000
10011001
00000000
00000000
10100000
,
00000000
00000101
00000000
00000000
01010000
00001100
00000000
10011001
;

//---------------dance-solo - ----------------
#NOTES:
     dance-solo:
     :
     Easy:
     3:
     0.211,0.223,0.100,0.000,0.000:
000000
000000
000000
000000
,
000000
000000
000000
000000
,
000000
000000
000000
000000
,
000100
000001
001000
100000
,
000100
000100
000100
100000
,
001000
000001
000100
000100
,
000010
000001
010000
100000
,
000010
000001
100001
010000
,
100000
000010
000001
010000
,
100001
000010
000001
010000
,
100000
000010
100001
000100
,
000010
000100
010000
000100
,
000001
000001
001000
100000
,
100000
001000
000001
000001
,
001000
100000
100000
001000
,
000010
000010
001000
010000
,
010000
100001
000010
000010
,
001000
010000
010000
100001
,
000010
010000
000001
100000
,
001000
001000
000001
100000
,
000010
010000
000100
000100
,
000010
010000
000001
100000
,
001000
001000
000001
100000
,
000010
010000
000100
000100
,
001000
000000
000000
000100
000000
001000
000000
000000
,
000010
010000
000000
000100
000000
000000
100001
000000
,
000010
000010
100001
010000
,
010000
100001
000100
000100
,
100001
001000
001000
100001
,
000010
000010
100001
010000
,
010000
100001
000100
000100
,
001000
000000
000100
000010
,
000001
000100
010000
001000
,
000100
000010
000001
000100
,
010000
001000
000100
000010
,
000001
000100
010000
001000
,
000100
000010
000001
000100
,
010000
001000
000100
010000
,
000100
001000
100000
100000
,
000100
000010
000100
001000
,
000001
000001
000100
010000
,
000100
001000
100000
100000
,
000100
000010
000100
001000
,
000001
000000
000001
000000
000100
000000
000000
001000
,
000000
000100
000000
000000
010000
000010
000000
010000
;

//---------------dance-solo - ----------------
#NOTES:
     dance-solo:
     :
     Medium:
     5:
     0.278,0.335,0.232,0.000,0.000:
000000
000000
000000
000000
,
000000
000000
000000
000000
,
000000
000000
000000
000000
,
000100
000000
100001
000000
000010
010000
000010
000000
,
100000
100000
000000
000010
000100
000000
000000
001000
,
000000
100001
000000
000000
010000
000010
000000
000000
,
000101
000010
001000
000001
,
000100
001000
100100
010000
,
001000
100000
000100
001000
,
101000
000100
010000
100000
,
001000
000100
001001
000100
,
000010
000001
001000
000100
,
010000
000000
001000
000000
010000
000001
100000
000000
,
100000
001000
000010
001000
,
000010
100000
000001
000000
000001
000000
001000
000000
,
000100
000000
001000
000000
000100
100000
000001
000000
,
000001
001000
000100
001000
,
000010
010000
000001
000000
000001
000000
001000
000000
,
000100
010000
000100
010000
000100
010000
000100
000100
,
100100
000000
000101
000000
000100
000010
000100
000010
,
000100
000010
000100
000100
000101
000000
100100
000000
,
100000
001000
100000
001000
100000
001000
100000
100000
,
010100
000000
101000
000000
000001
001000
000001
001000
,
000001
001000
000001
000001
000110
000000
001001
000000
,
010010
000000
000000
001100
000000
100001
000000
000000
,
000010
000010
000000
001000
000000
000000
100001
000000
,
000000
001000
000100
000000
100001
000000
000000
001000
,
000100
000000
100001
000000
000000
000100
001000
000000
,
100001
000000
000000
000100
001000
000000
001010
000000
,
000000
100000
001000
000000
011000
000000
000000
000001
,
001000
000000
001010
000000
000000
100000
001000
000000
,
010010
000000
000100
000001
,
010000
001000
000010
000000
000010
000000
001000
000000
,
000100
000000
100000
000000
000010
001000
010000
000000
,
010000
001000
000100
000001
,
010000
001000
000010
000000
000001
000000
001000
000000
,
000100
000000
100000
000000
000010
001000
010000
000000
,
100000
000000
001000
000000
000100
000001
000100
000010
,
000100
000001
000100
000010
100000
000000
100000
000000
,
000100
100000
000100
010000
000100
100000
000100
010000
,
000001
000000
000001
000000
010000
000010
010000
000100
,
010000
000010
010000
000100
100000
000000
100000
000000
,
000010
010000
000010
000100
000010
010000
000010
000100
,
000001
000000
000001
000000
010010
000000
000000
001100
,
000000
100001
000000
000000
000010
000010
000000
010000
;

//---------------dance-solo - ----------------
#NOTES:
     dance-solo:
     :
     Hard:
     7:
     0.367,0.372,0.614,0.000,0.133:
000000
000000
000000
000000
,
000000
000000
000000
000000
010010
000000
000000
000101
,
000000
100100
000000
000000
000010
000010
000000
010000
,
010000
000000
000000
000000
000100
010000
000001
000000
,
001000
001000
000000
000001
100000
000000
000000
000101
,
000000
100100
000000
000000
100010
010001
000000
001001
,
101000
000100
010000
100000
,
000001
001000
110000
000100
,
000010
000001
100000
001000
,
000011
000100
010000
100000
,
000001
001000
110000
000100
,
000010
000001
100000
001000
,
000100
000000
000001
001000
000000
000001
001000
000000
000010
000000
010000
000000
001000
000000
100000
001000
,
000000
100000
001000
000000
100000
000000
000000
000000
000100
000000
100000
001000
000000
100000
001000
000000
,
010000
000000
000010
000000
001000
000000
000001
001000
000000
000001
001000
000000
000001
000000
000000
000000
,
100000
000000
000001
000100
000000
000001
000100
000000
000010
000000
010000
000000
000100
000000
100000
001000
,
000000
100000
001000
000000
100000
000000
000000
000000
000001
000000
100000
000100
000000
100000
000100
000000
,
010000
000000
000010
000000
000100
000000
000001
001000
000000
000001
001000
000000
000001
000000
000000
000000
,
000101
000000
100100
000000
101000
000000
001001
000001
,
010000
000010
100100
000101
,
001001
000000
101000
100000
000010
000000
010000
000000
,
000110
000000
101000
000000
001001
000000
010100
000100
,
000011
110000
010100
001001
,
101000
000000
000110
000100
110000
000000
000011
000000
,
001000
000000
000000
101000
000000
001001
000000
000000
,
000100
000100
000000
010010
000000
000000
000100
000000
,
000000
100010
010001
000000
000100
000000
000000
101000
,
001001
000000
000100
000000
000000
000101
100100
000000
,
000100
000000
000000
001010
011000
000000
001100
000000
,
000000
000010
000010
000000
001100
000000
000000
010000
,
010000
000000
001100
000000
000000
010000
000010
000000
,
000000
000000
000000
000000
000000
000000
000000
000000
000100
000000
000001
001000
000000
000001
001000
000000
,
000010
000000
010000
000000
000010
000000
100000
001000
000000
100000
001000
000000
100000
000000
000000
000000
,
000100
000000
100000
001000
000000
100000
001000
000000
010000
000000
000010
000000
010000
000000
000001
001000
,
000000
000001
001000
000000
000001
000000
000000
000000
100000
000000
000001
000100
000000
000001
000100
000000
,
000010
000000
010000
000000
000100
000000
100000
001000
000000
100000
001000
000000
100000
000000
000000
000000
,
000001
000000
100000
000100
000000
100000
000100
000000
010000
000000
000010
000000
000100
000000
000001
001000
,
000000
000001
001000
000000
000001
000000
000000
000000
000011
000000
000000
000000
010010
000000
000000
000000
,
110000
000000
100001
100000
000101
000000
101000
000000
,
110000
000000
010010
000000
000011
000000
100001
000001
,
100100
001001
000110
101000
,
001001
000000
010100
010000
000101
000000
100100
000000
,
010100
000000
001001
000000
101000
000000
000110
000010
,
100100
000000
000101
000000
001100
000000
000000
101000
,
000000
001001
000000
000000
000100
000100
000000
010010
;

//---------------dance-single - Copied from Copied f----------------
#NOTES:
     dance-single:
     Copied from Copied f:
     Hard:
     9:
     0.498,0.549,0.282,0.050,0.178:
0000
0000
0000
0000
,
0000
0000
0000
0000
,
0000
0000
0000
0000
,
0000
0000
0000
0000
,
1000
0000
0001
0100
0001
0000
1000
0000
0100
0000
0010
0000
0001
0000
1000
0000
,
0010
0000
0100
0000
0001
0100
0001
1000
0001
0000
0100
0000
0010
0000
1000
0000
,
0001
0000
0010
0000
0001
0000
1000
0000
0010
1000
0010
0100
0010
0000
1000
0000
,
1001
0000
0001
0100
0010
0000
1000
0000
0100
0000
0001
0000
0100
0000
0000
0000
,
1100
0000
1000
0010
0100
0000
0001
0000
0100
0000
1000
0000
0100
0000
0001
0000
,
0010
0000
0100
1000
0001
0000
0010
0000
1000
0000
0010
0000
0001
0000
0100
0000
,
0010
1000
0010
0000
1000
0000
1000
0000
0001
0000
0100
0001
0100
0000
0001
0000
,
1001
0000
1000
0000
0100
0000
0010
0100
0010
0000
0001
0000
1000
0000
0000
0000
,
1010
0000
0000
0100
0000
0000
0001
0000
1000
0000
0000
0000
1100
0000
0000
0000
,
0101
0000
0000
1000
0000
0000
0001
0000
0010
0000
0000
0000
0011
0000
0000
0000
,
1001
0000
0000
0001
0000
0000
1000
0000
0010
0000
0000
0000
0101
0000
0000
0000
,
0010
0000
0000
1000
0000
0000
0001
0000
0100
0000
0000
0000
1001
0000
0000
0000
,
0001
0000
0000
0100
0000
0000
0010
0000
1000
0000
0100
0000
0001
0000
0000
0000
,
0100
0000
0000
1000
0000
0000
0100
0000
1000
0000
0010
0000
0001
0000
0000
0000
,
0001
0000
0000
0010
0000
0000
1000
0000
0001
0000
0000
0000
1001
0000
0000
0000
,
0010
0000
0000
0001
0000
0000
1000
0000
0100
0000
0000
0000
0000
0000
0000
0000
,
2000
0000
0000
0000
,
3200
0000
0000
0000
,
0310
0000
0000
0010
0000
0000
0010
0000
0001
0000
0000
0001
0000
0000
0001
0000
,
1000
0000
0000
1000
0000
0000
1000
0000
0010
0000
0000
0000
0110
0000
0000
0000
,
0200
0000
0000
0000
,
0302
0000
0000
0000
,
1003
0000
0000
1000
0000
0000
1000
0000
0001
0000
0000
0001
0000
0000
0001
0000
,
1001
0000
0001
1000
0100
0010
0001
0000
,
0101
0000
0100
0010
1000
0001
0100
0000
,
0110
0000
1000
0100
0001
0100
1000
0010
,
0001
0010
1000
0100
0010
0000
1001
0000
,
0101
0000
0100
0010
1000
0001
0010
0000
,
0011
0000
0001
0010
0100
1000
0010
0000
,
0101
0000
0001
0100
1000
0100
0001
0010
,
1000
0010
0001
1000
0100
1000
0001
0000
,
1001
0000
0000
0000
0001
0000
0100
0001
0100
0000
0001
0000
0100
0000
0010
0000
,
1000
0000
1000
0000
0100
0000
1000
0001
1000
0000
0001
0000
0010
0000
0010
0000
,
0001
0000
1000
0000
0100
0000
1000
0001
0010
0000
0100
0000
0010
0000
0010
0000
,
0001
0000
0001
0000
0100
0000
0010
1000
0001
0000
0100
0000
0001
0000
0010
0000
,
1000
0000
0010
0000
0001
0000
1000
0000
0010
0000
0100
0010
1000
0000
0100
0000
,
2100
0000
0000
0000
3001
0000
0100
0001
1000
0000
0010
0000
1000
0000
0001
0000
,
0012
0000
0000
0000
0103
0000
0001
0000
0010
0000
0100
0000
0010
0000
0001
1000
,
0001
0010
0100
1000
0100
0010
0001
0001
,
1000
0000
1000
0000
1001
0000
0000
0001
0000
0000
0100
0000
0010
0000
0000
0000
,
0110
0000
0000
0000
1010
0000
0000
1000
0000
0000
0100
0000
0010
0000
0000
0000
,
0110
0000
0000
0000
0010
0000
0000
0001
0000
0000
1000
0000
0100
0000
0000
0000
,
1100
0000
0000
0000
0001
0000
0000
0010
0000
0000
0100
0000
1000
0000
0000
0000
,
1010
0000
0000
0000
1001
0000
0000
0010
0000
0000
0001
0000
1000
0000
0100
0000
,
0001
0000
0000
0000
0100
0000
0000
1000
0000
0000
0001
0000
1000
0000
0010
0000
,
0001
0000
0000
0000
0010
0000
0000
1000
0000
0000
0010
0000
0100
0000
0000
0000
,
0101
0000
0000
0000
0001
0000
0000
0100
0000
0000
0010
0000
1000
0000
0000
0000
,
0000
0000
1000
0010
0100
0010
1000
0001
,
0100
0000
0001
0100
0010
1000
0001
0100
,
0001
0000
0001
0010
1000
0010
0001
0100
,
1000
0100
0010
1000
0001
1000
1010
0000
,
1001
0000
1000
0001
0100
0010
0100
0001
,
0100
0000
0010
1000
0001
0010
0001
1000
,
0100
0000
1000
0010
0001
0010
1000
0100
,
0001
0100
0010
0001
0100
0001
1000
0000
,
1001
0000
0000
0000
0001
0000
0000
0001
0100
0000
0010
0000
1000
0000
0100
0000
,
0010
0000
0000
0000
0100
0000
0000
0100
1000
0000
0010
0000
0100
0000
0001
0000
,
1000
0000
0000
0000
0010
0000
0000
0010
0100
0000
0010
0000
1000
0000
0010
0000
,
0100
0000
0000
0000
0001
0000
0000
0001
1000
0000
0100
0000
0010
0000
0000
0000
,
1001
0000
0000
0000
;
