#TITLE:op.31;
#SUBTITLE:;
#ARTIST:akiko;
#TITLETRANSLIT:;
#SUBTITLETRANSLIT:;
#ARTISTTRANSLIT:;
#CREDIT:;
#BANNER:;
#BACKGROUND:;
#LYRICSPATH:;
#CDTITLE:;
#MUSIC:op.31.mp3;
#OFFSET:-4.160;
#SAMPLESTART:37.620;
#SAMPLELENGTH:9.570;
#SELECTABLE:YES;
#BPMS:0.000=80.000,4.000=105.000,22.000=90.000,25.000=80.000,28.000=105.000,37.000=70.000,38.000=60.000,40.000=145.000,46.000=155.000,55.000=115.000,56.500=90.000,57.000=70.000,57.500=65.000,58.000=75.000,58.500=150.000,70.000=160.000,82.000=150.000,94.500=70.000,95.500=100.000,118.000=110.000,124.000=115.000,133.000=95.000,134.500=70.000,136.000=130.000,136.500=170.000,148.000=175.000,166.000=160.000,172.000=150.000,179.500=110.000,182.500=60.000,185.500=130.000,197.500=120.000,203.500=130.000;
#STOPS:;
#BGCHANGES:;

//---------------dance-single - ----------------
#NOTES:
     dance-single:
     :
     Hard:
     8:
     0.477,0.480,0.270,0.191,0.117: // measure 1
0000
0000
0000
0000
0000
0000
1000
0001
,  // measure 2
0200
0000
0000
0310
0010
1000
0002
0000
,  // measure 3
0000
0013
0010
0001
0200
0000
0000
0310
,  // measure 4
1000
0100
0200
0000
0000
0310
0001
1000
,  // measure 5
0001
0000
0001
1000
0000
1000
0010
0000
,  // measure 6
0010
0100
0001
1000
2002
0000
3003
0001
,  // measure 7
0100
0010
1000
0010
0100
0001
1000
0100
,  // measure 8
1100
0000
1000
0100
0010
0000
0100
0000
1000
0000
0001
0000
0100
0000
0010
0100
,  // measure 9
0001
0000
0010
0000
0100
0000
0010
0000
0001
0000
1000
0001
0100
0000
0001
0100
,  // measure 10
0001
1000
0001
0000
1000
0000
0100
0000
0010
0000
0001
0000
1000
0000
0001
0000
,  // measure 11
1000
0100
0001
0100
1000
0010
0100
0010
,  // measure 12
0100
0000
0100
0001
2000
0000
0000
3001
,  // measure 13
0010
0100
0010
0000
0000
1001
0000
0000
,  // measure 14
0110
0000
0000
0010
1000
0010
0100
0001
,  // measure 15
0010
0001
1000
0100
0011
0010
0001
1000
,  // measure 16
0001
0100
0010
0000
1000
0010
0100
0001
,  // measure 17
0010
0000
0100
0010
0001
1000
0001
0000
,  // measure 18
1000
0010
0100
0001
0101
0000
0001
1000
,  // measure 19
0100
0001
0100
0000
0010
0001
0100
1000
,  // measure 20
0100
0000
0010
0100
0001
0010
0100
0000
,  // measure 21
0010
0001
1000
0001
0101
0000
0100
0010
,  // measure 22
1000
0000
0001
0000
1000
0000
0100
1000
0100
0000
0010
0000
0001
0000
1000
0000
,  // measure 23
1001
0000
0000
0000
0001
0000
0100
0000
1000
0000
0001
0000
0010
0000
1000
0010
,  // measure 24
1000
0001
0010
0100
0220
0000
0330
1001
,  // measure 25
0000
0001
0202
0000
0000
0303
0000
0000
,  // measure 26
0010
0000
1000
0100
1000
0000
0001
0000
0010
0000
0100
0000
0110
0000
0000
0000
,  // measure 27
0000
0010
0001
1000
1001
0000
0001
0100
,  // measure 28
0000
0010
1000
0000
0100
0000
0010
0000
0100
0000
1000
0000
0000
0000
0000
0000
,  // measure 29
0001
0100
0001
0100
0001
0100
0010
0000
0000
0000
0000
0000
1000
0100
1000
0100
,  // measure 30
1000
0100
0010
0000
0000
0000
0000
0000
0001
1000
0001
1000
0001
1000
0010
0000
,  // measure 31
0000
0000
0000
0000
0100
0010
0100
0010
0100
0010
1000
0000
0000
0000
0000
0000
,  // measure 32
1000
0001
1000
0001
0100
0010
0100
0000
0010
0000
1000
0000
0001
0000
0010
0000
,  // measure 33
0100
0000
0020
0000
0000
0000
0001
0000
0031
0000
0001
1000
0001
1000
0001
0000
,  // measure 34
0000
1010
0000
0101
0000
1001
0000
1100
,  // measure 35
2002
0000
3003
1000
0100
0010
0002
0000
,  // measure 36
0000
1003
0010
0100
0002
0000
0000
0013
,  // measure 37
0001
1000
0020
0000
0000
0130
0010
1000
,  // measure 38
0100
0010
0010
0100
0010
0001
1000
0001
,  // measure 39
0001
1000
0010
0100
0001
1000
1000
0100
,  // measure 40
0010
0100
1000
0001
0001
1000
0010
0100
,  // measure 41
0110
0000
0000
0010
1000
0010
1010
0000
,  // measure 42
0000
0001
1000
0001
1001
0000
0000
1000
,  // measure 43
0100
1000
1100
0000
0000
0001
0010
0001
,  // measure 44
0011
0000
0010
0001
0100
0010
1010
0000
,  // measure 45
1000
0010
0100
0001
2002
0000
0000
0000
,  // measure 46
0000
0000
0000
3003
,  // measure 47
1001
0000
1000
0100
0000
0000
0010
0001
,  // measure 48
1000
0001
0000
0100
0001
1000
0100
0010
,  // measure 49
0100
1000
0001
0100
0010
1000
0001
1000
,  // measure 50
0001
1000
0001
1001
0000
0000
1010
0000
,  // measure 51
0000
0101
0000
0000
1001
0000
0000
0220
,  // measure 52
0000
0000
0000
0330
0000
2000
0000
0000
,  // measure 53
0000
0000
0000
0000
0000
0000
0000
0000
0000
3001
0000
0000
0000
0000
0000
0000
;

//---------------dance-single - ----------------
#NOTES:
     dance-single:
     :
     Medium:
     5:
     0.337,0.320,0.174,0.252,0.000: // measure 1
0000
0000
0000
0000
0000
0000
1000
1000
,  // measure 2
2000
0000
0000
0000
0010
0010
3020
0000
,  // measure 3
0000
0000
0100
0100
0230
0000
0000
0000
,  // measure 4
0001
0001
0302
0000
0000
0000
1000
1000
,  // measure 5
1003
0000
1000
1000
0000
0100
0100
0000
,  // measure 6
0010
0010
0000
0001
2001
0000
0000
3020
,  // measure 7
0000
0000
0230
0000
0000
0301
0000
0000
,  // measure 8
1001
0000
0000
1000
0000
1000
0100
0000
,  // measure 9
0000
0011
0000
0000
1001
0000
1000
0001
,  // measure 10
0000
0001
0200
0000
0000
0000
0300
0000
,  // measure 11
0010
1000
0010
1000
0000
1000
0100
0100
,  // measure 12
0010
0000
0001
0001
1000
0000
0000
0001
,  // measure 13
0010
0100
1000
0000
0000
1001
0000
0000
,  // measure 14
0110
0000
0000
0100
0001
1000
0002
0000
,  // measure 15
0000
0000
0003
0000
1001
0000
0000
1000
,  // measure 16
0100
0010
0001
0000
0000
0100
0010
1000
,  // measure 17
0001
0000
0000
0010
0001
0010
0001
0000
,  // measure 18
0000
1000
0001
0100
0010
0000
0000
0100
,  // measure 19
0001
1000
0100
0000
0000
0010
0001
0010
,  // measure 20
0001
0000
0000
1000
0001
1000
0001
0000
,  // measure 21
0000
0100
0010
1000
0100
0000
0010
0001
,  // measure 22
0000
0001
0010
0000
0001
1000
0001
1000
,  // measure 23
0010
0000
0100
0010
0000
0010
1000
0000
,  // measure 24
0001
1000
0100
0010
0200
0000
0300
1001
,  // measure 25
0000
1000
0002
0000
0000
0003
0000
0000
,  // measure 26
1000
0010
1000
0010
0000
0000
0100
0001
,  // measure 27
0100
0001
0000
1000
0100
0000
0010
0001
,  // measure 28
0000
0001
1000
0001
1000
0010
0000
0000
,  // measure 29
0100
0100
0100
0020
0000
0000
1030
1000
,  // measure 30
1000
0200
0000
0000
0310
0010
0010
0002
,  // measure 31
0000
0000
0103
0100
0100
0020
0000
0000
,  // measure 32
1030
0000
1000
0010
0000
0010
0100
0001
,  // measure 33
0100
0010
0000
0000
2002
0000
0000
0000
,  // measure 34
0000
0000
0000
0000
0000
0000
3003
1001
,  // measure 35
2002
0000
0000
3003
0001
1000
0020
0000
,  // measure 36
0000
0030
0100
0010
2000
0000
0000
3000
,  // measure 37
0001
1000
0100
0000
0000
1001
0000
0000
,  // measure 38
0110
0000
0000
0100
0000
0100
0001
0000
,  // measure 39
0000
0001
0000
0001
1000
0000
0000
1000
,  // measure 40
0000
1000
0100
0000
0000
0100
0000
0100
,  // measure 41
1000
0000
0000
0001
0000
0001
1000
0000
,  // measure 42
0000
1010
0000
0000
1001
0000
0000
0010
,  // measure 43
0001
1000
0002
0000
0003
0100
0010
1000
,  // measure 44
0002
0000
0003
1000
0100
0010
0200
0000
,  // measure 45
0300
0010
0001
1000
0200
0000
0300
0000
,  // measure 46
0000
0000
0000
0000
,  // measure 47
1000
0000
1000
1000
0000
0000
0010
0000
,  // measure 48
0010
0010
0000
0000
0100
0000
0100
0100
,  // measure 49
0000
0000
0001
0000
0001
1000
0001
1000
,  // measure 50
0001
1000
0001
1000
0000
0000
1010
0000
,  // measure 51
0000
0101
0000
0000
0011
0000
0000
2002
,  // measure 52
0000
0000
0000
3003
0000
0220
0000
0000
,  // measure 53
0000
0000
0330
0000
;

//---------------dance-single - ----------------
#NOTES:
     dance-single:
     :
     Easy:
     2:
     0.186,0.228,0.218,0.191,0.000: // measure 1
0000
0000
0000
0000
,  // measure 2
1000
0000
0000
0001
0000
0000
1000
0000
,  // measure 3
0000
0000
0000
0000
0010
0000
0000
0100
,  // measure 4
0000
0000
0010
0000
0000
1000
0000
0000
,  // measure 5
0001
0000
0000
0001
0000
0000
1000
0000
,  // measure 6
0000
1000
0000
0000
2002
0000
0000
0000
,  // measure 7
0000
3003
0000
0000
,  // measure 8
1001
0000
0000
0001
0000
0000
0100
0000
,  // measure 9
0000
0000
0000
0000
0100
0000
0000
0010
,  // measure 10
0000
2000
0000
0000
,  // measure 11
3001
0000
0000
1000
0000
0000
0100
0000
,  // measure 12
0000
0010
0000
0000
0100
0000
0000
1000
,  // measure 13
0000
0000
0001
0000
0000
1001
0000
0000
,  // measure 14
1000
0000
0000
0010
0000
0000
0220
0000
,  // measure 15
0000
0330
1001
0000
,  // measure 16
0000
0000
1000
0000
0000
0100
0000
0000
,  // measure 17
1000
0000
0000
0001
,  // measure 18
0000
0100
0000
0000
0110
0000
0000
0000
,  // measure 19
0000
0000
0010
0000
0000
1000
0000
0000
,  // measure 20
0001
0000
0000
0001
,  // measure 21
0000
1000
0000
0000
1001
0000
0000
0001
,  // measure 22
0000
0000
0010
0000
0000
0100
0000
0000
,  // measure 23
0010
0000
0000
0001
0000
0000
1000
0000
,  // measure 24
0000
0010
0000
0000
0110
0000
0000
1000
,  // measure 25
0000
0001
0000
0000
,  // measure 26
1000
0000
0000
1000
0000
0000
0001
0000
,  // measure 27
0000
0100
0000
0000
0110
0000
0000
0000
,  // measure 28
0000
1000
0000
0000
,  // measure 29
0001
0000
0000
0010
0000
0000
0001
0000
,  // measure 30
0000
0000
0000
0000
1000
0000
0000
0010
,  // measure 31
0000
1000
0000
0000
,  // measure 32
0001
0000
0000
1000
0000
0000
0100
0000
,  // measure 33
0000
0010
0000
0000
0220
0000
0000
0000
,  // measure 34
0000
0000
0000
0000
0000
0000
0000
0330
,  // measure 35
0110
0000
0000
0001
0000
0000
0001
0000
,  // measure 36
0000
1000
0000
0000
1000
0000
0000
0010
,  // measure 37
0000
0000
0010
0000
0000
0100
0000
0000
,  // measure 38
0220
0000
0000
0330
0000
0000
2002
0000
,  // measure 39
0000
3003
0000
0000
0220
0000
0000
0330
,  // measure 40
0000
0000
2002
0000
0000
3003
0000
0000
,  // measure 41
1100
0000
0000
0011
,  // measure 42
0000
0000
0101
0000
,  // measure 43
0000
1010
0000
0000
,  // measure 44
1001
0000
0000
0110
,  // measure 45
0000
0000
2002
3003
,  // measure 46
0000
0000
0000
0000
,  // measure 47
0000
0000
0000
0001
0000
0000
1000
0000
,  // measure 48
0000
0001
0000
0000
0100
0000
0000
0010
,  // measure 49
0000
0000
0100
0000
0000
2001
0000
0001
,  // measure 50
0000
0001
0000
3001
0000
0000
1000
0000
,  // measure 51
0000
0010
0000
0000
0100
0000
0000
0220
,  // measure 52
0000
0000
0000
0330
0000
2002
0000
0000
,  // measure 53
0000
0000
3003
0000
;

//---------------dance-single - ----------------
#NOTES:
     dance-single:
     :
     Beginner:
     1:
     0.112,0.135,0.148,0.000,0.000: // measure 1
0000
0000
0000
0000
,  // measure 2
1000
0000
0000
0001
,  // measure 3
0000
0000
0100
0000
,  // measure 4
0000
0010
0000
0000
,  // measure 5
1001
0000
0000
0000
,  // measure 6
0000
0000
0110
0000
,  // measure 7
0000
0000
0000
0000
,  // measure 8
1001
0000
0000
1000
,  // measure 9
0000
0000
0100
0000
,  // measure 10
0000
0010
0000
0000
,  // measure 11
1000
0000
0000
0001
,  // measure 12
0000
0001
0000
0000
0001
0000
0000
0000
,  // measure 13
0000
0000
1000
0000
0000
1000
0000
0000
,  // measure 14
1000
0000
0000
1000
0000
0000
1000
0000
,  // measure 15
0000
0000
1001
0000
,  // measure 16
0000
0100
0000
0000
,  // measure 17
0010
0000
0000
1000
,  // measure 18
0000
0000
1001
0000
,  // measure 19
0000
0001
0000
0000
,  // measure 20
0010
0000
0000
0100
,  // measure 21
0000
0100
0000
0000
0110
0000
0000
0000
,  // measure 22
0000
0010
0000
0000
,  // measure 23
0001
0000
0000
1000
,  // measure 24
0000
0000
0000
0000
1001
0000
0000
0001
,  // measure 25
0000
0001
0000
0000
,  // measure 26
1000
0000
0000
0010
,  // measure 27
0000
0000
0110
0000
,  // measure 28
0000
0100
0000
0000
,  // measure 29
0001
0000
0000
1000
,  // measure 30
0000
0000
0100
0000
,  // measure 31
0000
0010
0000
0000
,  // measure 32
0001
0000
0000
0001
0000
0000
1000
0000
,  // measure 33
0000
1000
0000
0000
1001
0000
0000
0000
,  // measure 34
0000
0000
0000
0000
,  // measure 35
1001
0000
0000
1000
,  // measure 36
0000
0000
0100
0000
,  // measure 37
0000
0010
0000
0000
,  // measure 38
0001
0000
0000
0001
,  // measure 39
0000
0000
1000
0000
,  // measure 40
0000
1000
0000
0000
,  // measure 41
0010
0000
0000
0010
,  // measure 42
0000
0000
0100
0000
,  // measure 43
0000
0100
0000
0000
,  // measure 44
1001
0000
0000
1001
,  // measure 45
0000
0000
0110
0000
,  // measure 46
0000
0000
0000
0000
,  // measure 47
0000
0000
0000
1000
0000
0000
0000
0000
,  // measure 48
0000
1000
0000
0000
0000
0000
0000
0001
,  // measure 49
0000
0000
0000
0000
0000
0100
0000
0100
,  // measure 50
0000
0100
0000
0110
0000
0000
0000
0000
,  // measure 51
0000
1001
0000
0000
0000
0000
0000
1001
,  // measure 52
0000
0000
0000
0000
0000
0110
0000
0000
;
