#TITLE:endlicher Entfernung;
#SUBTITLE:;
#ARTIST:Berserk + Haste;
#TITLETRANSLIT:;
#SUBTITLETRANSLIT:;
#ARTISTTRANSLIT:;
#GENRE:Shin Ryoujoku Hardcore;
#CREDIT:AznPunk07/Frozen_Heat/GuardianFrozen;
#MENUCOLOR:#19447a;
#METERTYPE:DDR;
#BANNER:endlicher Entfernung-bn.png;
#BACKGROUND:endlicher Entfernung-bg.png;
#LYRICSPATH:;
#CDTITLE:!cdtitle.png;
#MUSIC:endlicher Entfernung.mp3;
#OFFSET:-0.393;
#SAMPLESTART:35.285;
#SAMPLELENGTH:23.360;
#SELECTABLE:YES;
#LISTSORT:;
#BPMS:0.000=165.000;
#STOPS:;
#BGCHANGES:395.500=endlicher Entfernung-bg.png=1.000=0=0=1,
99999=-nosongbg-=1.000=0=0=0 // don't automatically add -songbackground-
;
#ATTACKS:;

//---------------dance-single - ----------------
#NOTES:
     dance-single:
     :
     Hard:
     7:
     0.499,0.573,0.375,0.068,0.082:
0001
0000
0100
0010
,
1000
0000
0001
0000
,
0010
0000
0100
0010
,
0001
0000
1000
0000
,
0010
0000
0100
0001
,
1000
0000
0100
0000
,
1000
0000
0010
0100
,
0001
0000
1000
0000
,
0100
0000
0010
0100
,
1000
0000
1010
0000
,
0100
0000
0001
0010
,
0100
0000
0011
0000
,
1100
0000
1000
0001
,
0100
0000
0101
0000
,
0010
0000
1000
0001
,
0010
0000
0100
0000
,
1000
0000
0000
0000
,
0000
0000
0000
0000
,
1000
0010
0101
0000
,
1000
0100
0011
0000
,
1000
0010
0101
0000
,
1000
0100
0011
0000
,
1000
0010
0101
0010
,
1000
0100
0011
1100
,
0001
0100
0001
0000
1000
0010
0000
0000
,
0100
0001
0100
0000
0010
1000
0000
0000
,
0001
0010
1000
0000
0010
0100
0000
0000
,
1000
0001
0100
0000
0001
0010
0000
1000
,
0100
0010
0001
0000
1000
0001
0000
0000
,
0010
0100
1000
0000
0001
0100
0000
0000
,
0010
1000
0001
0000
0010
0100
0000
0000
,
0101
0000
0000
0000
0000
0000
0000
0000
1100
0000
0000
0000
0000
0000
0000
0000
0001
0000
0000
0000
0000
1000
0000
0000
0000
0000
0001
0000
0000
0000
0000
0000
,
1000
0100
0000
0011
0000
1000
0001
0100
,
0000
0101
0000
1010
0000
1000
0001
0010
,
0000
1100
0000
0011
0000
0100
1000
0010
,
0000
1001
0000
0110
0000
0001
0000
1000
,
0001
0010
0100
0000
1000
0100
0000
0011
,
0000
0100
0000
1000
0001
0100
0000
1010
,
0000
0100
0000
0001
0010
0100
0000
1000
,
0000
1010
0000
0001
0000
0011
0000
1000
,
0200
0010
0000
1000
0000
0310
0000
1000
,
0002
0100
0000
0010
0000
1003
0000
0100
,
0020
0100
0000
1000
0000
0130
0000
0001
,
2000
0100
0000
0010
0000
3100
0000
0001
,
0100
1000
0100
0000
0010
1000
0000
0002
,
0000
0010
0000
1003
0010
0001
0000
0200
,
0000
0010
0000
1300
0001
0010
0000
1000
,
0000
1100
0000
0001
0000
0011
0000
0010
,
0100
1000
0100
0010
0000
0001
0000
1000
,
0000
0001
0000
0100
0000
0010
1000
0010
,
0000
0100
0001
0010
0000
0100
0000
1000
,
0000
0100
0000
0010
0000
0001
1000
0001
,
0000
0010
0100
1000
0000
0001
0000
1000
,
0000
0001
0010
1000
0000
0010
0100
0010
,
0000
0001
1000
0010
0000
0100
0000
0001
,
0000
1000
0001
0010
0000
0100
0010
0100
,
1000
0010
0100
0001
,
1000
0000
0001
0000
0010
0000
0100
0010
,
0001
1000
0010
0100
,
0001
0000
1000
0000
0001
0000
0010
0100
,
1000
1010
0001
0101
,
1000
0000
1100
0000
0011
0000
0001
1000
,
0010
0100
0001
1000
0100
0010
0001
1000
,
0000
0000
0000
0000
,
1000
0100
0001
0100
0000
0010
0001
0010
,
0000
0100
1000
0001
0100
1000
0100
0010
,
1000
0001
0010
0100
0000
0010
0001
1000
,
0000
0010
0001
0010
0100
0001
1000
0001
,
1000
0100
0010
0001
0000
1000
0100
1000
,
0000
0001
0100
0001
0010
1000
0010
0100
,
1000
0010
0100
0001
0000
1000
0010
1000
,
0000
0001
0100
0001
1000
0100
0010
0000
,
0100
1000
0001
0100
0000
0010
1000
0010
,
0000
0100
0001
0100
0000
1010
0000
0101
,
0000
1000
0001
0010
0000
0100
1000
0001
,
0100
0100
0010
0010
,
1000
0001
1000
0001
0000
0010
0100
0010
,
0000
0001
1000
0001
0000
0101
0000
1010
,
0000
1000
0010
0100
0000
0001
0010
0100
,
0000
0010
0001
1000
0001
0100
0010
1000
,
0001
0000
0011
0000
0100
1000
0100
0000
,
1000
0000
1010
0000
0001
0100
0001
0000
,
0010
0000
0110
0000
1000
0001
0110
0000
,
1000
0010
0001
0010
1000
0100
0001
0100
,
1000
1010
0101
1001
,
0011
0000
0000
0000
1100
0000
0000
0000
1001
0000
0000
0000
0000
0010
0000
0000
,
0101
1100
0110
1001
,
0011
0000
1010
0000
1001
0000
0000
1000
,
0100
0000
0000
1000
0100
0000
0000
0100
0010
0000
0000
0001
0010
0000
0000
0010
,
0001
0000
0000
1000
0001
0000
0000
0001
1000
0000
0000
0010
1000
0000
0000
0000
,
0101
0000
0000
0000
1010
0000
0000
0000
0001
0000
0000
0010
0000
0000
1000
0000
,
0000
0000
0000
0000
0000
0000
0000
0000
0000
0000
0000
0000
0000
0000
0000
1000
,
0001
0000
0000
0001
0100
0000
0000
0001
0100
0000
0000
0001
0100
0000
0000
0010
,
1000
0000
0000
0010
1000
0000
0000
0010
1000
0000
0000
0010
1000
0000
0000
1000
,
0100
0000
0000
0100
0010
0000
0000
0010
0001
0000
0000
1000
0000
0000
0001
0000
,
1000
0000
0000
0000
,
2002
0000
0000
0000
,
0000
0000
0000
0000
0000
0000
0000
0000
0000
0000
0000
0000
0000
0000
0000
0000
0000
0000
0000
0000
0000
0000
0000
0000
0000
0000
0000
0000
0000
0000
0000
3003
0000
0000
0000
0000
0000
0000
0000
0000
0000
0000
0000
0000
0000
0000
0000
0000
,
0000
0000
0000
0000
0000
0000
0000
0000
0000
0000
0000
0000
0000
0000
0000
0220
0000
0000
0000
0000
0000
0000
0000
0000
0000
0000
0000
0000
0330
0000
0000
0000
;

//---------------dance-single - ----------------
#NOTES:
     dance-single:
     :
     Challenge:
     10:
     0.733,0.808,0.300,0.259,0.603:
1000
0000
0100
0010
,
0001
0000
0100
0000
,
0010
0000
1000
0001
,
1000
0000
0010
0000
,
0100
0000
0001
0010
,
1000
0000
0010
0000
,
0100
0000
1000
0001
,
0100
0000
0010
0000
,
0002
0000
0023
2030
,
3200
0000
0300
0000
0022
0030
0003
0000
,
0220
0030
0300
0000
2000
0000
3020
0000
,
0230
0000
0300
0000
0022
0030
0003
0000
,
2200
0300
3000
0000
2002
3000
0023
0030
,
2200
3000
0300
0000
2020
3000
0030
0000
,
0202
0003
0300
0000
0020
0030
2002
0003
,
3020
0000
0030
0000
0200
0300
0000
0000
,
0020
0030
0000
0000
,
0000
0000
0000
0000
,
0001
0100
1000
0000
1000
0000
0000
0000
,
0001
0100
1000
0000
1000
0000
0100
0000
,
0001
0100
1000
0100
1000
0000
0100
0000
,
0001
0100
1000
0100
1000
0001
0100
0000
,
0001
0010
0100
0000
1000
0000
0100
0000
1000
0000
0001
0000
0100
0000
0000
0000
,
0001
0010
0100
0000
1000
0000
0100
0000
1000
0100
0001
0000
0100
0000
0000
0000
,
0010
0001
0010
0000
0100
0000
0010
0000
0001
0000
1000
0000
0010
0000
0000
0000
,
0001
0100
0001
0000
1000
0000
0100
0000
0001
0000
0100
0000
0010
0000
0000
0000
,
1000
0010
1000
0000
0010
0000
0001
0000
0010
0000
0100
0000
0001
0000
0000
0000
,
0010
0001
0010
0000
0100
0000
1000
0000
0001
0000
0100
0000
0001
0000
0000
0000
,
0001
0010
1000
0010
0001
0000
1000
0000
0001
0000
0100
0000
0010
0000
0000
0000
,
1000
0100
0010
0000
0100
0000
1000
0000
0001
0000
0100
0000
0010
0000
0000
0000
,
0010
0100
0001
0000
0010
0000
0100
0000
1000
0000
0001
0000
1000
0000
0000
0000
,
0101
0000
0000
0000
0010
0000
0000
0000
0011
0000
0000
0000
0000
0000
0000
0000
1100
0000
0000
0000
0000
1010
0000
0000
0000
0000
1100
0000
0000
0000
0000
0000
,
0010
0001
0100
0010
1000
0000
0010
0000
0000
0010
1000
0000
0000
1000
0001
1000
,
0000
0001
0010
0000
0000
0010
0100
0000
0000
0100
0010
0000
0000
0010
0001
0010
,
0000
0001
1000
0000
0000
1000
0010
0000
0000
0010
0100
0000
0000
0100
0001
0100
,
0000
0001
0010
0000
0000
0010
0100
0000
0000
0100
1000
0000
0000
1000
0001
1000
,
0001
0100
0010
1000
0010
0000
1000
0000
0000
1000
0001
0000
0000
0001
0100
0001
,
0000
0100
0010
0000
0000
0010
1000
0000
0000
1000
0100
0000
0000
0100
0010
0100
,
0000
0010
0001
0000
0000
0001
1000
0000
0000
1000
0001
0000
0000
0001
0100
0001
,
0000
0100
1000
0100
0000
0001
0100
0001
0000
0010
0001
0010
0000
0001
1000
0001
,
0100
0000
0001
0000
0010
0000
0100
0000
1000
0100
1000
0000
0000
0000
1100
0000
,
0000
0000
0010
0001
0100
0000
0001
0000
1000
0100
1000
0100
0000
0000
1001
0000
,
0000
0000
1000
0100
1000
0000
0001
0000
1000
0010
0100
0001
0000
0000
0011
0000
,
0000
0000
0100
1000
0010
0000
0100
0000
0001
0010
0001
0010
0000
0000
0110
0000
,
0001
0010
0100
1000
0001
0000
0100
0000
0000
0000
0010
0000
1000
0000
0001
0000
,
0000
1000
0100
0001
0000
0010
0001
0100
,
0000
0001
0010
1000
0000
0010
0100
1000
,
0000
1010
0000
0011
0000
0101
0000
1100
,
0001
0010
0100
0010
0000
0010
0001
1000
,
0000
0000
1000
0000
0010
0000
0001
0000
0000
0001
0010
0000
0000
0010
1000
0000
,
0100
0010
0001
0100
0000
0100
1000
0001
,
0000
0000
0001
0000
0010
0000
1000
0000
0000
1000
0100
0000
0000
0100
0001
0000
,
0000
0000
0010
0100
0010
0000
0001
0000
0000
0000
0100
0000
1000
0000
0010
0000
,
0000
0000
0100
0010
1000
0000
0010
0000
0000
0010
0100
0000
0000
0100
0001
0000
,
1000
0000
0100
0000
0010
0001
0010
0000
0000
0000
0100
0000
1000
0010
1000
0000
,
0000
0000
0001
0000
0100
0001
0100
0000
0000
0100
0010
0000
1001
0000
0000
0000
,
0010
1000
0010
0100
0001
1000
0001
0010
,
1000
0000
0010
0000
0001
0000
0100
0000
0001
0000
1000
0000
0100
0010
0001
0000
,
0100
0010
0001
0010
1000
0100
0001
0100
,
0010
0000
0100
0000
1000
0000
0001
0000
0010
0001
0100
0000
1000
0100
0001
0000
,
0010
1000
0010
0001
0100
1000
0001
0010
,
1000
0000
0100
0000
0010
0000
0100
0000
1000
0000
0001
0000
0100
0001
0010
0000
,
0100
1000
0100
1000
0001
0100
0001
0100
0010
1000
0010
1000
0001
0010
0001
0000
,
0000
0000
0000
0000
,
0011
0000
0100
0000
1000
0100
1000
0000
0000
0000
0001
0000
0100
0010
0100
0000
,
0001
0000
0010
0000
0001
0000
1000
0000
0000
1000
0100
0000
0000
0010
0001
0000
,
0110
0000
1000
0000
0001
0010
0001
0000
0000
0000
1000
0000
0010
0001
0010
0000
,
0000
0010
0100
0000
0000
0100
1000
0000
0000
1000
0100
0000
0001
0010
1000
0000
,
0010
0100
1000
0001
0000
1000
0001
0010
,
0000
0010
0001
0000
0000
0001
0100
0000
0000
0100
0001
0000
0010
0100
1000
0000
,
0101
0010
1000
0001
0000
1000
0001
1000
,
1000
0100
1000
0001
0100
0001
0100
1000
0100
0010
1000
0001
0010
0000
0000
0000
,
0001
0100
0010
0000
1000
0000
0010
0000
0001
0010
1000
0000
0100
0000
0010
0000
,
0001
1000
0010
0000
0100
0000
0001
0000
1000
0100
0001
0000
0100
0000
0010
0000
,
0001
1000
0010
0000
0100
0000
0001
0000
0010
0001
0100
0000
0010
0000
1000
0000
,
0100
0011
1100
0101
,
1010
0000
0001
0000
0100
0001
0100
0000
0000
0000
0010
0000
1000
0001
0100
0000
,
0000
0000
0001
0000
1000
0100
1000
0000
0100
0000
0010
0000
0001
0010
0100
0000
,
0000
0000
0010
0000
0100
1000
0100
0000
0000
0000
0010
0000
0000
0101
0000
0000
,
0010
0000
0100
0000
0010
1000
0001
0000
0001
0000
0000
1001
0000
0000
1100
0000
,
0010
0000
0000
0010
0100
0000
0000
0100
1000
0000
1000
0000
1001
0000
0000
0000
,
0001
0000
0000
0001
0100
0000
0000
0100
0010
0000
0010
0000
0110
0000
0000
0000
,
1010
0000
0000
0010
1000
0000
0000
1000
0001
0000
0001
0000
0011
0000
0000
0000
,
0010
0100
1000
0100
0010
0001
0010
0000
0001
0100
0010
0100
0001
1000
0001
0000
,
0100
0000
0000
0100
0010
0000
0000
0010
1000
0000
0000
1000
0100
0000
0000
0100
,
0010
0000
0000
0010
0001
0000
0000
0001
0100
0000
0000
0000
0000
0001
0000
0000
,
0010
0000
0000
0010
0100
0000
0000
0100
1000
0000
0000
1000
0001
0000
0000
0001
,
1000
0000
0000
1000
0010
0000
0000
0010
0100
0000
0000
0000
0000
0100
0000
0000
,
0100
0000
0000
0100
0010
0000
0000
0010
1000
0000
0000
1000
0001
0000
0000
0001
,
0010
0000
0000
0010
0100
0000
0000
0100
1000
0000
0000
1000
0001
0000
0000
0001
,
0100
0000
0000
0000
0101
0000
0000
0000
1010
0000
0000
1001
0000
0000
0011
0000
,
0000
0000
0100
0000
0000
0000
1100
0000
0000
0000
0010
0000
0000
0000
0011
0100
,
1000
0000
0000
1000
0010
0000
0000
0100
0001
0000
0000
0001
0010
0000
0000
0100
,
1000
0000
0000
0001
1000
0000
0000
0010
0100
0000
0000
0001
0100
0000
0000
1000
,
0100
0000
0010
0000
0001
0000
1000
0000
0001
0000
0000
0100
0000
0000
0010
0000
,
1000
0010
0000
0100
0000
0001
0000
0010
,
2002
0000
0000
0000
3000
0000
0023
0000
0000
0230
0000
0000
0000
0301
0000
0000
,
0000
0000
0000
0000
0000
0000
0000
0000
0000
0000
0000
0000
0000
0000
0000
0000
0000
0000
0000
0000
0000
0000
0000
0000
0000
0000
0000
0000
0000
0000
0000
0000
0000
0000
0000
0000
0000
0000
0000
0000
0000
0000
0000
0000
0000
0000
0000
0000
0000
0000
0000
0000
0000
0000
0020
0000
0000
0000
0000
0000
0000
0000
0000
0000
0000
0000
0000
0000
0000
0000
0000
0000
0000
0000
0000
0000
0000
0000
0000
0000
0000
0000
0000
0000
0000
0000
0000
0000
0000
0000
0230
0000
0000
0000
0000
0000
0000
0000
0000
0000
0000
0000
0000
0000
0000
0000
0000
0000
0000
0000
0000
0000
0000
0000
0000
0000
0000
0000
0000
0000
0000
0000
0000
0000
1300
0000
0000
0000
0000
0000
0000
0000
0000
0000
0000
0000
0000
0000
0000
0000
0000
0000
0000
0000
0000
0000
0000
0000
0000
0000
0000
0000
0000
0000
0000
0000
0000
0000
0000
0000
0000
0000
0000
0000
0000
0000
0000
0000
0000
0000
0000
0000
0000
0000
0000
0000
0000
0000
0000
0000
0000
0000
0000
0000
0000
0000
0000
0000
0000
0000
0000
0000
,
0000
0000
0000
0000
0000
0000
0000
0000
0000
2000
0000
0000
0000
0000
0000
0020
0000
0000
0000
0000
0000
0000
0000
0000
0000
0000
0000
0000
3030
0000
0000
0000
;

//---------------dance-single - ----------------
#NOTES:
     dance-single:
     :
     Medium:
     6:
     0.393,0.589,0.320,0.075,0.010:
1000
0000
0000
0000
,
0001
0000
0000
0000
,
0010
0000
0000
0000
,
0100
0000
0000
0000
,
1000
0000
0000
0000
,
0010
0000
0000
0000
,
0100
0000
0000
0000
,
0001
0000
0000
0000
,
0020
0000
0030
0000
,
0002
0000
0003
0000
,
2000
0000
3000
0000
,
0020
0000
0030
0000
,
0200
0000
0300
0000
,
0002
0000
0003
0000
,
2000
0000
3000
0000
,
0002
0000
0003
0000
,
0220
0000
0330
0000
,
0000
0000
0000
0000
,
1000
0100
0001
0000
,
1000
0010
0001
0000
,
1000
0100
0001
0000
,
1000
0010
0001
0000
,
1000
0100
0001
0100
,
1000
0010
0001
0010
,
1000
0000
0100
0010
0100
0000
0000
0000
,
0010
0000
0001
1000
0001
0000
0000
0000
,
0010
0000
1000
0001
1000
0000
0000
0000
,
0100
0000
0010
0001
0010
0000
0100
1000
,
0100
0000
0010
0100
1000
0000
0000
0000
,
0010
0000
0001
0100
0001
0000
0000
0000
,
0100
0000
0010
1000
0010
0000
0000
0000
,
0100
0000
0010
0001
0010
0000
0100
0000
,
1000
0100
0001
0010
,
1010
0100
0001
1000
,
0011
0100
0001
1000
,
0110
1000
0001
0100
,
0110
1001
0100
0001
,
1010
0100
0001
0010
,
0101
1000
0100
1000
,
0011
0100
0010
1000
,
0101
0000
1000
0000
0001
1000
0000
0000
,
0110
0000
1000
0000
0100
0010
0000
0000
,
0011
0000
1000
0000
0001
0100
0000
0000
,
1010
0000
0001
0000
1000
0010
0000
0100
,
0001
1000
0001
0000
0010
0100
0000
1000
,
0000
0000
0001
0000
0100
0001
0000
0010
,
0000
0000
0100
0000
1000
0001
0000
0100
,
0000
0001
0000
1000
0000
0001
0000
0010
,
0100
0100
1000
1000
,
0010
0001
0010
0100
,
0001
0001
1000
1000
,
0100
0001
0100
0010
,
0100
0100
0010
0010
,
0001
1000
0010
0001
,
0010
0010
1000
1000
,
0001
0010
1000
0110
,
1001
0000
0100
0000
0010
1000
0010
0000
,
1000
0001
0100
0100
,
0001
0000
0010
0000
1000
0010
0001
0000
,
0100
0010
1000
1000
,
0001
0000
0010
0000
0001
0100
0001
0000
,
0100
0010
0010
1000
,
0100
0000
0010
0000
0001
0010
0100
0100
,
0000
0000
0000
0000
,
1000
0010
1000
0000
0001
0100
0001
0000
,
0010
0000
0100
0000
0010
0001
1000
0000
,
0100
1000
0100
0000
0010
0001
0010
0000
,
0001
0000
0100
0000
0010
1000
0010
0000
,
0100
0001
1000
0000
0100
1000
0001
0000
,
0010
0000
0100
0000
1000
0010
1000
0000
,
0001
0100
0010
0000
1000
0100
0010
0000
,
0001
1000
0001
1000
0001
1000
0001
1000
,
0001
0010
0100
1000
,
0001
0100
0110
0101
,
0010
1000
0001
0010
,
0100
1000
1100
1001
,
0101
0010
1000
0001
,
0010
0100
0010
0001
,
1000
0000
0000
0000
0010
0000
0000
0000
0100
0000
0000
0000
0000
0001
0000
0000
,
1000
0100
0010
0001
,
1000
0000
0010
0000
1000
1000
1000
0000
,
0100
0000
0010
0000
0001
0001
0001
0000
,
1000
0000
0001
0000
0100
0100
0100
0000
,
0010
0010
0010
0000
0100
0010
0100
0000
,
0001
0011
1000
1100
,
0001
0100
0110
0000
,
1000
1010
0001
0101
,
0110
1001
0110
0000
,
0011
1100
0101
1010
,
1001
0110
1001
0110
,
1000
0000
0000
0000
2000
0000
0000
0000
0001
0000
0000
0001
0000
0000
3001
0000
,
0000
0000
0000
0000
,
0101
1100
0101
1100
,
0011
1010
0011
1010
,
1001
0000
0000
0000
0110
0000
0000
0000
1000
0000
0000
1000
0000
0000
1000
0000
,
0001
0000
0000
0000
,
0110
0000
0000
0000
;

//---------------dance-single - ----------------
#NOTES:
     dance-single:
     :
     Beginner:
     1:
     0.131,0.262,0.082,0.000,0.000:
0000
0000
0000
0000
,
0000
0000
0000
0000
,
0000
0000
0000
0000
,
0000
0000
0000
0000
,
0000
0000
0000
0000
,
0000
0000
0000
0000
,
0000
0000
0000
0000
,
0000
0000
0000
0000
,
0000
0000
0000
0000
,
0000
0000
0000
0000
,
0000
0000
0000
0000
,
0000
0000
0000
0000
,
0000
0000
0000
0000
,
0000
0000
0000
0000
,
0000
0000
0000
0000
,
0000
0000
0000
0000
,
0000
0000
0000
0000
,
0000
0000
0000
0000
,
1000
0000
0000
0000
,
0000
0000
0000
0000
,
0001
0000
0000
0000
,
0000
0000
0000
0000
,
0100
0000
0000
0000
,
0010
0000
0000
0000
,
1000
0000
0000
0000
,
1000
0000
0000
0000
,
0001
0000
0000
0000
,
0001
0000
0000
0000
,
0010
0010
0000
0000
,
0010
0000
0000
0000
,
0100
0000
0000
0000
,
0100
0000
0100
0000
,
0010
0000
0000
0000
,
0001
0000
0000
0000
,
1000
0000
0000
0000
,
0010
0000
0000
0000
,
0100
0100
0000
0000
,
0001
0000
0000
0000
,
1000
0000
0000
0000
,
0001
0000
1000
0000
,
1001
0000
0000
0000
,
0010
0000
0000
0000
,
0100
0000
0000
0000
,
0010
0000
0000
0000
,
0110
0110
0000
0000
,
0001
0000
0000
0000
,
1000
0000
0000
0000
,
0001
0000
0001
0000
,
1001
0000
0000
0000
,
0100
0000
0000
0000
,
0010
0000
0000
0000
,
1000
0000
0001
0000
,
0010
0000
0000
0000
,
0100
0000
0000
0000
,
0010
0000
0000
0000
,
0001
0000
1000
0000
,
0010
0000
0100
0000
,
1000
0000
0000
0000
,
0100
0000
0010
0000
,
0001
0000
0000
0000
,
1000
0000
0100
0000
,
0001
0000
0000
0000
,
0010
0000
0100
0100
,
0100
0000
0000
0000
,
1000
1000
0000
0000
,
0001
0001
0000
0000
,
0100
0100
0000
0000
,
0010
0010
0000
0000
,
1000
1000
0000
0000
,
0001
0001
0000
0000
,
0010
0010
0000
0000
,
0100
0100
0100
0100
,
0100
0000
0000
0000
,
1000
0000
0000
0000
,
0010
0000
0100
0000
,
0001
0001
0001
0000
,
0010
0000
0000
0000
,
0100
0000
0000
0000
,
0010
0000
0001
0000
,
1000
0000
1000
0000
,
0001
0001
0001
0000
,
1000
1000
1000
0000
,
0010
0010
0010
0000
,
0100
0100
0100
0000
,
0001
0001
0001
0000
,
1000
1000
1000
0000
,
0100
0100
0100
0000
,
0010
0010
0010
0000
,
0011
0000
0000
0000
,
1100
0000
0000
0000
,
1001
0000
0110
0000
,
1001
0000
0000
0000
,
0101
0000
0000
0000
,
1010
0000
0000
0000
,
0001
0000
1000
0000
,
1001
0000
0000
0000
,
0010
0000
0000
0000
;

//---------------dance-single - ----------------
#NOTES:
     dance-single:
     :
     Easy:
     3:
     0.267,0.425,0.102,0.055,0.000: // measure 1
2000
0000
0000
0000
,  // measure 2
0000
0000
0000
0000
,  // measure 3
0000
0000
0000
0000
,  // measure 4
3000
0000
0000
0000
,  // measure 5
0002
0000
0000
0000
,  // measure 6
0000
0000
0000
0000
,  // measure 7
0023
0000
0000
0000
,  // measure 8
0000
0000
0000
0000
,  // measure 9
0230
0000
0000
0000
,  // measure 10
0000
0000
0000
0000
,  // measure 11
0000
0000
0000
0000
,  // measure 12
0300
0000
0000
0000
,  // measure 13
2000
0000
0000
0000
,  // measure 14
0000
0000
0000
0000
,  // measure 15
3020
0000
0000
0000
,  // measure 16
0000
0000
0000
0000
,  // measure 17
0030
0000
0000
0000
,  // measure 18
0000
0000
0000
0000
,  // measure 19
0001
0000
0000
0000
,  // measure 20
0001
0000
1000
0000
,  // measure 21
0001
0010
1000
0000
,  // measure 22
0001
0010
1000
1000
,  // measure 23
0002
0013
1000
1000
,  // measure 24
0002
0013
1000
1001
,  // measure 25
0001
0100
0001
0000
,  // measure 26
0010
0100
1000
0000
,  // measure 27
0001
1000
0100
0000
,  // measure 28
0010
0100
1000
0000
,  // measure 29
0001
0001
0001
0000
,  // measure 30
0100
0010
1000
0000
,  // measure 31
0001
1000
0010
0000
,  // measure 32
0100
0001
1000
0100
,  // measure 33
0010
0000
0100
0000
,  // measure 34
1000
0000
0010
0000
,  // measure 35
0100
0000
0001
0000
,  // measure 36
1000
0000
0100
0000
,  // measure 37
0010
0001
1000
0000
,  // measure 38
0010
0000
0100
0000
,  // measure 39
0001
0000
1000
0000
,  // measure 40
0001
0010
1000
0010
,  // measure 41
0001
0100
0010
0000
,  // measure 42
1000
0010
0100
0000
,  // measure 43
0001
1000
0100
0000
,  // measure 44
0010
0001
1000
0010
,  // measure 45
0100
0100
0100
0000
,  // measure 46
0001
0000
1000
0000
,  // measure 47
0100
0000
0010
0000
,  // measure 48
0100
1000
0001
0100
,  // measure 49
0010
0010
0000
1000
,  // measure 50
0000
0001
0000
0010
,  // measure 51
0100
0100
0000
0010
,  // measure 52
0000
0001
0000
1000
,  // measure 53
0010
1000
0000
0001
,  // measure 54
0000
0010
0000
0100
,  // measure 55
0010
0100
0000
1000
,  // measure 56
0000
0001
0000
0100
,  // measure 57
0010
1000
0010
0001
,  // measure 58
0010
1000
0010
0001
,  // measure 59
0100
1000
0100
0001
,  // measure 60
0100
1000
0100
0001
,  // measure 61
1000
0010
0001
0010
,  // measure 62
1000
0100
0001
0100
,  // measure 63
1000
0100
0010
0001
,  // measure 64
1001
0000
0000
0000
,  // measure 65
0001
0100
1000
0000
,  // measure 66
0001
0010
1000
0000
,  // measure 67
1000
0010
0001
0000
,  // measure 68
0100
0010
1000
0000
,  // measure 69
0001
0010
0100
0000
,  // measure 70
0010
0001
1000
0000
,  // measure 71
0010
0010
0100
0100
,  // measure 72
0001
1000
0001
1000
,  // measure 73
0100
0100
0010
0010
,  // measure 74
0001
1000
0001
0000
,  // measure 75
0100
0100
0001
0001
,  // measure 76
1000
0100
0010
0100
,  // measure 77
1000
1000
0010
0010
,  // measure 78
0100
0001
1000
0001
,  // measure 79
0010
0100
0010
0001
,  // measure 80
0100
0100
0010
0000
,  // measure 81
1000
0010
1010
0000
,  // measure 82
0001
0010
0011
0000
,  // measure 83
1000
0100
1100
0000
,  // measure 84
0101
0101
1001
0101
,  // measure 85
0100
0100
0010
0010
,  // measure 86
1000
0001
1001
0000
,  // measure 87
0001
0010
0100
1000
,  // measure 88
0100
0010
1001
0000
,  // measure 89
0001
0001
1000
1000
,  // measure 90
0010
0010
0100
0100
,  // measure 91
0001
0010
1000
0010
,  // measure 92
0001
0000
0000
0000
,  // measure 93
1000
1000
0001
0001
,  // measure 94
0100
0100
0010
0010
,  // measure 95
1010
0101
1000
0001
,  // measure 96
1001
0000
0000
0000
,  // measure 97
0110
0000
0000
0000
;
