#TITLE:Todome (Kancho Lesbian Mix);
#SUBTITLE:;
#ARTIST:HIRO EXTASY;
#TITLETRANSLIT:;
#SUBTITLETRANSLIT:;
#ARTISTTRANSLIT:;
#GENRE:Ryoujoku Hardcore;
#CREDIT:AznPunk07/Frozen_Heat/GuardianFrozen;
#MENUCOLOR:#ffb55e;
#METERTYPE:DDR;
#BANNER:Todome (Kancho Lesbian Mix)-bn.png;
#BACKGROUND:Todome (Kancho Lesbian Mix)-bg.png;
#LYRICSPATH:;
#CDTITLE:!cdtitle.png;
#MUSIC:Todome (Kancho Lesbian Mix).mp3;
#OFFSET:-0.128;
#SAMPLESTART:66.420;
#SAMPLELENGTH:22.180;
#SELECTABLE:YES;
#LISTSORT:;
#BPMS:0.000=173.000;
#STOPS:;
#BGCHANGES:;
#ATTACKS:;

//---------------dance-single - ----------------
#NOTES:
     dance-single:
     :
     Hard:
     7:
     0.514,0.533,0.141,0.262,0.027:
0000
0000
0000
0000
,
0000
0000
0000
0000
,
0000
0000
0000
0000
,
0000
0000
0000
0000
,
1100
0000
0000
0000
,
0101
0000
0000
0000
,
1000
0001
0010
0100
,
0110
0000
0000
0000
,
0001
0000
0100
0001
0000
0010
0000
0100
,
1000
0000
0010
1000
0000
0100
0000
0010
,
0001
0000
0100
0010
0000
0001
0000
0010
,
1000
0000
0100
0001
0000
0100
0000
1000
,
0001
0000
0100
0010
0000
1000
0000
0001
,
1000
0000
0001
0010
0000
0001
0000
1000
,
0001
0100
0010
1000
,
0001
0000
0001
0000
0010
0000
0000
0100
0000
0000
1000
0000
0000
0000
0000
0000
,
0000
0000
0000
0000
0000
0002
0000
0003
,
0000
0000
0000
0000
2000
0000
0000
0000
3000
0000
0000
0000
0010
0000
0000
0100
,
0000
0010
0000
0000
0000
0000
2000
0000
,
0000
0000
0000
0000
3000
0000
0001
0000
0000
0001
0000
0000
0000
0100
0000
0010
,
0000
0100
0000
0000
0000
0000
0000
0000
0000
0000
0110
0000
0000
0000
0000
0000
,
0000
0000
0000
1001
0000
0000
0000
0000
0000
0000
0000
0000
0110
0000
0000
0000
,
0000
0000
0000
0001
1000
0001
0000
0000
,
0000
1000
0000
0000
0001
0000
0000
0000
0100
0000
0000
0000
0000
0000
0000
0000
,
0110
0000
1000
0000
0001
0010
0100
0000
,
0010
0000
0011
0000
0100
1000
0100
0000
,
1001
0000
0010
0000
0001
0100
0001
0000
,
1000
1000
0010
0010
,
0101
0000
0010
0000
1000
0001
0010
0000
,
0100
0000
0011
0000
0100
0010
0100
0000
,
1000
1100
0001
0101
,
1001
0000
0110
0000
0001
0010
0100
1000
,
0001
0100
0001
0000
0010
0000
0100
1000
,
0100
0000
0010
0001
0010
0000
0000
0000
,
0100
0000
1000
0000
0001
0100
0001
0000
,
1000
0010
0100
0000
0101
0000
0000
0000
,
1000
0010
1000
0000
0100
0000
0010
0001
,
0010
0000
0100
1000
0100
0000
0000
0000
,
0010
0000
0001
0000
1000
0010
1000
0000
,
0001
0100
0010
0000
1010
0000
0000
0000
,
0001
0100
0000
0001
0100
0000
0010
1000
,
0100
0000
0010
0000
0001
0000
1000
0100
,
0010
0001
0000
1000
0100
0000
0010
0001
,
1000
0000
0001
0000
0100
0001
0100
0010
,
1000
0010
0000
1000
0001
0000
0001
1000
,
0100
0000
1000
0100
0000
0000
0010
0001
,
0100
0000
0010
0000
1000
0001
0000
1000
,
0000
0001
1000
0000
0010
0100
0010
0000
,
0002
0000
0013
0100
1000
0000
0000
0002
,
0000
0013
0100
0000
0100
0010
0000
0200
,
0000
1300
0010
1000
0001
0000
0000
0200
,
0000
1300
0010
0000
1000
0001
0000
2000
,
0000
3100
0010
0001
0010
0000
0000
2000
,
0000
3100
0010
0000
0010
0100
0000
0020
,
0000
0031
1000
0001
0100
0000
0000
0020
,
0000
0031
0100
0000
0001
1000
0001
0200
,
0000
0310
1000
0000
0001
0000
0000
0200
,
0000
0310
1000
0000
0001
0010
0000
2000
,
0000
3010
0001
1000
0010
0000
0000
2000
,
0000
3010
0001
0000
1000
0001
0010
0002
,
0000
0103
0010
0000
1000
0000
0000
0002
,
0000
0103
0010
0000
1000
0000
0000
0020
,
0000
0130
0001
1000
0100
0000
0000
0020
,
0000
0130
0001
1000
0100
0010
0000
0000
,
0001
0010
0100
0000
0001
0010
0100
0000
,
0010
0000
0100
0000
1000
0001
0100
0000
,
1000
0001
0100
0001
1000
0001
0000
0001
,
1000
0100
1000
0001
1000
0000
0000
0000
,
0100
0010
0001
0000
0100
0010
1000
0000
,
0001
0000
0100
0000
0010
1000
0100
0000
,
0010
0001
1000
0010
0001
0010
0000
1000
,
0001
0010
1000
0010
0001
1000
0000
0000
,
1000
0100
0010
0100
1000
0100
0000
0001
,
1000
0001
0100
0001
0010
0100
0000
0010
,
0000
0001
0100
0010
1000
0000
0000
1000
,
0001
0000
0100
0010
1000
0000
0001
1000
,
0000
1000
0100
0010
0001
0000
0000
1000
,
0000
1000
0100
0010
0001
0000
0000
0001
,
0000
0001
0100
0010
1000
0000
0000
0001
,
0000
0001
0100
0010
1000
0001
0000
0000
,
2000
0100
0010
0100
,
0001
0000
0100
0000
3010
0100
0001
0010
,
0002
0000
0000
0203
0000
0000
0320
0000
,
0001
1000
0100
2030
,
3002
0010
0100
0010
,
1000
0000
0010
0000
0103
0010
1000
0001
,
0020
0000
0000
0230
0000
0000
1000
0000
,
0010
0000
0001
0000
0310
0001
1000
0001
,
2000
0010
0100
0001
,
0100
0000
0010
0000
3001
0100
0001
0010
,
0200
1000
0320
0100
,
0032
0010
2003
0001
,
3020
0100
1000
0100
,
0001
0100
1000
0230
,
1000
0001
0010
0302
,
0023
0000
0100
0000
0032
1000
0003
0000
,
1000
0100
0001
0000
1000
0100
0010
0000
,
1000
0100
0001
0100
1000
0000
1001
0000
,
0001
0100
1000
0000
0100
0000
0010
0100
,
0010
0000
1000
0001
0010
0000
0011
0000
,
0001
0100
1000
0000
0001
0100
0010
0000
,
0001
0100
1000
0100
0001
0000
0010
0100
,
1000
0100
0010
0000
0001
1000
0001
0000
,
1000
0010
0100
0001
1001
0000
0000
0000
,
2002
0000
0000
0000
,
0000
0000
0000
0000
,
3003
0000
0000
0000
;

//---------------dance-single - ----------------
#NOTES:
     dance-single:
     :
     Medium:
     6:
     0.409,0.462,0.121,0.268,0.000:
0000
0000
0000
0000
,
0000
0000
0000
0000
,
0000
0000
0000
0000
,
0000
0000
0000
0000
,
1000
0000
0000
0000
,
0001
0000
0000
0000
,
0100
0000
0010
0000
,
1001
0020
0000
0030
,
1000
0100
0001
0100
,
1000
0000
0100
0000
0010
0000
0001
1000
,
0001
0010
1000
0010
,
0001
0000
0100
0000
0010
0000
1000
0001
,
1000
0100
0001
0100
,
0010
0000
0001
0000
1000
0000
0010
0100
,
0001
0010
1000
0010
,
0001
1000
0001
1000
0001
0000
0000
0000
,
2002
0000
0000
0000
,
0000
0000
0000
0000
,
0000
0000
0000
0000
,
0000
0000
0000
0000
,
0000
0000
0000
0000
,
0000
0000
0000
0000
,
0000
0000
0000
0000
,
0000
0000
3003
0000
,
0001
1001
0100
0100
,
0010
1000
0100
0010
,
0100
0110
1000
0001
,
1000
1000
0001
0010
,
0100
1100
0010
0001
,
1000
1000
0010
0100
,
0001
0011
0100
1000
,
0001
0001
0100
0010
,
1000
0010
1000
0000
0001
0000
0010
0000
,
0100
0000
0010
0000
0001
1000
0000
0000
,
0001
0100
0001
0000
0010
0000
0000
0000
,
0100
1000
0110
1000
,
0001
0100
0001
0000
1000
0000
0100
0000
,
0010
0000
0100
0000
1000
0001
0000
0000
,
1000
0010
1000
0000
0100
0000
0000
0000
,
0010
0001
0110
0000
,
0001
0100
1000
0100
,
0001
0010
1000
0010
,
0100
0010
0001
1000
,
0010
0001
0010
0100
,
0010
1000
0001
1000
,
0100
0010
0001
0100
,
0001
1000
0100
0010
,
0001
0100
0010
0000
,
1000
0100
0020
0030
,
0100
0000
1000
0000
0002
0100
0003
0000
,
0010
0001
2000
3000
,
0001
0000
1000
0000
0200
0010
0300
0000
,
1000
0010
2020
3030
,
0001
0000
0010
0000
0002
0200
0303
0000
,
0001
0010
0022
0033
,
0100
0000
1000
0000
0200
2000
3300
0000
,
0010
0100
0220
0330
,
0001
0000
1000
0000
0002
2000
3003
0000
,
0200
0001
0020
0330
,
2000
0000
0100
0000
3002
0100
0003
0000
,
0020
0100
0002
0033
,
2000
0010
0002
3003
,
0002
0010
0200
0303
,
2000
0100
0020
3030
,
0001
0010
0100
0000
0100
0000
0000
0000
,
0001
0010
0100
0000
0100
0010
0000
0000
,
1000
0010
0100
0000
0100
0000
0000
0000
,
1000
0010
0100
0000
0100
0010
0000
0000
,
0001
1000
0010
0000
0010
0000
0000
0000
,
0001
1000
0010
0000
0100
0001
0000
0000
,
1000
0001
0100
0000
0100
0000
0000
0000
,
1000
0001
0100
0000
0001
0010
0000
0000
,
0100
1000
0100
1000
0100
0000
0000
0000
,
0010
0001
0010
0001
0010
0001
0000
0000
,
1000
0001
1000
0001
1000
0000
0000
0000
,
0001
1000
0001
1000
0001
1000
0001
1000
,
0000
0000
0010
0000
2020
0000
3030
0100
,
0000
0000
1000
0000
2200
0000
3300
0001
,
0000
0000
0100
0000
0202
0000
0303
0010
,
0000
0000
0001
0000
0022
0000
0033
1000
,
0100
0010
0001
1000
,
0010
0000
0100
0000
0001
0000
0010
0100
,
0010
0000
0100
0010
0100
0000
0010
0100
,
0010
0001
1000
0010
,
0100
0001
1000
0001
,
0010
0000
1000
0000
0010
0000
0001
1000
,
0001
0000
1000
0001
1000
0000
0010
0000
,
0100
0001
1000
0100
,
0100
0010
0001
1000
,
0010
0000
0100
0000
0001
0000
1000
0100
,
1000
0000
0001
0100
0001
0000
1000
0100
,
1000
0000
0001
0100
0001
0000
1000
0100
,
1000
0010
0100
0001
,
0010
0100
1000
0010
,
0100
0100
0001
1000
,
0001
0010
0110
0000
,
0001
0100
1000
0100
,
0001
1000
0001
0100
,
0100
0010
0000
1000
,
0010
0001
0010
0110
,
1000
0100
0001
0100
,
1000
0001
0100
0010
,
1001
0010
0000
0100
,
0010
1000
0001
0100
,
0200
0000
0000
0000
,
0000
0000
0000
0000
,
0300
0000
0000
0000
;

//---------------dance-single - ----------------
#NOTES:
     dance-single:
     :
     Challenge:
     9:
     0.647,0.711,0.087,0.302,0.352:
0000
0000
0000
0000
,
0000
0000
0000
0000
,
0000
0000
0000
0000
,
0000
0000
0000
0000
,
0000
0000
0001
0000
0000
0000
0000
0100
0000
0000
0000
0000
0000
0000
0000
0000
,
0000
0000
1000
0000
0000
0000
0000
0100
0000
0000
0000
0000
0000
0000
0000
0000
,
1001
0000
0000
0000
0010
0100
0000
0000
0001
0000
0000
0000
1000
0100
0000
0000
,
0010
0200
0300
0000
,
1000
0000
0000
0000
0100
0000
1000
0010
0000
0000
0100
0000
0000
0001
0000
1000
,
0001
0000
0000
0000
0010
0000
0100
0010
0000
0000
0002
0010
0003
0000
0010
0000
,
0100
0000
0000
0000
1000
0000
0010
0100
0000
0000
0010
0000
0000
0100
0000
0001
,
0010
0000
0000
0000
0100
0000
0010
0001
0000
0000
2000
0010
3000
0000
0010
0000
,
0100
0000
0000
0000
0010
0000
1000
0100
0000
0000
0010
0000
0000
0001
0000
0100
,
0001
0000
0000
0000
0100
0000
0010
1000
0000
0000
0200
0000
0300
0000
0010
0000
,
0001
0100
0010
1000
,
0001
0000
0010
0000
0100
0000
0000
1000
0000
0000
1001
0000
0000
0000
0000
0000
,
0001
0100
0000
0000
0000
0100
0000
0000
0000
0010
0000
0000
0000
1000
0000
0000
,
0000
0001
0000
0000
0000
0001
0000
0000
0000
1000
0000
0000
0000
0100
0000
0000
,
0000
0010
0000
0000
0000
0010
0000
0000
0000
0001
0000
0000
0000
0100
0000
0000
,
0000
1000
0000
0000
0000
1000
0000
0000
0000
0001
0000
0000
0000
0010
0000
0000
,
0000
0100
0000
0000
0000
0100
0000
0000
0000
0001
0000
0000
0000
1000
0000
0000
,
0000
0100
0000
0000
0000
0100
0000
0000
0000
0010
0000
0000
0000
0001
0000
0000
,
0000
0001
0000
0000
0000
0100
0000
0000
0000
0010
0000
0000
0000
1000
0000
0000
,
0000
1000
0000
0000
0000
0100
0000
0000
0000
1000
0000
0000
0000
0001
0000
0000
,
0010
0000
0100
0000
1000
0001
1000
0001
,
0100
0000
0010
0000
1000
0010
1000
0010
,
0100
0000
0001
0000
0010
0100
1000
0100
,
0010
0011
0001
0101
,
0010
0000
1100
0000
0010
0001
0100
0001
,
0010
0000
0011
0000
0100
1000
0010
1000
,
0100
0000
1001
0000
1000
0010
0001
0010
,
1000
1100
0001
0110
,
0001
0100
0000
0000
0001
0000
0100
0000
0010
1000
0000
0000
0001
0000
1000
0000
,
0100
0010
0000
0000
0001
0000
1000
0000
0010
0100
0000
0000
0010
0000
0000
0000
,
1000
0000
0000
0000
0100
0010
0000
0000
0100
0000
1000
0000
0001
0100
0000
0000
,
0001
0010
0000
0000
0100
0000
1000
0000
0010
0000
0000
0000
1010
0000
0000
0000
,
1000
0010
0000
0000
1000
0000
0010
0000
0100
0001
0000
0000
1000
0000
0001
0000
,
0010
0100
0000
0000
1000
0000
0001
0000
0100
0010
0000
0000
0100
0000
0000
0000
,
0001
0000
0000
0000
0010
0100
0000
0000
0010
0000
0001
0000
1000
0010
0000
0000
,
1000
0100
0000
0000
0010
0000
0001
0000
0100
0000
0000
0000
0101
0000
0000
0000
,
0010
1000
0000
1000
0001
0000
0010
0001
,
0010
0001
0010
0100
0010
0100
0000
1000
,
0100
1000
0000
0001
0100
0000
0010
0000
,
1000
0000
0000
0100
0000
0000
1000
0000
0000
0001
0000
0000
0100
0000
0000
0000
0000
0000
0010
0000
1000
0000
0010
0000
,
0100
0000
0001
0000
0100
0000
0010
0000
1000
0000
0100
0000
0010
0000
0000
0000
0000
0000
0100
0000
0000
0010
0000
0000
,
0001
1000
0001
0000
0100
0010
0000
0000
,
1000
0000
0001
0000
0010
0100
0000
1000
,
0001
0000
1000
0000
0001
0000
0100
0000
0001
1000
0001
0000
2000
0000
0010
0000
,
3000
0010
1000
0001
0010
0000
0020
0100
,
0030
0100
0010
0001
1000
2000
0000
3020
,
0000
0130
0001
0010
0100
0000
0200
0010
,
0300
0010
0001
1000
0001
0002
0000
0203
,
0000
0310
1000
0001
0020
0000
0230
0010
,
0300
0001
1000
0001
0100
0200
0000
0320
,
0000
1030
0010
0100
0001
0000
0002
1000
,
0003
0001
0010
0100
0010
0010
0002
1000
,
0003
0001
0100
0001
0020
0000
0030
0200
,
0000
0310
0100
1000
0010
0200
0000
0302
,
0000
1003
0100
0001
0200
0000
0300
0020
,
0000
0031
0100
1000
0100
0010
2000
0100
,
3000
0010
0001
0010
2000
0000
3000
0020
,
0000
0130
0001
0010
0200
0000
0300
0020
,
0000
0031
0100
1000
0200
0000
0300
0020
,
0000
0130
0001
0010
0100
1000
0000
0000
,
0100
0010
0000
0000
1000
0100
1000
0000
0100
0010
0000
0000
0001
0100
0001
0000
,
0010
0100
1000
0100
0010
0001
0000
0000
,
0001
0010
0000
0000
0100
0010
0100
0000
1000
0000
0010
0000
0000
0000
1000
0000
,
0010
0001
0010
0100
0001
0010
0000
0000
,
0010
0100
0000
0000
0001
0010
0001
0000
0010
0100
0000
0000
1000
0010
1000
0000
,
0100
0000
0010
0000
0001
0000
0010
0000
0100
1000
0000
0000
0010
0100
0010
0000
,
1000
0100
0000
0000
0010
0100
0010
0000
0001
0000
0100
0000
0000
0000
0001
0000
,
0100
1000
0100
0010
1000
0100
0010
0001
,
0010
0100
0000
0000
0010
0001
0100
0000
0010
1000
0100
0000
0010
0000
0001
0000
,
1000
0001
0100
1000
0100
0010
0000
1000
,
0000
0001
1000
0010
0100
0000
0000
0001
,
0000
0010
0100
1000
0010
0001
0010
0100
,
0000
0001
0010
1000
0010
0000
0100
1000
,
0000
1000
0001
0100
0001
0000
0001
0010
,
0000
0010
0001
1000
0010
0000
0010
0100
,
0000
0100
0010
1000
0001
0010
0000
0000
,
0200
0000
1300
0010
0001
0000
0010
0100
,
0000
0001
0010
0100
1000
0001
0100
0001
,
0200
0000
0310
2000
0000
3001
0020
0000
,
0130
0010
0001
1000
0001
0100
0002
0000
,
2003
0000
3100
0010
0001
0000
0000
1000
,
0000
0010
0001
0010
0100
0001
1000
0010
,
0200
0000
0301
0020
0000
0030
0000
0100
,
0000
1000
0001
0100
0001
0010
1000
0010
,
0200
0000
1300
0001
0100
0000
0100
0010
,
0000
1000
0001
0010
1000
0001
0100
1000
,
0020
0100
0130
0000
0002
1000
1003
0000
,
0200
0010
0310
0000
2000
0001
3001
0010
,
0200
0000
0310
0001
1000
0000
0000
0100
,
0000
0010
0100
1000
0010
0000
0000
0100
,
0000
0001
0100
0010
0001
0000
0000
0100
,
0000
0010
1000
0100
0001
0100
0010
0000
,
1001
0100
0001
0000
1001
0100
1000
0000
,
1000
0000
0010
0000
0100
0001
0000
0000
0010
0000
0000
0010
0100
1000
0100
0000
,
1000
0001
0100
0000
0001
0010
0100
0010
,
0001
0000
0000
1000
0001
0000
0100
0000
0001
0000
0000
0001
0010
0000
0100
0010
,
0100
1000
0010
0000
0100
0001
0010
0000
,
0100
0000
1000
0010
0000
0100
0001
0000
1000
0000
0000
1000
0100
1000
0100
0000
,
0010
0100
1000
0000
0000
0100
0010
0001
,
1000
0000
0001
1000
0000
0010
0000
0100
0001
0000
0000
0001
0000
0010
0100
0010
,
0200
0000
0000
0000
,
0000
0000
0000
0000
,
0300
0000
0000
0000
;

//---------------dance-single - ----------------
#NOTES:
     dance-single:
     :
     Beginner:
     2:
     0.134,0.279,0.087,0.000,0.000: // measure 1
0000
0000
0000
0000
,  // measure 2
0000
0000
0000
0000
,  // measure 3
0000
0000
0000
0000
,  // measure 4
0000
0000
0000
0000
,  // measure 5
0000
0000
0000
0000
,  // measure 6
0000
0000
0000
0000
,  // measure 7
0000
0000
0000
0000
,  // measure 8
0000
0000
0000
0000
,  // measure 9
0001
0000
0000
0000
,  // measure 10
1000
0000
0000
0000
,  // measure 11
0100
0000
0000
0000
,  // measure 12
0010
0000
0000
0000
,  // measure 13
0001
0000
0000
0000
,  // measure 14
0100
0000
0000
0000
,  // measure 15
0010
0000
1000
0000
,  // measure 16
0100
0100
0100
0000
,  // measure 17
0010
0000
0000
0000
,  // measure 18
0000
0000
0000
0000
,  // measure 19
0000
0000
0000
0000
,  // measure 20
0000
0000
0000
0000
,  // measure 21
0000
0000
0000
0000
,  // measure 22
0000
0000
0000
0000
,  // measure 23
0000
0000
0000
0000
,  // measure 24
0000
0000
0000
0000
,  // measure 25
0001
0000
1000
0000
,  // measure 26
0001
0001
0000
0000
,  // measure 27
0100
0000
0010
0000
,  // measure 28
0100
0100
0000
0000
,  // measure 29
0010
0000
1000
0000
,  // measure 30
0100
0000
0010
0000
,  // measure 31
0001
0000
1000
0000
,  // measure 32
0010
0010
0010
0000
,  // measure 33
1000
0000
0000
0000
,  // measure 34
0001
0000
0000
0000
,  // measure 35
0010
0000
0000
0000
,  // measure 36
0100
0100
0100
0000
,  // measure 37
1000
0000
0000
0000
,  // measure 38
0001
0000
0000
0000
,  // measure 39
0100
0000
0000
0000
,  // measure 40
0001
0000
0010
0010
,  // measure 41
0010
0000
0000
0000
,  // measure 42
0100
0000
0000
0000
,  // measure 43
1000
0000
0000
0000
,  // measure 44
0001
0000
0100
0000
,  // measure 45
0010
0000
0000
0000
,  // measure 46
1000
0000
0000
0000
,  // measure 47
0001
0000
0000
0000
,  // measure 48
1000
0000
0100
0000
,  // measure 49
0011
0000
0000
0000
,  // measure 50
0000
0000
0000
0000
,  // measure 51
1100
0000
0000
0000
,  // measure 52
0000
0000
0000
0000
,  // measure 53
0101
0000
0000
0000
,  // measure 54
0000
0000
0000
0000
,  // measure 55
1010
0000
0000
0000
,  // measure 56
0000
0000
0000
0000
,  // measure 57
0110
0000
0000
0000
,  // measure 58
0000
0000
0000
0000
,  // measure 59
0101
0000
0000
0000
,  // measure 60
0000
0000
0000
0000
,  // measure 61
1001
0000
0000
0000
,  // measure 62
0000
0000
0000
0000
,  // measure 63
1100
0000
0000
0000
,  // measure 64
0110
0000
0010
0000
,  // measure 65
1000
1000
1000
0000
,  // measure 66
0000
0000
0000
0000
,  // measure 67
0001
0000
0001
0000
,  // measure 68
0001
0001
0000
0000
,  // measure 69
0100
0100
0100
0000
,  // measure 70
0000
0000
0010
0010
,  // measure 71
0010
0000
0010
0000
,  // measure 72
0000
0000
1000
1000
,  // measure 73
1000
0000
1000
0000
,  // measure 74
0000
0000
0001
0000
,  // measure 75
0001
0000
0001
0000
,  // measure 76
0000
0000
0010
0000
,  // measure 77
0100
0000
0000
0000
,  // measure 78
0010
0000
0000
0000
,  // measure 79
0001
0000
1000
0000
,  // measure 80
1001
0000
1001
0000
,  // measure 81
1001
0000
0100
0000
,  // measure 82
0010
0000
1000
0000
,  // measure 83
0001
0000
0010
0000
,  // measure 84
0100
0000
1000
0000
,  // measure 85
0001
0000
0100
0000
,  // measure 86
0010
0000
1000
0000
,  // measure 87
0001
0000
1000
0000
,  // measure 88
0100
0000
0010
0000
,  // measure 89
0001
0000
1000
0000
,  // measure 90
0010
0000
0100
0000
,  // measure 91
0001
0000
1000
0000
,  // measure 92
0100
0000
0010
0000
,  // measure 93
0001
0000
0000
0000
,  // measure 94
0000
0000
0000
0000
,  // measure 95
1000
0000
0000
0000
,  // measure 96
0010
0000
0100
0000
,  // measure 97
0110
0000
0000
0000
,  // measure 98
0000
0000
0000
0000
,  // measure 99
0001
0001
0000
0000
,  // measure 100
0000
0000
0000
0000
,  // measure 101
1000
0000
1000
0000
,  // measure 102
0000
0000
0000
0000
,  // measure 103
0100
0100
0000
0000
,  // measure 104
0010
0000
1000
0000
,  // measure 105
0100
0000
0000
0000
;

//---------------dance-single - ----------------
#NOTES:
     dance-single:
     :
     Easy:
     5:
     0.303,0.454,0.074,0.000,0.000: // measure 1
0000
0000
0000
0000
,  // measure 2
0000
0000
0000
0000
,  // measure 3
0000
0000
0000
0000
,  // measure 4
0000
0000
0000
0000
,  // measure 5
0010
0000
0000
0000
,  // measure 6
0010
0000
0000
0000
,  // measure 7
0010
0000
0010
0000
,  // measure 8
0010
0000
0000
0000
,  // measure 9
1000
0000
0100
0000
,  // measure 10
0010
0000
0001
1000
,  // measure 11
0001
0000
0100
0000
,  // measure 12
0010
0000
1000
0100
,  // measure 13
0010
0000
0100
0000
,  // measure 14
1000
0000
0001
0000
,  // measure 15
0100
0000
0010
0000
,  // measure 16
1000
0001
1000
0100
,  // measure 17
0010
0000
0000
0000
,  // measure 18
0000
0000
0000
0000
,  // measure 19
0000
0000
0000
0000
,  // measure 20
0000
0000
0000
0000
,  // measure 21
0000
0000
0000
0000
,  // measure 22
0000
0000
0000
0000
,  // measure 23
0000
0000
0000
0000
,  // measure 24
0000
0000
0000
0000
,  // measure 25
0001
0100
1000
0100
,  // measure 26
0010
0010
1000
0000
,  // measure 27
0100
0100
0010
0001
,  // measure 28
1000
1000
0010
0000
,  // measure 29
0100
0100
0001
1000
,  // measure 30
0001
0010
0010
0000
,  // measure 31
0001
0001
1000
1000
,  // measure 32
0010
0100
0110
0000
,  // measure 33
1000
0100
0001
0100
,  // measure 34
1000
0010
0100
0000
,  // measure 35
0001
0010
1000
0010
,  // measure 36
0100
1000
0001
0000
,  // measure 37
0100
0100
0010
1000
,  // measure 38
0001
0010
0100
0000
,  // measure 39
0010
0001
1000
0010
,  // measure 40
0100
0010
1000
0000
,  // measure 41
0001
1000
0000
0100
,  // measure 42
0000
0010
0000
0001
,  // measure 43
0100
0001
0000
1000
,  // measure 44
0100
0010
0100
1000
,  // measure 45
0001
0000
0100
0000
,  // measure 46
0010
1000
0100
0000
,  // measure 47
0010
0001
0100
0001
,  // measure 48
1000
0100
0010
0000
,  // measure 49
1000
0010
0001
0000
,  // measure 50
1000
0100
0001
0000
,  // measure 51
1000
0010
0001
0000
,  // measure 52
1000
0100
0001
0000
,  // measure 53
1000
0100
0010
0000
,  // measure 54
1000
0010
0100
0000
,  // measure 55
1000
0100
0010
0000
,  // measure 56
1000
0010
0100
0000
,  // measure 57
0001
0010
1000
0000
,  // measure 58
0001
0100
1000
0000
,  // measure 59
0001
0010
1000
0000
,  // measure 60
0001
0100
1000
0000
,  // measure 61
0001
0010
0100
0000
,  // measure 62
0001
0100
0010
0000
,  // measure 63
0001
0010
0100
0000
,  // measure 64
0001
0100
0010
0000
,  // measure 65
1000
0100
0010
0001
,  // measure 66
1000
0010
1000
0010
,  // measure 67
1000
0100
0010
0001
,  // measure 68
1000
0100
0010
0000
,  // measure 69
0001
0100
0010
1000
,  // measure 70
0001
0010
0001
0010
,  // measure 71
0001
0100
0010
1000
,  // measure 72
0001
1000
0100
0000
,  // measure 73
0010
0010
0100
1000
,  // measure 74
0001
0100
0010
1000
,  // measure 75
0001
0010
0001
0010
,  // measure 76
0100
1000
0001
0001
,  // measure 77
1000
0010
1000
0010
,  // measure 78
0100
0001
0100
0001
,  // measure 79
1000
0100
0010
0001
,  // measure 80
1000
0001
1001
0000
,  // measure 81
0001
0001
1000
1000
,  // measure 82
0010
0100
0001
1000
,  // measure 83
1100
0010
0101
1000
,  // measure 84
0001
0100
0010
0110
,  // measure 85
1001
0010
0100
0010
,  // measure 86
0001
1000
0010
0100
,  // measure 87
0110
1000
1001
0001
,  // measure 88
0010
0100
1000
1100
,  // measure 89
0011
1000
0010
0100
,  // measure 90
0001
1000
0100
0010
,  // measure 91
0100
0100
1000
1000
,  // measure 92
0001
0001
0100
0100
,  // measure 93
0010
0001
0010
0100
,  // measure 94
0010
0001
0010
0100
,  // measure 95
0010
1000
0100
1000
,  // measure 96
0010
1000
0100
0000
,  // measure 97
1000
0100
1000
0001
,  // measure 98
1000
1000
0001
0000
,  // measure 99
0001
0100
0000
0001
,  // measure 100
0010
0100
0010
0000
,  // measure 101
0001
1000
0001
0100
,  // measure 102
0001
0010
1000
0010
,  // measure 103
0100
0000
0000
1000
,  // measure 104
0100
0010
0001
0000
,  // measure 105
1001
0000
0000
0000
;
