#TITLE:TAMAYURA;
#SUBTITLE:;
#ARTIST:Hirofumi Sasaki;
#TITLETRANSLIT:;
#SUBTITLETRANSLIT:;
#ARTISTTRANSLIT:;
#GENRE:;
#CREDIT:;
#BANNER:Tamayura (Drummania Version).png;
#BACKGROUND:Tamayura (Drummania Version)-bg.png;
#LYRICSPATH:;
#CDTITLE:nonsense.png;
#MUSIC:Tamayura.mp3;
#OFFSET:-0.489;
#SAMPLESTART:86.650;
#SAMPLELENGTH:10.850;
#SELECTABLE:YES;
#DISPLAYBPM:180.000;
#BPMS:0.000=180.000,8.000=185.000,9.000=191.000,11.000=180.000,13.500=173.000,15.000=160.000,15.500=140.000,16.000=133.000,17.500=180.000,30.000=167.000,31.000=178.000,32.000=194.600,33.000=202.000,34.000=203.000,35.000=199.000,36.000=196.000,37.000=194.000,38.000=215.000,40.000=212.000,41.000=180.000,42.500=190.000,43.750=164.000,44.000=148.000,44.500=165.000,54.500=159.000,56.500=160.000,58.000=210.000,59.000=194.000,60.000=193.800,61.000=174.000,62.000=160.700,63.000=147.000,64.000=123.400,65.000=108.000,66.000=116.000,71.000=180.000,200.000=-180.000,204.000=180.000,208.000=-180.000,212.000=180.000,216.000=-180.000,220.000=180.000,224.000=-180.000,228.000=180.000,232.000=-180.000,236.000=180.000,240.000=-180.000,244.000=180.000,248.000=-180.000,252.000=180.000,256.000=-180.000,260.000=180.000,265.000=-180.000,269.000=180.000,273.000=-180.000,277.000=180.000,281.000=-180.000,285.000=180.000,289.000=-180.000,293.000=180.000,297.000=-180.000,301.000=180.000,305.000=-180.000,309.000=180.000,313.000=-180.000,317.000=180.000,321.000=-180.000,325.000=180.000,330.000=-180.000,334.000=180.000,338.000=-180.000,342.000=180.000,346.000=-180.000,350.000=180.000,354.000=-180.000,358.000=180.000,362.000=-180.000,366.000=180.000,370.000=-180.000,374.000=180.000,378.000=-180.000,382.000=180.000,386.000=-180.000,390.000=180.000,429.000=-180.000,429.500=180.000,430.000=-180.000,430.500=180.000,431.000=-180.000,431.500=180.000,432.000=-180.000,432.500=180.000,433.000=-180.000,433.500=180.000,434.000=-180.000,434.500=180.000,435.000=-180.000,435.500=180.000,436.000=-180.000,436.500=180.000,437.000=-180.000,437.500=180.000,438.000=-180.000,438.500=180.000,439.000=-180.000,439.500=180.000,440.000=-180.000,440.500=180.000,441.000=-180.000,441.500=180.000,442.000=-180.000,442.500=180.000,443.000=-180.000,443.500=180.000,444.000=-180.000,444.500=180.000,445.000=-180.000,445.500=180.000,446.000=-180.000,446.500=180.000,447.000=-180.000,447.500=180.000,448.000=-180.000,448.500=180.000,449.000=-180.000,449.500=180.000,450.000=-180.000,450.500=180.000,451.000=-180.000,451.500=180.000,452.000=-180.000,452.500=180.000,453.000=-180.000,453.500=180.000,454.000=-180.000,454.500=180.000,455.000=-180.000,455.500=180.000,456.000=-180.000,456.500=180.000,457.000=-180.000,457.500=180.000,458.000=-180.000,458.500=180.000,459.000=-180.000,459.500=180.000,460.000=-180.000,460.500=180.000,461.000=-180.000,461.500=180.000,462.000=-180.000,462.500=180.000,463.000=-180.000,463.500=180.000,464.000=-180.000,464.500=180.000,465.000=-180.000,465.500=180.000,466.000=-180.000,466.500=180.000,467.000=-180.000,467.500=180.000,468.000=-180.000,468.500=180.000,469.000=-180.000,469.500=180.000,470.000=-180.000,470.500=180.000,471.000=-180.000,471.500=180.000,472.000=-180.000,472.500=180.000,473.000=-180.000,473.500=180.000,474.000=-180.000,474.500=180.000,475.000=-180.000,475.500=180.000,476.000=-180.000,476.500=180.000,477.000=-180.000,477.500=180.000,478.000=-180.000,478.500=180.000,479.000=-180.000,479.500=180.000,480.000=-180.000,480.500=180.000,481.000=-180.000,481.500=180.000,482.000=-180.000,482.500=180.000,483.000=-180.000,483.500=180.000,484.000=-180.000,484.500=180.000,485.000=-180.000,485.500=180.000,486.000=-180.000,486.500=180.000,487.000=-180.000,487.500=180.000,488.000=-180.000,488.500=180.000,489.000=-180.000,489.500=180.000,490.000=-180.000,490.500=180.000,491.000=-180.000,491.500=180.000,492.000=-180.000,492.500=180.000,493.000=-180.000,493.500=180.000,494.000=-180.000,494.500=180.000,495.000=-180.000,495.500=180.000,496.000=-180.000,496.500=180.000,497.000=-180.000,497.500=180.000,498.000=-180.000,498.500=180.000,499.000=-180.000,499.500=180.000,500.000=-180.000,500.500=180.000,501.000=-180.000,501.500=180.000,502.000=-180.000,502.500=180.000,503.000=-180.000,503.500=180.000,504.000=-180.000,504.500=180.000,505.000=-180.000,505.500=180.000,506.000=-180.000,506.500=180.000,507.000=-180.000,507.500=180.000,508.000=-180.000,508.500=180.000,509.000=-180.000,509.500=180.000,510.000=-180.000,510.500=180.000,511.000=-180.000,511.500=180.000,512.000=-180.000,512.500=180.000,513.000=-180.000,513.500=180.000,514.000=-180.000,514.500=180.000,515.000=-180.000,515.500=180.000,516.000=-180.000,516.500=180.000,517.000=-180.000,517.500=180.000,518.000=-180.000,518.500=180.000,519.000=-180.000,519.500=180.000,520.000=-180.000,520.500=180.000,521.000=-180.000,521.500=180.000,522.000=-180.000,522.500=180.000,523.000=-180.000,523.500=180.000,524.000=-180.000,524.500=180.000,525.000=-180.000,525.500=180.000,526.000=-180.000,526.500=180.000,527.000=-180.000,527.500=180.000,528.000=-180.000,528.500=180.000,529.000=-180.000,529.500=180.000,530.000=-180.000,530.500=180.000,531.000=-180.000,531.500=180.000,532.000=-180.000,532.500=180.000,533.000=-180.000,533.500=180.000,534.000=-180.000,534.500=180.000,535.000=-180.000,535.500=180.000,536.000=-180.000,536.500=180.000,537.000=-180.000,537.500=180.000,538.000=-180.000,538.500=180.000,539.000=-180.000,539.500=180.000,540.000=-180.000,540.500=180.000,541.000=-180.000,541.500=180.000,542.000=-180.000,542.500=180.000,543.000=-180.000,543.500=180.000,544.000=-180.000,544.500=180.000,545.000=-180.000,545.500=180.000,546.000=-180.000,546.500=180.000,547.000=-180.000,547.500=180.000,548.000=-180.000,548.500=180.000,549.000=-180.000,549.500=180.000,550.000=-180.000,550.500=180.000,551.000=-180.000,551.500=180.000,552.000=-180.000,552.500=180.000,553.000=-180.000,553.500=180.000,554.000=-180.000,554.500=180.000,555.000=-180.000,555.500=180.000,556.000=-180.000,556.500=180.000,557.000=-180.000,557.500=180.001;
#STOPS:71.000=0.277
,200.000=0.042
,208.000=0.042
,216.000=0.042
,224.000=0.042
,232.000=0.042
,240.000=0.042
,248.000=0.042
,256.000=0.042
,265.000=0.041
,273.000=0.042
,281.000=0.042
,289.000=0.042
,297.000=0.042
,305.000=0.042
,313.000=0.042
,321.000=0.042
,330.000=0.042
,338.000=0.041
,346.000=0.042
,354.000=0.042
,362.000=0.042
,370.000=0.042
,378.000=0.042
,386.000=0.042
,429.000=0.021
,430.000=0.021
,431.000=0.021
,432.000=0.021
,433.000=0.021
,434.000=0.021
,435.000=0.021
,436.000=0.021
,437.000=0.021
,438.000=0.021
,439.000=0.021
,440.000=0.021
,441.000=0.021
,442.000=0.021
,443.000=0.021
,444.000=0.021
,445.000=0.021
,446.000=0.021
,447.000=0.021
,448.000=0.021
,449.000=0.021
,450.000=0.021
,451.000=0.021
,452.000=0.021
,453.000=0.021
,454.000=0.021
,455.000=0.021
,456.000=0.021
,457.000=0.021
,458.000=0.021
,459.000=0.021
,460.000=0.021
,461.000=0.021
,462.000=0.021
,463.000=0.021
,464.000=0.021
,465.000=0.021
,466.000=0.021
,467.000=0.021
,468.000=0.021
,469.000=0.021
,470.000=0.021
,471.000=0.021
,472.000=0.021
,473.000=0.021
,474.000=0.021
,475.000=0.021
,476.000=0.021
,477.000=0.021
,478.000=0.021
,479.000=0.021
,480.000=0.021
,481.000=0.021
,482.000=0.021
,483.000=0.021
,484.000=0.021
,485.000=0.021
,486.000=0.021
,487.000=0.021
,488.000=0.021
,489.000=0.021
,490.000=0.021
,491.000=0.021
,492.000=0.021
,493.000=0.021
,494.000=0.021
,495.000=0.021
,496.000=0.021
,497.000=0.021
,498.000=0.021
,499.000=0.021
,500.000=0.021
,501.000=0.021
,502.000=0.021
,503.000=0.021
,504.000=0.021
,505.000=0.021
,506.000=0.021
,507.000=0.021
,508.000=0.021
,509.000=0.021
,510.000=0.021
,511.000=0.021
,512.000=0.021
,513.000=0.021
,514.000=0.021
,515.000=0.021
,516.000=0.021
,517.000=0.021
,518.000=0.021
,519.000=0.021
,520.000=0.021
,521.000=0.021
,522.000=0.021
,523.000=0.021
,524.000=0.021
,525.000=0.021
,526.000=0.021
,527.000=0.021
,528.000=0.021
,529.000=0.021
,530.000=0.021
,531.000=0.021
,532.000=0.021
,533.000=0.021
,534.000=0.021
,535.000=0.021
,536.000=0.021
,537.000=0.021
,538.000=0.021
,539.000=0.021
,540.000=0.021
,541.000=0.021
,542.000=0.021
,543.000=0.021
,544.000=0.021
,545.000=0.021
,546.000=0.021
,547.000=0.021
,548.000=0.021
,549.000=0.021
,550.000=0.021
,551.000=0.021
,552.000=0.021
,553.000=0.021
,554.000=0.021
,555.000=0.021
,556.000=0.015
,557.000=0.005
;
#BGCHANGES:429.000=crashtunnel.avi=2.000=0=0=1=====,
558.000=Tamayura (Drummania Version)-bg.png=0.000=0=1=1=StretchRewind====,
99999=-nosongbg-=1.000=0=0=0 // don't automatically add -songbackground-
;
#KEYSOUNDS:;

//---------------dance-single - Pro----------------
#NOTES:
     dance-single:
     Pro:
     Challenge:
     12:
     1.000,1.000,1.000,0.628,1.000:
0000
0000
0000
0000
,
0000
0000
0000
0000
0000
0000
0000
0000
0000
0000
0000
0000
0000
0000
0000
0000
0000
0000
0000
0000
0000
0000
2000
0000
0000
0000
0000
0000
0000
0000
0000
3002
,
0000
0023
0230
0320
,
0032
0000
0000
0000
0000
0003
M000
M000
,
0M00
0M00
0000
0000
0000
0000
0000
0000
,
0000
0000
0000
0000
,
0000
0000
0000
0000
,
0000
0000
0000
0020
,
0230
0302
2003
3002
,
2003
3020
0230
0000
,
0000
0000
0000
0000
0000
0000
0000
0000
0000
0000
0000
0000
0000
0000
0300
0001
,
0100
0000
0010
2000
0000
0000
0000
0000
0000
0000
0000
0000
0000
0000
0000
0000
,
0000
0000
3000
0000
,
0000
0000
0000
0000
,
0000
0000
0000
0000
0000
0000
0100
1000
,
0200
0320
0032
0203
,
0320
0000
2030
0000
3002
0003
0220
0000
,
0000
0000
0000
0330
,
1000
0100
0010
0100
1000
0000
0001
0100
,
0010
0100
0001
0000
0000
2000
0000
3020
,
0000
1030
0100
0001
0100
1000
0010
0100
,
0001
0010
0002
0000
0000
0000
0003
0000
,
0001
0010
0100
0010
0001
0000
1000
0010
,
0100
0010
1000
0000
0000
0002
0000
0203
,
0000
0310
1000
0100
0010
0100
1000
0010
,
0100
0010
1000
0100
0020
0000
0030
0000
,
0001
0000
1000
0100
1000
0000
0001
0000
1000
0100
0010
0000
0100
0010
0001
0000
,
1000
0000
0001
0100
0001
0000
1000
0000
0001
0100
0010
0000
0100
0010
1000
0000
,
0001
0100
0010
1000
0001
0010
0100
1000
,
0001
0100
0010
1000
1010
0000
0000
0000
,
1000
0000
0001
0010
0001
0000
1000
0000
0001
0010
0100
0000
0010
0100
1000
0000
,
0001
0000
1000
0010
1000
0000
0001
0000
1000
0010
0100
0000
0010
0100
0001
0000
,
1000
0010
0100
0001
1000
0100
0010
0001
,
1000
0010
0100
0001
0101
0000
0000
0000
,
1000
0100
0100
0010
0001
0000
1000
0010
,
0010
0100
0001
0000
0000
0200
0000
0320
,
0000
1030
0100
1000
0100
0010
0100
1000
,
0001
0100
0010
0000
0000
0000
0000
0000
,
0001
0010
0010
0100
1000
0000
0001
0100
,
0100
0010
1000
0000
0000
0001
0010
0001
,
2000
0200
3320
0002
,
2030
0000
0020
3033
,
1000
0010
0100
0001
0200
0302
0203
0300
,
0001
0010
0200
2300
3200
0300
0000
0000
,
0001
0000
0100
0001
0100
0000
0001
0010
0100
0000
1000
0010
1000
0000
0100
0010
,
0001
0100
0010
1000
0001
0000
0000
0000
,
1100
0000
1010
1010
0000
0101
0101
0000
,
0011
0000
0110
0110
0000
1001
1001
0000
,
1000
0010
0100
0001
0100
0010
0100
0001
0100
0010
1000
0010
0100
0010
1000
0010
,
0100
0001
0010
0001
0100
0010
0100
0010
1000
0000
0000
0000
0000
0000
0000
0000
,
2002
0000
0000
0000
,
3003
0000
M00M
0000
,
1001
0000
0000
0000
,
0000
0000
M00M
0000
,
1001
0000
0000
0000
,
0000
0000
M00M
0000
,
1001
0000
0000
0000
,
0000
0000
M00M
0000
,
1001
0000
0000
0000
,
0000
0000
M00M
0000
,
1001
0000
0000
0000
,
0000
0000
M00M
0000
,
1001
0000
0000
0000
,
0000
0000
M00M
0000
,
2002
0000
0000
0000
,
0000
0000
0000
0000
,
0000
0000
0000
0000
,
0000
0000
3003
M00M
,
0000
1001
0000
0000
,
0000
0000
0000
M00M
,
0000
1001
0000
0000
,
0000
0000
0000
M00M
,
0000
1001
0000
0000
,
0000
0000
0000
M00M
,
0000
1001
0000
0000
,
0000
0000
0000
M00M
,
0000
1001
0000
0000
,
0000
0000
0000
M00M
,
0000
1001
0000
0000
,
0000
0000
0000
M00M
,
0000
2002
0000
0000
,
0000
0000
0000
0000
,
0000
0000
0000
0000
,
0000
0000
0000
3003
,
M00M
0000
1001
0000
,
0000
0000
0000
0000
,
M00M
0000
1001
0000
,
0000
0000
0000
0000
,
M00M
0000
1001
0000
,
0000
0000
0000
0000
,
M00M
0000
1001
0000
,
0000
0000
0000
0000
,
M00M
0000
1001
0000
,
0000
0000
0000
0000
,
M00M
0000
1001
0000
,
0000
0000
0000
0000
,
M00M
0000
2002
0000
,
0000
0000
0000
0000
,
0000
0000
0000
0000
,
3003
0000
0000
0000
1000
0010
0100
0001
0100
0010
1000
0010
1000
0010
0100
0001
,
0010
0001
0010
0001
0100
0001
0100
0010
1000
0001
0100
0010
0100
0010
1000
0010
,
0100
0001
0100
0010
1000
0100
1000
0100
1000
0010
0100
0001
0010
0001
0100
0010
,
1000
0100
1000
0010
0100
0010
0100
0001
1000
0010
0100
0010
1000
0001
1000
0001
,
0100
0010
0100
0010
1000
0100
1000
0010
0100
0001
0100
0010
0100
0001
0000
0000
,
0001
0010
0100
0010
0100
1000
0010
0100
0001
0100
0010
0100
0001
0010
0001
1000
,
0010
0100
0001
0100
0010
1000
0010
0100
0001
0010
0001
0100
0010
1000
0100
1000
,
0100
0010
0001
0100
0010
0100
0001
0100
0010
1000
0010
0100
0001
0010
0001
0000
,
0000
0000
0000
0000
2002
0000
0000
0000
3003
0000
0000
M00M
1001
0000
0000
M00M
,
1001
0000
0000
M00M
1001
0000
0000
M00M
1001
0000
0000
M00M
1001
0000
0000
M00M
,
1001
0000
0000
M00M
1001
0000
0000
M00M
1001
0000
0000
M00M
1001
0000
0000
M00M
,
1001
0000
0000
M00M
1001
0000
0000
M00M
1001
0000
0000
M00M
1001
0000
0000
M00M
,
1001
0000
0000
M00M
1001
0000
0000
M00M
1001
0000
0000
M00M
1001
0000
0000
M00M
,
1001
0000
0000
M00M
1001
0000
0000
M00M
1001
0000
0000
M00M
1001
0000
0000
M00M
,
1001
0000
0000
M00M
1001
0000
0000
M00M
1001
0000
0000
M00M
1001
0000
0000
M00M
,
1001
0000
0000
M00M
1001
0000
0000
M00M
1001
0000
0000
M00M
1001
0000
0000
M00M
,
1001
0000
0000
M00M
1001
0000
0000
M00M
1001
0000
0000
M00M
1001
0000
0000
M00M
,
1001
0000
0000
M00M
1001
0000
0000
M00M
1001
0000
0000
M00M
1001
0000
0000
M00M
,
1001
0000
0000
M00M
1001
0000
0000
M00M
1001
0000
0000
M00M
1001
0000
0000
M00M
,
1001
0000
0000
M00M
1001
0000
0000
M00M
1001
0000
0000
M00M
1001
0000
0000
M00M
,
1001
0000
0000
M00M
1001
0000
0000
M00M
1001
0000
0000
M00M
1001
0000
0000
M00M
,
1001
0000
0000
M00M
1001
0000
0000
M00M
1001
0000
0000
M00M
1001
0000
0000
M00M
,
1001
0000
0000
M00M
1001
0000
0000
M00M
1001
0000
0000
M00M
1001
0000
0000
M00M
,
1001
0000
0000
M00M
1001
0000
0000
M00M
1001
0000
0000
M00M
1001
0000
0000
M00M
,
1001
0000
0000
M00M
1001
0000
0000
M00M
1001
0000
0000
M00M
1001
0000
0000
M00M
,
1001
0000
0000
M00M
1001
0000
0000
M00M
1001
0000
0000
M00M
1001
0000
0000
M00M
,
1001
0000
0000
M00M
1001
0000
0000
M00M
1001
0000
0000
M00M
1001
0000
0000
M00M
,
1001
0000
0000
M00M
1001
0000
0000
M00M
1001
0000
0000
M00M
1001
0000
0000
M00M
,
1001
0000
0000
M00M
1001
0000
0000
M00M
1001
0000
0000
M00M
1001
0000
0000
M00M
,
1001
0000
0000
M00M
1001
0000
0000
M00M
1001
0000
0000
M00M
1001
0000
0000
M00M
,
1001
0000
0000
M00M
1001
0000
0000
M00M
1001
0000
0000
M00M
1001
0000
0000
M00M
,
1001
0000
0000
M00M
1001
0000
0000
M00M
1001
0000
0000
M00M
1001
0000
0000
M00M
,
1001
0000
0000
M00M
1001
0000
0000
M00M
1001
0000
0000
M00M
1001
0000
0000
M00M
,
1001
0000
0000
M00M
1001
0000
0000
M00M
1001
0000
0000
M00M
1001
0000
0000
M00M
,
1001
0000
0000
M00M
1001
0000
0000
M00M
1001
0000
0000
M00M
1001
0000
0000
M00M
,
1001
0000
0000
M00M
1001
0000
0000
M00M
1001
0000
0000
M00M
1001
0000
0000
M00M
,
1001
0000
0000
M00M
1001
0000
0000
M00M
1001
0000
0000
M00M
1001
0000
0000
M00M
,
1001
0000
0000
M00M
1001
0000
0000
M00M
1001
0000
0000
M00M
1001
0000
0000
M00M
,
1001
0000
0000
M00M
1001
0000
0000
M00M
1001
0000
0000
M00M
1001
0000
0000
M00M
,
1001
0000
0000
M00M
1001
0000
0000
M00M
1001
0000
0000
M00M
1001
0000
0000
M00M
,
1001
0000
0000
0000
,
0000
0000
1000
0100
0010
0001
1000
0000
,
0000
0001
1000
0010
0100
0001
0100
0010
,
0100
0001
1000
0010
0100
0010
2000
0000
,
0001
0000
3001
0000
1000
0100
0001
0100
,
1000
0000
0001
0010
1000
0010
0001
0000
,
0000
1000
1000
0010
0020
0000
0130
0010
,
0020
0000
0130
0010
0010
0100
0100
0000
,
0000
0000
0000
0000
0020
0000
0000
0230
,
0000
0000
0000
0000
0301
1000
0010
0100
0001
0010
0100
2000
0000
0000
0000
0000
,
0000
0000
0000
0000
0000
0000
0000
0000
0000
0000
0000
0000
0000
0000
0000
0000
0000
0000
0000
0000
0000
0000
0000
0000
0000
0000
0000
0000
0000
0000
0000
0000
0000
0000
0000
0000
3000
0000
0000
0000
0000
0000
0000
0000
0000
0000
0000
0000
0100
0000
0000
0000
0000
0000
0000
0000
0000
0000
0000
0000
0000
0000
0000
0000
0010
0000
0000
0000
0000
0000
0000
0000
0000
0000
0000
0000
0000
0000
0000
0000
0000
0000
0000
0000
0001
0000
0000
0000
0000
0000
0000
0000
0000
0000
0000
0000
0000
0000
0000
0000
0000
0000
0000
0000
1000
0000
0000
0000
0000
0000
0000
0000
0000
0000
0000
0000
0000
0000
0000
0000
0100
0000
0000
0000
0000
0000
0000
0000
0000
0000
0000
0000
0000
0000
0000
0000
0010
0000
0000
0000
0000
0000
0000
0000
0000
0000
0000
0000
0000
0000
0000
0000
0100
0000
0000
0000
0000
0000
0000
0000
0000
0000
1000
0000
0000
0000
0000
0000
0000
0000
0000
0000
0000
0000
0002
0000
0000
0000
0000
0000
0000
0000
0000
0000
0000
0000
0000
0000
0000
0000
0000
0000
,
0003
0010
0100
0010
0100
1000
0010
0100
0001
0010
0100
0010
0100
1000
0010
0100
,
0001
0020
0000
0000
0000
0030
0000
0000
0010
1000
0010
1000
0010
0000
0100
0001
,
0100
0001
0100
0000
0010
1000
0010
1000
0010
0000
0100
0001
0100
0001
0100
0010
,
1000
0100
1000
0100
1000
0000
0010
0000
0200
0000
0000
0000
0002
0303
0000
0000
,
2000
0000
0000
0000
0020
3030
0000
0000
2002
0000
0000
0000
0000
0000
0000
0000
,
0000
0000
0000
0000
,
0000
0020
0000
0000
0000
0000
0000
0000
,
0000
0000
0000
0000
,
3033
0000
0000
0000
;

//---------------dance-single - Difficult----------------
#NOTES:
     dance-single:
     Difficult:
     Hard:
     8:
     0.935,1.000,1.000,0.601,0.601:
0000
0000
0000
0000
,
0000
0000
0000
0000
0000
0000
0000
0000
0000
0000
0000
0000
0000
0000
0000
0000
0000
0000
0000
0000
0000
0000
2000
0000
0000
0000
0000
0000
0000
0000
0000
3002
,
0000
0023
0230
0320
,
0032
0000
0000
0000
0000
0003
M000
M000
,
0M00
0M00
0000
0000
0000
0000
0000
0000
,
0000
0000
0000
0000
,
0000
0000
0000
0000
,
0000
0000
0000
0020
,
0230
0302
2003
3002
,
2003
3020
0230
0000
,
0000
0000
0000
0000
0000
0000
0000
0000
0000
0000
0000
0000
0000
0000
0300
0001
,
0100
0000
0010
2000
0000
0000
0000
0000
0000
0000
0000
0000
0000
0000
0000
0000
,
0000
0000
3000
0000
,
0000
0000
0000
0000
,
0000
0000
0000
0000
0000
0000
0100
1000
,
0200
0320
0032
0203
,
0320
0000
2030
0000
3002
0003
0220
0000
,
0000
0000
0000
0330
,
1000
0100
0010
0100
1000
0000
0001
0100
,
0010
0100
0001
0000
0000
2000
0000
3020
,
0000
1030
0100
0001
0100
1000
0010
0100
,
0001
0010
0002
0000
0000
0000
0003
0000
,
0001
0010
0100
0010
0001
0000
1000
0010
,
0100
0010
1000
0000
0000
0002
0000
0203
,
0000
0310
1000
0100
0010
0100
1000
0010
,
0100
0010
1000
0100
0020
0000
0030
0000
,
0001
0100
1000
0100
0001
0010
0100
0000
,
1000
0100
0001
0100
1000
0100
0010
0000
,
0001
0100
0010
1000
0001
0010
0100
1000
,
0001
0100
0010
0000
1010
0000
0000
0000
,
0001
0100
1000
0100
0001
0010
0100
0000
,
1000
0100
0001
0100
1000
0100
0010
0000
,
0001
0100
0010
1000
0001
0010
0100
1000
,
0001
0100
0010
0000
1010
0000
0000
0000
,
1000
0100
0100
0010
0001
0000
1000
0010
,
0010
0100
0001
0000
0000
0200
0000
0320
,
0000
1030
0100
1000
0100
0010
0100
1000
,
0001
0100
0010
0000
0000
0000
0000
0000
,
0001
0010
0010
0100
1000
0000
0001
0100
,
0100
0010
1000
0000
0000
0001
0010
0001
,
2000
3200
0320
0032
,
2000
0000
0000
0003
0020
0000
3030
0000
,
1000
0010
0100
0001
0200
0302
0203
0300
,
0001
0010
0200
2300
3200
0300
0000
0000
,
1000
0100
1000
0100
0010
0001
0010
0001
,
1000
0100
0001
0100
1000
0000
0000
0000
,
1000
0000
0100
0100
0000
0010
0010
0000
,
0001
0000
0010
0010
0000
0100
0100
0000
,
1000
0001
0100
0010
1000
0001
0100
0010
,
1000
0100
0001
0100
1000
0000
0000
0000
,
2002
0000
0000
0000
,
3003
0000
M00M
0000
,
1001
0000
0000
0000
,
0000
0000
M00M
0000
,
1001
0000
0000
0000
,
0000
0000
M00M
0000
,
1001
0000
0000
0000
,
0000
0000
M00M
0000
,
1001
0000
0000
0000
,
0000
0000
M00M
0000
,
1001
0000
0000
0000
,
0000
0000
M00M
0000
,
1001
0000
0000
0000
,
0000
0000
M00M
0000
,
2002
0000
0000
0000
,
0000
0000
0000
0000
,
0000
0000
0000
0000
,
0000
0000
3003
M00M
,
0000
1001
0000
0000
,
0000
0000
0000
M00M
,
0000
1001
0000
0000
,
0000
0000
0000
M00M
,
0000
1001
0000
0000
,
0000
0000
0000
M00M
,
0000
1001
0000
0000
,
0000
0000
0000
M00M
,
0000
1001
0000
0000
,
0000
0000
0000
M00M
,
0000
1001
0000
0000
,
0000
0000
0000
M00M
,
0000
2002
0000
0000
,
0000
0000
0000
0000
,
0000
0000
0000
0000
,
0000
0000
0000
3003
,
M00M
0000
1001
0000
,
0000
0000
0000
0000
,
M00M
0000
1001
0000
,
0000
0000
0000
0000
,
M00M
0000
1001
0000
,
0000
0000
0000
0000
,
M00M
0000
1001
0000
,
0000
0000
0000
0000
,
M00M
0000
1001
0000
,
0000
0000
0000
0000
,
M00M
0000
1001
0000
,
0000
0000
0000
0000
,
M00M
0000
2002
0000
,
0000
0000
0000
0000
,
0000
0000
0000
0000
,
3003
0000
1000
0100
0010
0100
0010
0001
,
0010
0000
0001
1000
0010
0100
0001
0100
,
0010
0000
0100
0010
1000
0100
1000
0100
,
0010
0001
0010
0001
1000
0100
1000
0001
,
0100
0000
0001
1000
0010
0100
0001
1000
,
0001
0000
1000
0100
1000
0010
0100
0001
,
0100
0000
0001
1000
0010
0100
0001
1000
,
0010
0000
0100
0000
0010
0000
0100
0000
0001
0000
1000
0000
0001
1000
0001
1000
,
0001
0000
0000
0000
2002
0000
0000
0000
3003
0000
0000
M00M
1001
0000
0000
M00M
,
1001
0000
0000
M00M
1001
0000
0000
M00M
1001
0000
0000
M00M
1001
0000
0000
M00M
,
1001
0000
0000
M00M
1001
0000
0000
M00M
1001
0000
0000
M00M
1001
0000
0000
M00M
,
1001
0000
0000
M00M
1001
0000
0000
M00M
1001
0000
0000
M00M
1001
0000
0000
M00M
,
1001
0000
0000
M00M
1001
0000
0000
M00M
1001
0000
0000
M00M
1001
0000
0000
M00M
,
1001
0000
0000
M00M
1001
0000
0000
M00M
1001
0000
0000
M00M
1001
0000
0000
M00M
,
1001
0000
0000
M00M
1001
0000
0000
M00M
1001
0000
0000
M00M
1001
0000
0000
M00M
,
1001
0000
0000
M00M
1001
0000
0000
M00M
1001
0000
0000
M00M
1001
0000
0000
M00M
,
1001
0000
0000
M00M
1001
0000
0000
M00M
1001
0000
0000
M00M
1001
0000
0000
M00M
,
1001
0000
0000
M00M
1001
0000
0000
M00M
1001
0000
0000
M00M
1001
0000
0000
M00M
,
1001
0000
0000
M00M
1001
0000
0000
M00M
1001
0000
0000
M00M
1001
0000
0000
M00M
,
1001
0000
0000
M00M
1001
0000
0000
M00M
1001
0000
0000
M00M
1001
0000
0000
M00M
,
1001
0000
0000
M00M
1001
0000
0000
M00M
1001
0000
0000
M00M
1001
0000
0000
M00M
,
1001
0000
0000
M00M
1001
0000
0000
M00M
1001
0000
0000
M00M
1001
0000
0000
M00M
,
1001
0000
0000
M00M
1001
0000
0000
M00M
1001
0000
0000
M00M
1001
0000
0000
M00M
,
1001
0000
0000
M00M
1001
0000
0000
M00M
1001
0000
0000
M00M
1001
0000
0000
M00M
,
1001
0000
0000
M00M
1001
0000
0000
M00M
1001
0000
0000
M00M
1001
0000
0000
M00M
,
1001
0000
0000
M00M
1001
0000
0000
M00M
1001
0000
0000
M00M
1001
0000
0000
M00M
,
1001
0000
0000
M00M
1001
0000
0000
M00M
1001
0000
0000
M00M
1001
0000
0000
M00M
,
1001
0000
0000
M00M
1001
0000
0000
M00M
1001
0000
0000
M00M
1001
0000
0000
M00M
,
1001
0000
0000
M00M
1001
0000
0000
M00M
1001
0000
0000
M00M
1001
0000
0000
M00M
,
1001
0000
0000
M00M
1001
0000
0000
M00M
1001
0000
0000
M00M
1001
0000
0000
M00M
,
1001
0000
0000
M00M
1001
0000
0000
M00M
1001
0000
0000
M00M
1001
0000
0000
M00M
,
1001
0000
0000
M00M
1001
0000
0000
M00M
1001
0000
0000
M00M
1001
0000
0000
M00M
,
1001
0000
0000
M00M
1001
0000
0000
M00M
1001
0000
0000
M00M
1001
0000
0000
M00M
,
1001
0000
0000
M00M
1001
0000
0000
M00M
1001
0000
0000
M00M
1001
0000
0000
M00M
,
1001
0000
0000
M00M
1001
0000
0000
M00M
1001
0000
0000
M00M
1001
0000
0000
M00M
,
1001
0000
0000
M00M
1001
0000
0000
M00M
1001
0000
0000
M00M
1001
0000
0000
M00M
,
1001
0000
0000
M00M
1001
0000
0000
M00M
1001
0000
0000
M00M
1001
0000
0000
M00M
,
1001
0000
0000
M00M
1001
0000
0000
M00M
1001
0000
0000
M00M
1001
0000
0000
M00M
,
1001
0000
0000
M00M
1001
0000
0000
M00M
1001
0000
0000
M00M
1001
0000
0000
M00M
,
1001
0000
0000
M00M
1001
0000
0000
M00M
1001
0000
0000
M00M
1001
0000
0000
M00M
,
1001
0000
0000
0000
,
0000
0000
0000
0000
,
0000
0001
1000
0010
0100
0001
0100
0010
,
0100
0001
1000
0010
0100
0010
2000
0000
,
0001
0000
3001
0000
1000
0100
0001
0100
,
1000
0000
0001
0010
1000
0010
0001
0000
,
0000
1000
1000
0010
0020
0000
0130
0010
,
0020
0000
0130
0010
0010
0100
0100
0000
,
0000
0000
0000
0000
2000
0000
0000
3020
,
0000
0000
0000
0030
0100
0000
0001
0000
0010
0000
0100
0000
2000
0000
0000
0000
,
0000
0000
0000
3000
0100
0000
0010
0000
0001
0000
0000
0000
0100
0000
0010
0000
,
1000
0010
0100
0000
0001
0100
0010
0100
,
0002
0000
0003
0000
1000
0100
1000
0000
,
0001
0010
0001
0000
1000
0100
1000
0010
,
0100
0001
0010
0000
0200
0000
2300
0000
,
3002
0103
2002
0000
,
0000
0000
0000
0000
,
0000
0000
0000
0000
,
0000
0000
0000
0000
,
3003
0000
0000
0000
;

//---------------dance-single - Basic----------------
#NOTES:
     dance-single:
     Basic:
     Medium:
     5:
     0.711,1.000,1.000,0.492,0.583:
0000
0000
0000
0000
,
0000
0000
0000
0000
,
0000
0000
0000
0000
,
0000
0000
0000
0000
,
0000
0000
0000
0000
,
0000
0000
0000
0000
,
0000
0000
0000
0000
,
0000
0000
0000
0000
,
0000
0000
0000
0000
,
0000
0000
0000
0000
,
0000
0000
0000
0000
,
0000
0000
0000
0000
,
0000
0000
0000
0000
,
0000
0000
0000
0000
,
0000
0000
0000
2000
,
3200
0320
0032
0203
,
0320
0000
2030
0000
3002
0003
0000
0220
,
0000
0000
0000
0330
,
1000
0010
1000
0001
,
0010
0000
0001
0000
0000
2000
0000
3020
,
0000
1030
0100
0000
0010
0000
0001
0000
,
0010
0200
0000
0300
,
0001
0100
0001
1000
,
0100
0000
1000
0000
0000
0002
0000
0203
,
0000
0310
1000
0000
0100
0000
1000
0000
,
0010
1000
1001
0000
,
0001
1000
0001
0100
,
0001
0010
0001
0100
,
0001
1000
0001
0100
,
0010
1000
1010
0000
,
1000
0001
1000
0010
,
1000
0100
1000
0010
,
1000
0001
1000
0010
,
1000
0010
1010
0000
,
1000
0100
0001
0100
,
1000
0000
0001
0000
0000
0200
0000
0320
,
0000
1030
0100
0000
0010
0000
0100
0000
,
1000
0010
0100
0000
,
0001
0100
1000
0100
,
0001
1000
0000
0010
,
1000
0100
0010
0001
,
2000
0000
0020
3030
,
1000
0100
1000
0100
,
0010
0001
0010
0000
,
0001
0100
0010
1000
,
0010
0100
0001
0000
,
1000
0000
0100
0000
,
0010
0000
0001
0000
,
1000
0100
0010
0001
,
0010
0100
1000
0000
,
2002
0000
0000
0000
,
3003
0000
M00M
0000
,
1001
0000
0000
0000
,
0000
0000
M00M
0000
,
1001
0000
0000
0000
,
0000
0000
M00M
0000
,
1001
0000
0000
0000
,
0000
0000
M00M
0000
,
1001
0000
0000
0000
,
0000
0000
M00M
0000
,
1001
0000
0000
0000
,
0000
0000
M00M
0000
,
1001
0000
0000
0000
,
0000
0000
M00M
0000
,
2002
0000
0000
0000
,
0000
0000
0000
0000
,
0000
0000
0000
0000
,
0000
0000
3003
M00M
,
0000
1001
0000
0000
,
0000
0000
0000
M00M
,
0000
1001
0000
0000
,
0000
0000
0000
M00M
,
0000
1001
0000
0000
,
0000
0000
0000
M00M
,
0000
1001
0000
0000
,
0000
0000
0000
M00M
,
0000
1001
0000
0000
,
0000
0000
0000
M00M
,
0000
1001
0000
0000
,
0000
0000
0000
M00M
,
0000
2002
0000
0000
,
0000
0000
0000
0000
,
0000
0000
0000
0000
,
0000
0000
0000
3003
,
M00M
0000
1001
0000
,
0000
0000
0000
0000
,
M00M
0000
1001
0000
,
0000
0000
0000
0000
,
M00M
0000
1001
0000
,
0000
0000
0000
0000
,
M00M
0000
1001
0000
,
0000
0000
0000
0000
,
M00M
0000
1001
0000
,
0000
0000
0000
0000
,
M00M
0000
1001
0000
,
0000
0000
0000
0000
,
M00M
0000
2002
0000
,
0000
0000
0000
0000
,
0000
0000
0000
0000
,
3003
2000
3000
0002
,
0003
0200
0300
0020
,
0030
2000
3000
0002
,
0003
0200
0300
0020
,
0030
2000
3000
0002
,
0003
0200
0300
0020
,
0030
0200
0300
0020
,
0030
0000
0000
0000
0200
0000
0000
0000
0300
0000
0000
0000
0001
1000
0001
1000
,
0001
0000
0000
0000
2002
0000
0000
0000
3003
0000
0000
M00M
1001
0000
0000
M00M
,
1001
0000
0000
M00M
1001
0000
0000
M00M
1001
0000
0000
M00M
1001
0000
0000
M00M
,
1001
0000
0000
M00M
1001
0000
0000
M00M
1001
0000
0000
M00M
1001
0000
0000
M00M
,
1001
0000
0000
M00M
1001
0000
0000
M00M
1001
0000
0000
M00M
1001
0000
0000
M00M
,
1001
0000
0000
M00M
1001
0000
0000
M00M
1001
0000
0000
M00M
1001
0000
0000
M00M
,
1001
0000
0000
M00M
1001
0000
0000
M00M
1001
0000
0000
M00M
1001
0000
0000
M00M
,
1001
0000
0000
M00M
1001
0000
0000
M00M
1001
0000
0000
M00M
1001
0000
0000
M00M
,
1001
0000
0000
M00M
1001
0000
0000
M00M
1001
0000
0000
M00M
1001
0000
0000
M00M
,
1001
0000
0000
M00M
1001
0000
0000
M00M
1001
0000
0000
M00M
1001
0000
0000
M00M
,
1001
0000
0000
M00M
1001
0000
0000
M00M
1001
0000
0000
M00M
1001
0000
0000
M00M
,
1001
0000
0000
M00M
1001
0000
0000
M00M
1001
0000
0000
M00M
1001
0000
0000
M00M
,
1001
0000
0000
M00M
1001
0000
0000
M00M
1001
0000
0000
M00M
1001
0000
0000
M00M
,
1001
0000
0000
M00M
1001
0000
0000
M00M
1001
0000
0000
M00M
1001
0000
0000
M00M
,
1001
0000
0000
M00M
1001
0000
0000
M00M
1001
0000
0000
M00M
1001
0000
0000
M00M
,
1001
0000
0000
M00M
1001
0000
0000
M00M
1001
0000
0000
M00M
1001
0000
0000
M00M
,
1001
0000
0000
M00M
1001
0000
0000
M00M
1001
0000
0000
M00M
1001
0000
0000
M00M
,
1001
0000
0000
M00M
1001
0000
0000
M00M
1001
0000
0000
M00M
1001
0000
0000
M00M
,
1001
0000
0000
M00M
1001
0000
0000
M00M
1001
0000
0000
M00M
1001
0000
0000
M00M
,
1001
0000
0000
M00M
1001
0000
0000
M00M
1001
0000
0000
M00M
1001
0000
0000
M00M
,
1001
0000
0000
M00M
1001
0000
0000
M00M
1001
0000
0000
M00M
1001
0000
0000
M00M
,
1001
0000
0000
M00M
1001
0000
0000
M00M
1001
0000
0000
M00M
1001
0000
0000
M00M
,
1001
0000
0000
M00M
1001
0000
0000
M00M
1001
0000
0000
M00M
1001
0000
0000
M00M
,
1001
0000
0000
M00M
1001
0000
0000
M00M
1001
0000
0000
M00M
1001
0000
0000
M00M
,
1001
0000
0000
M00M
1001
0000
0000
M00M
1001
0000
0000
M00M
1001
0000
0000
M00M
,
1001
0000
0000
M00M
1001
0000
0000
M00M
1001
0000
0000
M00M
1001
0000
0000
M00M
,
1001
0000
0000
M00M
1001
0000
0000
M00M
1001
0000
0000
M00M
1001
0000
0000
M00M
,
1001
0000
0000
M00M
1001
0000
0000
M00M
1001
0000
0000
M00M
1001
0000
0000
M00M
,
1001
0000
0000
M00M
1001
0000
0000
M00M
1001
0000
0000
M00M
1001
0000
0000
M00M
,
1001
0000
0000
M00M
1001
0000
0000
M00M
1001
0000
0000
M00M
1001
0000
0000
M00M
,
1001
0000
0000
M00M
1001
0000
0000
M00M
1001
0000
0000
M00M
1001
0000
0000
M00M
,
1001
0000
0000
M00M
1001
0000
0000
M00M
1001
0000
0000
M00M
1001
0000
0000
M00M
,
1001
0000
0000
M00M
1001
0000
0000
M00M
1001
0000
0000
M00M
1001
0000
0000
M00M
,
1001
0000
0000
0000
,
0000
0000
0000
0000
,
0000
0000
1000
0010
0100
0000
0001
0010
,
0100
1000
0100
2000
,
0001
3001
1000
0100
,
1000
0001
0100
0001
,
0000
1000
0020
0130
,
0020
0130
0020
0130
,
0000
0000
0000
0000
2000
0000
0000
3020
,
0000
0000
0000
0030
0100
0000
0000
0000
0010
0000
0000
0000
2000
0000
0000
0000
,
0000
0000
0000
3000
0100
0000
0000
0000
0001
0000
0000
0000
0100
0000
0000
0000
,
1000
0100
0001
0100
,
2000
3000
0001
0001
,
1000
1000
0010
0010
,
0100
0100
0010
1000
,
0001
0000
2002
0000
,
0000
0000
0000
0000
,
0000
0000
0000
0000
,
0000
0000
0000
0000
,
3003
0000
0000
0000
;

//---------------dance-single - Beginner----------------
#NOTES:
     dance-single:
     Beginner:
     Easy:
     1:
     0.610,1.000,1.000,0.410,0.583:
0000
0000
0000
0000
,
0000
0000
0000
0000
,
0000
0000
0000
0000
,
0000
0000
0000
0000
,
0000
0000
0000
0000
,
0000
0000
0000
0000
,
0000
0000
0000
0000
,
0000
0000
0000
0000
,
0000
0000
0000
0000
,
0000
0000
0000
0000
,
0000
0000
0000
0000
,
0000
0000
0000
0000
,
0000
0000
0000
0000
,
0000
0000
0000
0000
,
0000
0000
0000
2000
,
3200
0320
0032
0203
,
0320
0000
2030
0000
3002
0003
0000
0220
,
0000
0000
0000
0330
,
1000
0000
1000
0000
,
0001
0000
0001
0000
,
0100
0000
0100
0000
,
0010
0000
0010
0000
,
1000
0000
1000
0000
,
0001
0000
0001
0000
,
0100
0000
0000
0000
,
0000
0000
0000
0000
,
0001
0000
0100
0000
,
1000
0000
0000
0000
,
0001
0000
0010
0000
,
1000
0000
0000
0000
,
1000
0000
1000
0000
,
1000
0000
1000
0000
,
0001
0000
0001
0000
,
0001
0000
0001
0000
,
1000
0000
0000
0000
,
0001
0000
0000
0000
,
1000
0000
1000
0000
,
0001
0000
0000
0000
,
1000
0000
0000
0000
,
0001
0000
0000
0000
,
1000
0000
1000
0000
,
0001
0000
0001
0000
,
1000
0000
0100
0000
,
1000
0000
0100
0000
,
0010
0000
0001
0000
,
0010
0000
0001
0000
,
1000
0000
0100
0000
,
0010
0000
0001
0000
,
1000
0100
0010
0001
,
0010
0100
1000
0000
,
2002
0000
0000
0000
,
3003
0000
M00M
0000
,
1001
0000
0000
0000
,
0000
0000
M00M
0000
,
1001
0000
0000
0000
,
0000
0000
M00M
0000
,
1001
0000
0000
0000
,
0000
0000
M00M
0000
,
1001
0000
0000
0000
,
0000
0000
M00M
0000
,
1001
0000
0000
0000
,
0000
0000
M00M
0000
,
1001
0000
0000
0000
,
0000
0000
M00M
0000
,
2002
0000
0000
0000
,
0000
0000
0000
0000
,
0000
0000
0000
0000
,
0000
0000
3003
M00M
,
0000
1001
0000
0000
,
0000
0000
0000
M00M
,
0000
1001
0000
0000
,
0000
0000
0000
M00M
,
0000
1001
0000
0000
,
0000
0000
0000
M00M
,
0000
1001
0000
0000
,
0000
0000
0000
M00M
,
0000
1001
0000
0000
,
0000
0000
0000
M00M
,
0000
1001
0000
0000
,
0000
0000
0000
M00M
,
0000
2002
0000
0000
,
0000
0000
0000
0000
,
0000
0000
0000
0000
,
0000
0000
0000
3003
,
M00M
0000
1001
0000
,
0000
0000
0000
0000
,
M00M
0000
1001
0000
,
0000
0000
0000
0000
,
M00M
0000
1001
0000
,
0000
0000
0000
0000
,
M00M
0000
1001
0000
,
0000
0000
0000
0000
,
M00M
0000
1001
0000
,
0000
0000
0000
0000
,
M00M
0000
1001
0000
,
0000
0000
0000
0000
,
M00M
0000
2002
0000
,
0000
0000
0000
0000
,
0000
0000
0000
0000
,
3003
2000
3000
0002
,
0003
0200
0300
0020
,
0030
2000
3000
0002
,
0003
0200
0300
0020
,
0030
2000
3000
0002
,
0003
0200
0300
0020
,
0030
0200
0300
0020
,
0030
0000
0000
0000
0200
0000
0000
0000
0300
0000
0000
0000
0001
1000
0001
1000
,
0001
0000
0000
0000
2002
0000
0000
0000
3003
0000
0000
M00M
1001
0000
0000
M00M
,
1001
0000
0000
M00M
1001
0000
0000
M00M
1001
0000
0000
M00M
1001
0000
0000
M00M
,
1001
0000
0000
M00M
1001
0000
0000
M00M
1001
0000
0000
M00M
1001
0000
0000
M00M
,
1001
0000
0000
M00M
1001
0000
0000
M00M
1001
0000
0000
M00M
1001
0000
0000
M00M
,
1001
0000
0000
M00M
1001
0000
0000
M00M
1001
0000
0000
M00M
1001
0000
0000
M00M
,
1001
0000
0000
M00M
1001
0000
0000
M00M
1001
0000
0000
M00M
1001
0000
0000
M00M
,
1001
0000
0000
M00M
1001
0000
0000
M00M
1001
0000
0000
M00M
1001
0000
0000
M00M
,
1001
0000
0000
M00M
1001
0000
0000
M00M
1001
0000
0000
M00M
1001
0000
0000
M00M
,
1001
0000
0000
M00M
1001
0000
0000
M00M
1001
0000
0000
M00M
1001
0000
0000
M00M
,
1001
0000
0000
M00M
1001
0000
0000
M00M
1001
0000
0000
M00M
1001
0000
0000
M00M
,
1001
0000
0000
M00M
1001
0000
0000
M00M
1001
0000
0000
M00M
1001
0000
0000
M00M
,
1001
0000
0000
M00M
1001
0000
0000
M00M
1001
0000
0000
M00M
1001
0000
0000
M00M
,
1001
0000
0000
M00M
1001
0000
0000
M00M
1001
0000
0000
M00M
1001
0000
0000
M00M
,
1001
0000
0000
M00M
1001
0000
0000
M00M
1001
0000
0000
M00M
1001
0000
0000
M00M
,
1001
0000
0000
M00M
1001
0000
0000
M00M
1001
0000
0000
M00M
1001
0000
0000
M00M
,
1001
0000
0000
M00M
1001
0000
0000
M00M
1001
0000
0000
M00M
1001
0000
0000
M00M
,
1001
0000
0000
M00M
1001
0000
0000
M00M
1001
0000
0000
M00M
1001
0000
0000
M00M
,
1001
0000
0000
M00M
1001
0000
0000
M00M
1001
0000
0000
M00M
1001
0000
0000
M00M
,
1001
0000
0000
M00M
1001
0000
0000
M00M
1001
0000
0000
M00M
1001
0000
0000
M00M
,
1001
0000
0000
M00M
1001
0000
0000
M00M
1001
0000
0000
M00M
1001
0000
0000
M00M
,
1001
0000
0000
M00M
1001
0000
0000
M00M
1001
0000
0000
M00M
1001
0000
0000
M00M
,
1001
0000
0000
M00M
1001
0000
0000
M00M
1001
0000
0000
M00M
1001
0000
0000
M00M
,
1001
0000
0000
M00M
1001
0000
0000
M00M
1001
0000
0000
M00M
1001
0000
0000
M00M
,
1001
0000
0000
M00M
1001
0000
0000
M00M
1001
0000
0000
M00M
1001
0000
0000
M00M
,
1001
0000
0000
M00M
1001
0000
0000
M00M
1001
0000
0000
M00M
1001
0000
0000
M00M
,
1001
0000
0000
M00M
1001
0000
0000
M00M
1001
0000
0000
M00M
1001
0000
0000
M00M
,
1001
0000
0000
M00M
1001
0000
0000
M00M
1001
0000
0000
M00M
1001
0000
0000
M00M
,
1001
0000
0000
M00M
1001
0000
0000
M00M
1001
0000
0000
M00M
1001
0000
0000
M00M
,
1001
0000
0000
M00M
1001
0000
0000
M00M
1001
0000
0000
M00M
1001
0000
0000
M00M
,
1001
0000
0000
M00M
1001
0000
0000
M00M
1001
0000
0000
M00M
1001
0000
0000
M00M
,
1001
0000
0000
M00M
1001
0000
0000
M00M
1001
0000
0000
M00M
1001
0000
0000
M00M
,
1001
0000
0000
M00M
1001
0000
0000
M00M
1001
0000
0000
M00M
1001
0000
0000
M00M
,
1001
0000
0000
0000
,
0000
0000
0000
0000
,
0000
1000
0001
0000
,
1000
0000
0001
2000
,
0000
3000
1000
0100
,
1000
0001
0100
0001
,
0000
1000
0020
0130
,
0020
0130
0020
0130
,
0000
0000
0000
0000
2000
0000
0000
3020
,
0000
0000
0000
0030
0000
0000
0000
0000
0010
0000
0000
0000
2000
0000
0000
0000
,
0000
0000
0000
3000
0000
0000
0000
0000
0001
0000
0000
0000
0000
0000
0000
0000
,
1000
0000
0001
0000
,
2000
3000
0001
0001
,
1000
1000
0010
0010
,
0100
0100
0010
1000
,
0001
0000
2002
0000
,
0000
0000
0000
0000
,
0000
0000
0000
0000
,
0000
0000
0000
0000
,
3003
0000
0000
0000
;
