#TITLE:Remain;
#SUBTITLE:;
#ARTIST:ZERO+ZIBA;
#TITLETRANSLIT:;
#SUBTITLETRANSLIT:;
#ARTISTTRANSLIT:;
#GENRE:;
#CREDIT:;
#BANNER:remain-bn.png;
#BACKGROUND:remain-bg.png;
#LYRICSPATH:;
#CDTITLE:;
#MUSIC:Remain.ogg;
#OFFSET:-0.405;
#SAMPLESTART:32.398;
#SAMPLELENGTH:12.000;
#SELECTABLE:YES;
#BPMS:0.000=150.000,80.000=75.000,81.000=225.000,84.000=150.000,86.000=75.000,87.000=56.250,87.500=112.500,88.000=56.250,88.500=112.500,89.000=75.000,91.000=300.000,95.000=150.000,99.000=75.000,100.000=50.000,102.000=56.250,102.500=112.500,103.000=75.000,104.000=150.000,106.000=75.000,107.000=150.000,119.000=75.000,120.000=150.000,122.000=75.000,123.000=37.500,125.000=75.000,141.000=150.000,169.000=75.000,170.000=300.000,230.000=225.000,230.250=112.500,230.500=150.000,231.000=300.000,235.000=150.000,237.000=300.000,241.000=150.000,266.500=30.000,267.000=150.000;
#STOPS:170.000=0.067
,170.333=0.067
,170.667=0.067
,171.000=0.067
,171.333=0.067
,171.667=0.067
,200.000=0.150
,200.750=0.150
,201.500=0.100
,230.500=0.400
,267.000=0.033
,267.333=0.033
,267.667=0.033
,268.000=0.033
,268.333=0.033
,268.667=0.033
,269.000=0.033
,269.333=0.033
,269.667=0.033
,270.000=0.033
,270.333=0.033
,270.667=0.033
;
#BGCHANGES:;
#KEYSOUNDS:;

//---------------dance-single - TaroNuke----------------
#NOTES:
     dance-single:
     TaroNuke:
     Hard:
     10:
     0.539,0.636,0.110,0.229,0.288:
0000
0000
0000
0000
,
0000
0000
0000
0000
,
0000
0000
0000
0000
,
0000
0000
0000
0000
,
1000
0100
0010
0001
0000
0000
0000
0000
,
1000
0010
0100
0001
0000
0000
0000
0000
,
1000
0001
0100
0010
0000
0000
0000
0000
,
1000
0001
0010
0100
0000
0000
0000
0000
,
1100
0000
1000
0000
0010
0000
0100
0010
0100
0000
0001
0000
1000
0010
1000
0000
,
0001
0000
0100
0000
0010
0000
1000
0100
1000
0000
0001
0000
0100
0010
0100
0000
,
0001
0000
0100
0000
1000
0000
0100
0001
0010
0000
0100
0000
1000
0010
1000
0000
,
0001
0000
0010
0000
1000
0000
0010
0001
0100
0000
0010
0000
1000
0001
1000
0000
,
0100
0010
0001
0100
0010
0100
0001
1000
,
0001
0010
0100
1000
0010
0100
0010
1000
,
0010
0100
0010
0100
0010
0100
0010
0100
0010
0100
0010
0100
0010
0100
0010
0100
,
0020
0000
0000
0000
,
1030
0100
0001
0100
,
0010
1000
0001
0100
,
1000
0010
0001
1000
,
0100
0000
0010
0000
0001
0000
0010
0010
,
2000
3020
0000
0000
,
0130
0000
0100
0000
0100
0000
0100
0000
0100
0000
0100
0000
0010
0000
0010
0000
0010
0000
2002
0000
0000
3003
0000
0000
,
0220
0000
0330
0000
1000
0000
1000
0000
1000
0100
0010
0001
0200
0000
0000
0000
,
0000
0000
0000
0320
,
2030
0000
0000
0000
0000
0000
3001
0000
0000
0001
0000
0000
0001
0000
0000
0001
0000
0000
1000
0000
0100
0000
0001
0000
,
2000
0000
0000
0000
0000
0000
0000
0000
0000
0000
0000
0000
0000
0000
0000
0000
0000
0000
0000
0000
0000
0000
0000
0000
0000
0000
0000
0000
0000
0000
0000
0020
3000
0000
0000
0000
0000
0000
0000
0000
0000
0000
0000
0000
0000
0000
0000
0000
0000
0000
0000
0000
0000
0000
0000
0000
0000
0000
0000
0000
0000
0000
0000
0002
0030
0000
0000
0000
0000
0000
0000
0000
0000
0000
0000
0000
0000
0000
0000
0000
0000
0000
0000
0000
0000
0000
0000
0000
0000
0000
0000
0000
0000
0000
0000
0000
2003
0000
0000
0000
0000
0000
0000
0000
0000
0000
0000
0000
0000
0000
0000
0000
0000
0000
0000
0000
0000
0000
0000
0000
3000
0000
0000
0000
0000
0000
0000
0000
0000
0000
0000
0000
0000
0000
0000
0000
0000
0000
0000
0000
0000
0000
0000
0000
0100
0000
0000
0000
0000
0000
0000
0000
0000
0000
0000
0000
0100
0000
0000
0000
0000
0000
0000
0000
0000
0000
0000
0000
0100
0000
0000
0000
0000
0000
0000
0000
0000
0000
0000
0000
0100
0000
0000
0000
0000
0000
0000
0000
0000
0000
0000
0000
,
0020
0000
0000
0000
0000
0000
0000
0000
0000
0000
0000
0000
0000
0000
0000
0000
0000
0000
0000
0000
0000
0000
0000
0000
0130
0000
0100
0000
0100
0000
0100
0000
0000
0100
0000
0000
2000
0000
0000
0000
0000
0000
0000
0000
0000
0000
0000
0000
,
0000
0000
0000
3001
0100
0010
0100
0001
1000
0100
0000
0010
,
0000
0000
0001
0000
0000
0000
1000
0000
0000
1000
0000
0000
1000
0000
0000
1000
0000
0000
2000
0000
0000
0000
0000
0000
,
0000
3020
0000
0230
,
0320
0000
0230
M3MM
,
0000
0001
0100
1000
,
0001
0001
1000
0100
,
0001
1001
0110
0011
,
1100
0101
0000
0000
,
0000
0000
1000
0100
1000
0000
0001
0100
,
0001
0000
0000
1000
0100
0000
1000
0000
0100
0000
0000
0010
0001
0000
0010
0000
,
0001
0000
0000
1000
0100
0000
0010
0000
0001
0000
1000
0010
1000
0000
0001
0000
,
0100
0000
0000
0010
1000
0000
0001
0000
1000
0000
0001
1000
0010
0000
0100
0000
,
0010
1000
0001
0100
1000
0100
0001
0000
,
0110
0000
1000
0100
0001
0100
1000
0000
,
0110
0000
0000
0001
0010
0100
1000
0010
0100
0001
0010
0100
,
1000
0100
0010
0002
0000
0000
0103
0100
0100
0100
0100
0100
,
0001
0000
0100
0000
0001
0100
0001
0100
,
0010
0000
1000
0000
0010
1000
0010
1000
,
0100
0000
0010
0000
0001
0100
0010
0100
,
0001
0000
1000
0000
0100
0010
0100
0010
,
0100
0000
1000
0000
0001
0100
0001
0000
,
1000
0000
0010
0000
0100
0001
0100
0000
,
0001
1000
0010
0000
0100
0001
1000
0000
,
0110
0000
0000
0110
0000
0000
0110
0000
0001
0000
0100
0000
0001
0000
1000
0000
,
0010
0000
1000
0100
0010
0001
0100
0010
,
0100
0000
0001
1000
0010
1000
0100
1000
,
0010
0000
1000
0010
0100
0001
0010
0100
,
0010
0000
0001
1000
0100
1000
0010
1000
,
0001
0000
1000
0100
1000
0100
0010
0001
,
0010
0000
0000
0000
0000
0000
0001
0000
0000
0100
0000
0000
0010
0000
0000
0000
1000
0000
0000
0000
0001
0000
0000
0000
,
1000
0000
0000
0000
0001
0000
0000
0000
1000
0000
0000
0000
0020
0000
0000
0030
0000
0000
1000
0000
0000
0001
0000
0000
,
1000
0001
0100
0010
0100
0010
2000
0000
,
0000
0000
3001
1000
0001
1000
0100
0010
,
0100
0010
0002
0000
0000
0000
1003
0100
,
0001
0100
2000
0000
0000
0000
3001
0100
,
1000
0100
0010
0001
1000
0100
0001
0100
,
0010
0000
1000
0100
1000
0000
0100
0000
0010
0000
0001
0100
0001
0000
0100
0000
,
0010
0000
1000
0001
1000
0000
0100
0000
0010
0000
0001
0100
0010
0000
0100
0000
,
0001
0000
1000
0010
0100
0000
0010
0000
1000
0000
0100
0000
0010
0000
0001
0000
,
0100
0000
0001
0000
1000
0000
0000
0100
0000
0000
0010
0000
0002
0000
0000
0000
,
0000
0000
0000
0000
,
0000
0000
0000
0000
,
0000
0000
0000
0000
,
0000
0000
0000
0000
,
0000
0000
0003
0000
;

//---------------dance-single - TaroNuke----------------
#NOTES:
     dance-single:
     TaroNuke:
     Challenge:
     11:
     0.696,1.000,0.093,0.178,0.631:
0000
0000
0000
0000
,
0000
0000
0000
0000
,
0000
0000
0000
0000
,
0000
0000
0000
0000
,
1000
0001
0100
0001
0000
0000
0000
0000
,
1000
0001
0010
0001
0000
0000
0000
0000
,
1000
0100
0001
0100
0000
0000
0000
0000
,
1000
0010
0001
0010
0000
0000
0000
0000
,
1100
0000
1000
0000
0010
0000
0100
0010
0100
0000
0001
0000
1000
0010
1000
0010
,
0100
0000
0100
0000
0010
0000
1000
0100
1000
0000
0001
0000
0100
0010
0100
0010
,
1000
0000
1000
0000
0010
0000
0100
0001
0010
0000
0100
0000
1000
0010
1000
0010
,
0100
0000
0100
0000
0001
0000
0010
0001
0100
0000
0010
0000
1000
0001
1000
0001
,
0100
0100
0001
0100
0010
0100
0001
1000
,
0001
0010
0100
1000
0010
0100
0010
1000
,
0010
0100
0001
1000
0010
1000
0001
0100
0010
0100
0001
1000
0010
1000
0001
0100
,
0040
0000
0000
0000
,
1030
0100
0001
0100
,
0010
1000
0001
0100
,
1000
0010
0001
1000
,
0100
0000
0010
0000
0001
0000
0010
0010
,
2000
3040
0000
0000
,
0130
0000
0000
0000
0100
0000
0000
0000
0100
0000
0000
0000
0100
0000
0000
0000
0100
0000
0000
0000
0100
0000
0000
0000
0101
0000
0000
0000
1010
0000
0000
0000
0101
0000
0000
0000
2002
0000
0000
0000
0000
0000
3003
0000
0000
M00M
0000
0000
,
0220
0000
0000
0000
0000
0000
0330
0000
0000
0MM0
0000
0000
1000
0000
0000
0000
0000
0000
1000
0000
0000
0000
0000
0000
1000
0000
0000
0100
0000
0000
0010
0000
0000
0001
0000
0000
0100
0000
0000
0000
0010
0000
0000
0000
0100
0000
0000
0000
,
0010
0100
0010
0100
0010
0100
0010
0100
0010
0200
0000
0000
,
0302
0000
0000
2003
0000
0000
3001
0000
0000
0001
0000
0000
0001
0000
0000
0001
0000
0000
1000
0000
0100
0000
0001
0000
,
0200
0000
0000
0000
0300
0000
0000
0000
1000
0010
1000
0010
0000
0000
0000
0000
0100
0001
0100
0001
0100
0000
0010
0000
2000
0000
0000
0000
0000
0000
3000
0000
0000
0000
0000
0000
0100
0000
0000
0100
0000
0000
0100
0000
0000
0100
0000
0000
,
0020
0000
0000
0000
0000
0000
0000
0000
0000
0000
0000
0000
0000
0000
0000
0000
0000
0000
0000
0000
0000
0000
0000
0000
0130
0000
0100
0000
0100
0000
0100
0000
0000
0100
0000
0000
2000
0000
0000
0000
0000
0000
0000
0000
0000
0000
0000
0000
,
0000
0000
0000
0000
3001
0100
0010
1000
0100
0010
0001
0100
0010
1000
0100
0010
,
0001
0010
0100
1000
0001
0000
0001
0000
1000
0000
0010
0000
0200
0000
0000
0000
,
0000
0000
0000
0000
0310
0100
0001
0100
0010
0100
0001
0010
0200
0000
0000
0000
,
0310
0001
1000
0010
0100
0010
1000
0001
M2M0
0000
0300
0000
M2MM
0000
0000
0000
,
0000
000M
0001
00MM
0010
M0M0
1000
M00M
,
0001
000M
0001
M00M
1000
M0M0
0010
00MM
,
0302
0000
0000
0003
0000
0000
1000
0100
0010
0001
0010
0100
1000
0010
0100
0001
0010
0100
1000
0100
0010
0100
0010
0001
,
1000
0010
0100
0010
0100
0001
1000
0100
1000
0010
0100
0010
1000
0001
1000
0001
0100
0001
0010
0001
1000
0010
1000
0001
,
0010
0100
1000
0010
0100
0001
1000
0000
0000
0100
0000
0000
1000
0000
0000
0000
0000
0000
0001
0000
0000
0100
0000
0000
,
0001
0000
0000
1000
0100
0000
1000
0000
0100
0000
0000
0010
0001
0000
0010
0000
,
0001
0000
0000
1000
0100
0000
0010
0000
0001
0000
1000
0010
1000
0000
0001
0000
,
0100
0000
0000
0010
1000
0000
0001
0000
1000
0000
0001
1000
0010
0000
0100
0000
,
0010
1000
0001
0100
1000
0100
0001
0010
,
0100
1000
0001
0010
1000
0010
0001
0100
,
0001
0000
0001
0000
1000
0100
1000
0100
0010
0001
0010
0001
1000
0010
1000
0010
,
0100
0000
0000
0001
0000
0000
1000
0000
0000
0001
0000
0000
0100
0000
0000
0000
0000
0000
0000
0000
0000
0000
0000
0000
0001
0000
0000
0000
0100
0000
0000
0000
1000
0000
0000
0000
0100
0000
0000
0000
0010
0000
0000
0000
1000
0000
0000
0000
,
0001
0100
0001
0100
0001
0100
0001
0100
,
0010
1000
0010
1000
0010
1000
0010
1000
,
0100
1000
0100
1000
0100
1000
0100
1000
,
0010
0100
0010
0100
0010
0100
0010
0100
,
0001
0010
0001
0010
0001
0010
0001
0010
,
0001
1000
0001
1000
0001
1000
0001
1000
,
0010
0100
0010
0100
0010
0100
0010
0000
,
0110
0000
0000
0110
0000
0000
0110
0000
0001
0000
0100
0000
0010
0000
1M00
0000
,
0010
0100
0010
0100
M001
0010
0100
10M0
,
0100
0010
0100
0010
M001
0010
0100
100M
,
0010
0100
0001
01M0
0001
0100
0010
100M
,
0100
0010
0001
0M10
0001
0010
0100
1000
,
0100
0010
0001
0100
0010
0100
0001
0010
,
0100
0000
0000
1000
0000
0000
0001
0000
0000
0100
0000
0000
0010
0000
0000
0000
1000
0000
0000
0000
0001
0000
0000
0000
,
1000
0000
0000
0000
0001
0000
0000
0000
0100
0000
0000
0000
0020
0000
0000
0030
0000
0000
1000
0000
0000
0001
0000
0000
,
1000
0001
0100
0010
0100
0010
2000
0000
,
0000
0000
3001
1000
0001
1000
0100
0010
,
0100
0010
0002
0000
0000
0000
1003
0100
,
0001
0000
0100
0000
2000
0000
0004
0003
0000
0000
0004
0003
3001
0000
0100
0000
,
0010
1000
0100
0010
0001
1000
0001
0100
,
0010
0100
0010
1000
0001
0000
0100
0000
0010
0100
0001
0100
0010
0000
1000
0000
,
0001
0010
0100
1000
0010
0100
0010
1000
0100
0010
0001
1000
0010
0100
M01M
0100
,
0010
0100
M01M
0100
0010
0100
M01M
0100
0010
0100
M01M
0100
0001
1000
0010
0100
,
0010
0000
0000
1000
0000
0000
0001
0000
0000
1000
0000
0000
01M0
0000
0000
0000
0000
0000
0000
0000
0000
M11M
0000
0000
0000
0000
0000
0000
0000
0000
0M11
0000
0000
0000
0000
0000
0MM4
0000
0000
0000
4000
0000
0000
0000
0000
0000
0000
0000
,
0000
0000
0000
0000
,
0000
0000
0000
3003
;

//---------------dance-single - TaroNuke----------------
#NOTES:
     dance-single:
     TaroNuke:
     Medium:
     7:
     0.386,0.485,0.110,0.398,0.013:
0000
0000
0000
0000
,
0000
0000
0000
0000
,
0000
0000
0000
0000
,
0000
0000
0000
0000
,
1000
0000
0000
0000
,
0001
0000
0000
0000
,
0100
0000
0000
0000
,
0010
0000
0000
0000
,
1100
0000
0101
0000
1100
0000
1000
0001
,
1000
0000
0101
0000
0011
0000
1000
0100
,
1000
0000
0101
0000
0110
0000
0100
0001
,
1000
1100
0101
1001
,
1000
0100
1000
0000
0010
0100
0010
0000
,
0100
0001
0100
0000
0010
1000
0010
0000
,
0100
0001
1000
0000
0100
1000
0001
0000
,
0010
0001
1000
0010
1000
0001
0010
0000
,
0200
2300
3020
0230
,
0302
0023
0032
0203
,
0320
2030
3200
0320
,
0032
0000
2003
0000
3002
0000
0103
0010
,
2000
3002
0000
0000
,
2003
0000
0000
0000
3040
0000
0230
0300
,
0200
0300
0101
1100
0201
0000
0340
0000
,
0000
0000
0000
2030
,
3002
0403
0000
0320
,
2030
0000
0000
0000
0000
0000
0000
0000
0000
0000
0000
0000
0000
0000
0000
0000
0000
0000
0000
0000
0000
0000
0000
0000
0000
0000
0000
0000
0000
0000
0000
0400
3000
0000
0000
0000
0000
0000
0000
0000
0000
0000
0000
0000
0000
0000
0000
0000
0000
0000
0000
0000
0000
0000
0000
0000
0000
0000
0000
0000
0000
0000
0000
0040
0300
0000
0000
0000
0000
0000
0000
0000
0000
0000
0000
0000
0000
0000
0000
0000
0000
0000
0000
0000
0000
0000
0000
0000
0000
0000
0000
0000
0000
0000
0000
0000
0032
0000
0000
0000
0000
0000
0000
0000
0000
0000
0000
0000
0000
0000
0000
0000
0000
0000
0000
0000
0000
0000
0000
0000
0003
0000
0000
0000
0000
0000
0000
0000
0000
0000
0000
0000
0000
0000
0000
0000
0000
0000
0000
0000
0000
0000
0000
0000
4000
0000
0000
0000
0000
0000
0000
0000
0000
0000
0000
0000
0000
0000
0000
0000
0000
0000
0000
0000
0000
0000
0000
0000
0000
0000
0000
0000
0000
0000
0000
0000
0000
0000
0000
0000
0000
0000
0000
0000
0000
0000
0000
0000
0000
0000
0000
0000
,
3020
0000
4030
3002
,
0000
0000
1003
0010
0100
0001
1000
0100
,
0001
0100
1000
1000
1000
1000
2000
0000
,
0000
0000
3010
0100
0001
0100
0020
0000
,
0130
0001
1000
0001
0200
0000
0301
0000
,
0000
1000
0100
0010
,
0001
0001
0010
0100
,
1000
0000
0001
0100
0001
0000
0100
0010
,
0100
0000
0001
1000
0001
0000
1000
0100
,
1000
0100
0010
0000
0001
0000
0010
0000
,
0100
1000
0100
0001
,
0100
1000
0010
0100
,
0001
0010
0001
1000
,
0001
0000
0100
0010
0100
0010
0100
0010
,
0100
0010
0100
0001
0100
0001
0100
0001
,
0100
0001
1000
0100
0010
0001
0100
0010
,
1000
0100
0020
0000
0032
0000
0000
0000
,
0103
0010
0100
0000
,
0001
0010
0001
0000
,
0100
0010
0100
0000
,
0010
1000
0010
0000
,
0100
0001
0100
0000
,
0010
1000
0100
0000
,
0010
0001
1000
0000
,
0020
0000
0130
0001
,
0100
0001
1000
0010
,
1000
0010
0001
0010
,
0001
0010
0100
0010
,
1000
0100
0010
0001
,
0010
0001
0010
1000
,
0010
1000
0010
0001
,
1000
0000
0010
0000
0200
0300
0001
0000
,
0100
0001
0100
0020
,
0000
1030
0100
1000
,
0100
0000
0020
0000
0000
0000
0031
0100
,
0001
0100
0001
1000
0000
1000
0001
0100
,
0001
0100
0020
0000
0000
0000
2030
0000
,
0000
3200
0000
0302
,
0000
0023
0000
2030
,
0000
3020
0230
0302
,
0000
0000
0000
0000
1003
0000
0000
0100
0000
0000
0010
0000
0002
0000
0000
0000
,
0000
0000
0000
0000
,
0000
0000
0000
0000
,
0000
0000
0000
0000
,
0000
0000
0000
0000
,
0000
0000
0003
0000
;

//---------------dance-single - TaroNuke----------------
#NOTES:
     dance-single:
     TaroNuke:
     Easy:
     4:
     0.223,0.409,0.000,0.475,0.008:
0000
0000
0000
0000
,
0000
0000
0000
0000
,
0000
0000
0000
0000
,
0000
0000
0000
0000
,
1000
0000
0000
0000
,
1000
0000
0000
0000
,
0001
0000
0000
0000
,
0001
0000
0000
0000
,
0100
0100
0100
0000
,
0010
0010
0010
0000
,
1000
1000
1000
0000
,
0001
0001
0001
0000
,
0100
0100
0100
0100
,
0010
0010
0010
0010
,
1000
0001
1000
0001
,
0200
0000
0000
0000
,
0301
0000
1000
0000
,
0010
0000
1000
0000
,
0001
0000
0100
0000
,
0010
0000
1000
0001
,
2000
3020
0000
0000
,
0230
0000
0000
0000
0302
0000
2003
3000
,
2000
3000
0002
0000
0203
0000
0320
0000
,
0000
0000
0000
0030
,
0000
2000
0000
3002
,
0203
0000
0000
0000
0320
0000
0000
0000
2030
0000
0000
0000
3002
0000
0000
0003
0000
0000
2000
0000
0000
0000
0000
0000
,
3020
0000
0230
0320
,
0000
1030
0100
0010
,
0001
0200
0000
0000
,
0000
0320
0000
2030
,
3002
0000
0203
0310
,
0000
1000
0000
1000
,
0000
0100
0000
0100
,
0000
0010
0000
0010
,
0000
0001
0000
0001
,
0000
1000
0000
0100
,
0000
0001
0000
0010
,
0000
1000
0000
0010
,
0000
0001
0000
0100
,
0000
1000
0000
0001
,
0000
0100
0000
0001
,
0000
1000
0000
0100
,
0000
0020
0032
0000
,
2003
0000
0000
0000
,
3200
0000
0000
0000
,
0320
0000
0000
0000
,
0230
0000
0000
0000
,
2300
0000
0000
0000
,
3002
0000
0000
0000
,
0203
0000
0000
0000
,
0320
0000
2030
0000
,
0000
0000
3200
0000
,
0000
0000
0320
0000
,
0000
0000
0032
0000
,
0000
0000
0203
0000
,
0000
0000
0320
0000
,
0000
0000
2030
0000
,
0000
0000
0000
0000
3020
0030
0200
0000
,
0000
0000
0000
0302
,
0000
2003
0000
0000
,
0000
3200
0000
0320
,
0000
0032
0000
2003
,
0000
3002
0000
0103
,
0100
0010
0010
1000
,
1000
0001
0001
2000
,
0000
3200
0000
0302
,
0000
0000
0023
0000
0000
0030
2000
0000
,
0000
0000
0000
0000
,
0000
0000
0000
0000
,
3000
0000
0000
0000
;

//---------------dance-single - T.Nuke----------------
#NOTES:
     dance-single:
     T.Nuke:
     Beginner:
     1:
     0.156,0.409,0.000,0.347,0.008:
0000
0000
0000
0000
,
0000
0000
0000
0000
,
0000
0000
0000
0000
,
0000
0000
0000
0000
,
0010
0000
0000
0000
,
0010
0000
0000
0000
,
0010
0000
0000
0000
,
0010
0000
0000
0000
,
0010
0000
0010
0000
,
0100
0000
0100
0000
,
0010
0000
0010
0000
,
0100
0000
0100
0000
,
0010
0000
0000
0000
,
0100
0000
0000
0000
,
0002
0000
2003
0000
,
3002
0000
0000
0000
,
1003
0000
1000
0000
,
0001
0000
0001
0000
,
0001
0000
0100
0000
,
0100
0000
0100
0000
,
0020
0000
0000
0000
,
0000
0000
0000
0230
,
0000
0302
0203
0320
,
0000
0000
0000
0030
,
0000
2000
0000
3002
,
0203
0000
0000
0000
0320
0000
0000
0000
2030
0000
0000
0000
3002
0000
0000
0003
0000
0000
0020
0000
0000
0000
0000
0000
,
0000
0000
0000
0000
,
0000
0031
0000
1000
,
0000
0200
0000
0000
,
0000
0320
0000
0000
,
0000
0000
0000
0031
,
0000
1000
0000
0000
,
0000
1000
0000
0000
,
0000
0001
0000
0000
,
0000
0001
0000
0000
,
0000
1000
0000
0100
,
0000
0010
0000
0001
,
0000
1000
0000
0100
,
0000
0010
0000
0001
,
0000
1000
0000
0001
,
0000
0100
0000
0001
,
0000
1000
0000
0100
,
0000
0020
0000
0000
,
0032
0000
0000
0000
,
0203
0000
0000
0000
,
0320
0000
0000
0000
,
2030
0000
0000
0000
,
3200
0000
0000
0000
,
0320
0000
0000
0000
,
0032
0000
0000
0000
,
0000
0000
2003
0000
,
0000
0000
3200
0000
,
0000
0000
0320
0000
,
0000
0000
0032
0000
,
0000
0000
0203
0000
,
0000
0000
0320
0000
,
0000
0000
2030
0000
,
0000
0000
0000
0000
0000
3000
0002
0000
,
0000
0000
0000
0003
,
0000
2000
0000
0000
,
0000
3000
0000
0020
,
0000
0000
0000
0230
,
0000
0000
0000
0301
,
0000
1000
0000
0010
,
0000
1000
0000
0002
,
0000
0203
0000
2300
,
0000
0000
3020
0000
0000
0030
0002
0000
,
0000
0000
0000
0000
,
0000
0000
0000
0000
,
0003
0000
0000
0000
;
