#TITLE:L'aquoiboniste ~無造作紳士~;
#SUBTITLE:;
#ARTIST:千住 明;
#TITLETRANSLIT:L'aquoiboniste ~Muzosa shinshi~;
#SUBTITLETRANSLIT:;
#ARTISTTRANSLIT:Akira Senju;
#CREDIT:348;
#BANNER:;
#BACKGROUND:;
#LYRICSPATH:;
#CDTITLE:;
#MUSIC:L'Aquoiboniste.mp3;
#OFFSET:-1.555;
#SAMPLESTART:1.535;
#SAMPLELENGTH:15.000;
#SELECTABLE:YES;
#BPMS:0.000=26.842;
#STOPS:;
#BGCHANGES:;

//---------------dance-single - ----------------
#NOTES:
     dance-single:
     :
     Beginner:
     1:
     0.026,0.026,0.000,0.000,0.000: // measure 1
0000
0000
0001
0000
,  // measure 2
1000
0000
0001
0000
,  // measure 3
0100
0000
0010
0000
,  // measure 4
0100
0000
0010
0000
,  // measure 5
1000
0000
0000
0000
,  // measure 6
0100
0000
0100
0000
,  // measure 7
0010
0000
0000
0000
,  // measure 8
0001
0000
0001
0000
,  // measure 9
1000
0000
0010
0000
,  // measure 10
0100
0000
0000
0000
,  // measure 11
0001
0000
0100
0000
,  // measure 12
0010
0000
1000
0001
;

//---------------dance-single - ----------------
#NOTES:
     dance-single:
     :
     Easy:
     2:
     0.062,0.056,0.026,0.070,0.000: // measure 1
0000
0000
1000
0001
,  // measure 2
0100
0010
1000
0001
,  // measure 3
1000
0100
1000
0000
,  // measure 4
0001
0010
0001
0000
,  // measure 5
2000
3001
0200
0310
,  // measure 6
0002
0003
0020
0030
,  // measure 7
1000
0001
0100
0110
,  // measure 8
0010
1000
0001
0000
,  // measure 9
1000
1001
0002
1003
,  // measure 10
2000
3000
0020
0030
,  // measure 11
0100
0110
0200
0310
,  // measure 12
1000
0010
0100
0001
;

//---------------dance-single - ----------------
#NOTES:
     dance-single:
     :
     Medium:
     5:
     0.107,0.088,0.044,0.052,0.000: // measure 1
0000
0000
0000
0000
1000
0001
1000
0000
,  // measure 2
0001
0010
0001
0010
0002
0100
0103
0000
,  // measure 3
0100
0010
0100
0000
0010
1000
0010
0000
,  // measure 4
1000
0100
1000
0100
2000
0010
3010
0000
,  // measure 5
1000
0001
1100
0000
0001
1000
0011
0000
,  // measure 6
0200
0010
0310
0000
0100
0010
1001
0000
,  // measure 7
0001
0100
1010
0000
1000
0010
0101
0000
,  // measure 8
1000
0100
0010
0100
1000
0001
2000
0000
,  // measure 9
3001
0010
0100
0010
0002
0000
1003
0000
,  // measure 10
1000
0100
0001
0000
1000
0010
0001
0000
,  // measure 11
1000
0100
0001
0100
2000
0001
3001
0000
,  // measure 12
1000
0100
0010
0001
0100
0010
1000
0001
;

//---------------dance-single - ----------------
#NOTES:
     dance-single:
     :
     Hard:
     8:
     0.212,0.181,0.131,0.105,0.226: // measure 1
0000
0000
0000
0000
0000
0000
0000
0000
0000
0000
0000
0000
1000
0010
0010
1000
0000
0000
0001
0100
0100
0001
0000
0000
,  // measure 2
1000
0000
0100
1000
0000
1000
0001
0000
0010
0001
0000
0001
0100
0000
0010
0100
0000
0100
0010
0000
0000
0010
1000
0010
,  // measure 3
1000
0000
0010
0100
0000
0000
0001
0000
0100
0010
0000
0000
1000
0000
0001
0100
0000
0010
2000
0000
0000
0002
0000
3003
,  // measure 4
1001
0000
0000
0100
0000
0001
0010
0000
0100
1000
0000
1000
0001
0000
0000
0110
0000
0000
1000
0000
0000
0110
0000
0000
,  // measure 5
0002
1000
1000
1003
2000
0010
0010
3010
,  // measure 6
1000
0000
1000
0001
0000
1000
0100
0000
0100
0010
0000
0010
0001
0000
0000
0200
0000
0000
0020
0000
0000
0330
0000
0000
,  // measure 7
0110
0000
0000
1000
0000
1000
0001
0000
1000
0010
0000
0001
0010
0000
0000
0100
0000
0000
0001
0000
1000
0100
0000
0001
,  // measure 8
0200
0000
0000
1000
0000
0000
2300
0000
0001
3001
0000
0000
1001
0000
0100
0110
0000
0001
1001
0000
0000
1000
0001
0001
,  // measure 9
1000
0000
0010
0100
0000
0010
1000
0000
0000
0101
0000
0000
1100
0000
0001
0100
0000
0100
0010
0000
0010
1000
0000
0000
,  // measure 10
0002
0000
0010
0023
0000
0100
0230
0000
1000
2300
0000
0000
3001
0000
0001
1000
0000
1000
0010
0000
0010
0100
0000
0000
,  // measure 11
0101
0000
0000
1010
0000
0000
0011
0000
0000
1100
0000
0000
0001
0000
1000
0010
0000
0100
0001
0000
0001
1000
0000
0010
,  // measure 12
0100
0000
0000
1001
0000
0000
0010
0000
0000
1001
0000
0000
1000
0000
0001
1000
0000
0010
0100
0100
0100
0100
0000
0000
;

//---------------dance-single - ----------------
#NOTES:
     dance-single:
     :
     Challenge:
     9:
     0.375,0.331,0.183,0.314,0.662: // measure 1
0000
0000
0000
0000
0000
0000
0000
0000
0000
0000
0000
0000
0000
0000
0000
0000
0000
0000
0000
0000
0000
0000
0000
0000
1000
0000
0000
0000
0100
0000
1000
0000
0000
0000
0010
1000
0010
0000
0000
0000
1000
0000
0001
0000
0000
0000
0000
0000
,  // measure 2
1100
0000
0000
0000
0001
0010
0001
0000
0000
0000
1000
0000
0001
0000
0000
0000
1000
0100
1000
0000
0000
0000
0010
0000
0100
0000
0000
0001
1000
0000
0100
0000
0000
1000
0001
0000
1000
0000
0000
0000
0000
0000
0010
0000
0100
0000
0001
0000
,  // measure 3
1001
0000
0000
0000
0100
1000
0100
0000
0000
0000
1000
0000
0020
0000
0000
0000
0130
0001
0100
0000
0000
0000
0001
0000
2000
0000
0000
0000
3100
1000
0002
0000
0000
0000
0013
0001
0200
0000
0000
0000
0000
0000
0310
0000
1000
0000
0001
0000
,  // measure 4
0100
0000
0000
0000
0001
0000
0011
0000
0000
0000
1000
0100
1000
0000
0000
0000
0100
0000
1100
0000
0000
0000
0010
0001
1000
0000
0000
0000
0001
1000
0100
0000
0000
0000
1000
0001
2000
0000
0000
0000
0010
0000
3010
0000
0010
0000
0010
0000
,  // measure 5
0020
0000
0000
0000
1030
0000
0200
0000
0000
0000
0310
0000
0002
0000
0000
0000
1003
0000
0100
0000
1000
0000
0001
0010
0002
0000
0000
0000
1003
0000
0200
0000
0000
0000
1300
0000
0020
0000
0000
0000
0130
0000
0010
0000
0100
0000
0001
0000
,  // measure 6
1001
0000
0000
0000
0000
0000
0010
0000
0001
0000
0010
0000
0011
0000
0000
0000
0000
0000
0100
0000
1000
0000
0100
0000
1100
0000
0000
0000
0001
0000
1000
0000
0000
0000
1000
0000
0010
0000
0000
0000
0100
0000
0001
1000
0001
0000
1000
0000
,  // measure 7
0020
1000
1030
2000
0100
3100
0200
0010
0310
0020
0001
0031
0011
1000
0100
1100
0010
0001
1010
0001
0100
0101
1000
0010
,  // measure 8
1000
0000
0001
0010
0001
0000
0100
0000
0010
0100
0010
0000
1000
0000
0100
1000
0100
0000
0010
0000
0001
0010
0001
0000
2002
0000
0000
0000
3003
0000
0220
0000
0000
0000
0330
0000
2002
0000
0000
0000
3003
0000
1000
0000
0100
0000
0010
0000
,  // measure 9
0002
0000
1000
0000
1003
0000
0200
0000
0010
0000
0310
0000
1000
0000
0100
0000
0010
0000
0001
0100
0010
0000
1000
0000
0001
0000
0010
0000
1000
0000
0010
0000
0001
0000
1000
0000
0100
0000
0001
0000
0100
0000
1000
0001
1000
0000
0010
0000
,  // measure 10
2000
0000
0000
0000
3010
0000
0020
0000
0000
0000
0130
0000
0200
0000
0000
0000
0301
1000
0002
0000
1000
0000
1003
0000
1001
0000
0000
0000
0010
0000
0110
0000
0000
0000
1000
0010
0200
0000
0000
0000
0001
0000
0301
0000
0010
0000
0100
0000
,  // measure 11
2001
0000
0100
0000
3100
0000
0200
0000
0001
0000
0301
0000
0002
0000
0100
0000
0103
0000
0200
0000
1000
0000
1300
0000
1000
0000
0001
0010
0001
0000
2000
0000
0100
0000
0010
0000
3001
0000
1000
0100
1000
0000
0002
0000
0100
0000
0010
0000
,  // measure 12
1003
0000
0000
0000
0001
0000
1000
0000
0100
0000
1000
0001
0100
0000
0000
0000
0010
0000
1000
0000
0001
0000
0010
0001
2000
0000
0000
0000
3001
0000
0020
0000
0000
0000
0130
0000
0110
0000
1001
0000
1001
0000
0110
0000
0000
0000
0000
0000
;
