#TITLE:Kicky Kemari Kicker;
#SUBTITLE:~Hit the arrow, the movie~;
#ARTIST:ROUTE No.1 KIZOKU UNIT;
#TITLETRANSLIT:;
#SUBTITLETRANSLIT:;
#ARTISTTRANSLIT:;
#GENRE:;
#CREDIT:TaroNuke;
#BANNER:kicky-bn.png;
#BACKGROUND:kicky-bg.png;
#LYRICSPATH:;
#CDTITLE:Nonsense.png;
#MUSIC:kick.mp3;
#OFFSET:-0.384;
#SAMPLESTART:19.796;
#SAMPLELENGTH:10.000;
#SELECTABLE:YES;
#DISPLAYBPM:136.000;
#BPMS:0.000=136.000,27.000=272.000,29.000=136.000,291.000=544.000,295.000=136.000,334.000=544.000,338.000=136.000,344.000=272.000,346.000=136.000,352.250=339.000,354.000=136.000,360.250=339.000,362.000=136.000,436.000=544.000,440.000=136.000,466.000=272.000,468.000=136.000;
#STOPS:27.000=0.165
,27.750=0.165
,28.500=0.110
,51.000=-1.766
,51.000=0.06
,55.000=-1.766
,55.000=0.055
,59.000=-1.766
,59.000=0.06
,63.000=-1.766
,63.000=0.06
,71.500=-1.766
,71.500=0.06
,75.500=-1.766
,75.500=0.06
,79.500=-1.766
,79.500=0.06
,83.500=-1.766
,83.500=0.06
,87.500=-1.766
,87.500=0.06
,91.500=-1.766
,91.500=0.335
,95.500=-1.766
,95.500=0.06
,99.500=-1.766
,99.500=0.06
,103.500=-1.766
,103.500=0.335
,107.500=-1.766
,107.500=0.06
,116.500=-1.766
,116.500=0.06
,120.500=-1.766
,120.500=0.06
,124.500=-1.766
,124.500=0.06
,128.500=-1.766
,128.500=0.06
,132.500=-1.766
,132.500=0.06
,136.500=-1.766
,136.500=0.056
,140.500=-1.766
,140.500=0.056
,144.500=-1.766
,144.500=0.056
,148.500=-1.766
,148.500=0.056
,152.500=-1.766
,152.500=0.335
,156.500=-1.766
,156.500=0.056
,174.000=-1.766
,174.000=0.056
,178.000=-1.766
,178.000=0.056
,182.000=-1.766
,182.000=0.056
,186.000=-1.766
,186.000=0.056
,194.500=-1.766
,194.500=0.056
,198.500=-1.766
,198.500=0.056
,202.500=-1.766
,202.500=0.056
,206.500=-1.766
,206.500=0.056
,210.500=-1.766
,210.500=0.056
,214.500=-1.766
,214.500=0.336
,218.500=-1.766
,218.500=0.056
,222.500=-1.766
,222.500=0.056
,226.500=-1.766
,226.500=0.336
,230.500=-1.766
,230.500=0.056
,239.500=-1.766
,239.500=0.056
,243.500=-1.766
,243.500=0.06
,247.500=-1.766
,247.500=0.06
,251.500=-1.766
,251.500=0.06
,255.500=-1.766
,255.500=0.06
,259.500=-1.766
,259.500=0.06
,263.500=-1.766
,263.500=0.06
,267.500=-1.766
,267.500=0.057
,271.500=-1.766
,271.500=0.057
,275.500=-1.766
,275.500=0.331
,279.500=-1.766
,279.500=0.058
,344.000=0.165
,344.750=0.165
,345.500=0.110
,391.938=-1.766
,446.938=-1.766
,466.000=0.165
,466.750=0.165
,467.500=0.110
,471.000=-3.534
,479.479=-3.529
;
#BGCHANGES:446.979=nope.png=1.000=0=0=1=====,
452.000=black.png=1.000=0=0=1=====,
490.500=kicky-bg.png=1.000=1=0=1=Centered==CrossFade==
;
#KEYSOUNDS:;

//---------------dance-single - Effort @_@----------------
#NOTES:
     dance-single:
     Effort @_@:
     Hard:
     11:
     0.751,1.000,0.383,0.094,0.754:
0000
0000
0000
0000
,
0000
0000
0000
0000
,
0000
0000
0000
2000
,
0000
0000
3000
0000
0000
0000
0100
0010
0001
0000
0000
0000
0001
0000
0000
0000
,
0010
0100
0010
0001
0010
0000
0000
0000
0100
1000
0100
0010
0100
1000
0100
0010
,
0100
1000
0010
0100
0002
0000
1000
0000
,
0000
0000
0003
0000
1000
0100
0010
0001
0100
0010
1000
0100
0010
0000
0000
0010
,
0000
0000
0010
0000
0001
0000
0000
0010
0100
0000
0000
1000
0100
0000
0000
0010
,
0001
0000
0000
0100
0010
0000
0000
1000
0001
0000
0000
0100
0010
0000
1000
0100
,
1000
0000
0010
0100
0001
0000
0000
0100
1000
0000
0000
0100
0001
0000
0000
0010
,
1000
0000
0000
0010
0001
0000
0000
0100
0010
0000
0000
1000
0001
0000
0000
0100
,
0020
0000
0000
0000
1030
0000
0000
0010
0100
0000
0000
0001
0100
0000
0000
0010
,
1000
0000
0000
0001
1000
0000
0000
0000
1000
0000
0000
0000
0000
0000
1000
0000
,
0000
0000
0000
0000
0000
0000
0000
0001
,
0000
0000
0000
0000
0000
0000
0000
1000
,
0000
0000
0000
0000
0000
0000
0000
1000
,
0000
0000
0000
0000
0000
0000
0000
0001
,
0000
0100
0010
0000
0000
1000
0100
0000
0000
0010
0001
0000
0000
0000
0000
0000
,
0001
0000
0000
0000
,
1000
0000
0000
0000
,
0001
0000
0000
0000
,
1000
0000
0000
0000
,
0001
0000
0000
0000
,
1000
0000
0000
0000
,
0001
0000
0000
0000
,
1000
0000
0000
0000
,
0001
0000
0000
0000
,
0001
0000
0000
0000
,
1000
0000
0000
0001
0100
0000
0000
0010
1000
0000
0000
0010
0100
0000
0000
0001
,
1000
1000
0000
0000
,
0000
0001
0000
0000
,
0000
1000
0000
0000
,
0000
0001
0000
0000
,
0000
1000
0000
0000
,
0000
0001
0000
0000
,
0000
1000
0000
0000
,
0000
0001
0000
0000
,
0000
1000
0000
0000
,
0000
0001
0000
0000
,
0000
1000
0000
0000
,
0000
0000
0000
0000
0001
0000
0000
1000
0100
0000
0000
0001
0100
0000
0000
1000
,
0010
0000
0100
0001
0100
0010
0100
0010
0100
0010
0100
0010
1000
0000
0100
1000
,
0100
0000
1000
0010
0100
0000
0010
0100
0001
0000
1000
0100
0010
0000
0001
0010
,
0100
0000
1000
0010
0100
0010
1000
0000
0000
0000
1000
0000
0000
0000
0000
0000
,
0000
0000
0000
0000
0000
0100
0000
0000
,
0000
0000
0000
0000
0000
0010
0000
0000
,
0000
0000
0000
0000
0000
0010
0000
0000
,
0000
0000
0000
0000
0000
0000
0000
0000
0000
0000
0001
0000
0100
0010
1000
0000
,
0100
0010
0001
0000
0010
0100
1000
0000
0001
0000
0000
0000
0001
0000
0000
0000
,
0000
0000
0000
0010
,
0000
0000
0000
0100
,
0000
0000
0000
1000
,
0000
0000
0000
0001
,
0000
0000
0000
0010
,
0000
0000
0000
0100
,
0000
0000
0000
1000
,
0000
0000
0000
0001
,
0000
0000
0000
0001
,
0000
0000
0000
0000
0000
0000
0000
0000
0000
0000
0000
0000
0010
0000
0100
1000
,
0010
0000
0100
0001
0010
0000
0001
0100
0010
0000
1000
0100
1000
0000
0000
0000
,
1000
0000
0000
0000
,
0100
0000
0000
0000
,
0010
0000
0000
0000
,
0001
0000
0000
0000
,
1000
0000
0000
0000
,
0100
0000
0000
0000
,
0010
0000
0000
0000
,
0001
0000
0000
0000
,
1000
0000
0000
0000
,
0100
0000
0000
0000
,
0100
0000
0000
0000
,
0010
0000
1000
0100
1000
0000
0001
0100
0001
0000
0100
0010
0100
0000
0001
1000
,
0001
0100
0001
1000
0010
0000
1000
0010
1000
0000
0010
0100
0020
0000
0000
0000
,
0000
0000
0000
0130
,
0110
0000
0000
0000
1000
0010
0100
0010
1000
0000
0000
0000
0001
0100
0010
0100
,
0001
0100
0010
0100
0001
0000
0010
0000
0010
0000
0000
0000
1100
0000
0000
0000
,
0101
0000
0000
0000
0001
0100
1000
0100
0001
0000
0000
0000
1000
0100
0001
0100
,
1000
0100
0001
0100
1000
0000
0110
0000
1001
0000
0000
0000
0110
0000
0000
0000
,
0110
0000
0000
0000
0001
0100
0010
0100
0001
0000
0000
0000
1000
0010
0100
0010
,
1000
0010
0100
0010
1000
0000
0010
0000
0010
0000
0000
0000
0101
0000
0000
0000
,
1100
0000
0000
0000
1000
0010
0001
0010
1000
0000
0000
0000
0001
0010
1000
0010
,
0001
0010
1000
0010
0001
0000
0110
0000
1001
0000
0000
0000
1000
0000
0000
0010
,
0100
0001
1000
0010
0100
0000
0101
0000
,
0011
1010
2100
0000
,
0000
0000
0000
0000
0000
0000
0000
0000
3100
0000
0000
0010
0001
0000
1000
0000
,
0001
0000
0100
0000
0020
0000
0030
0000
0100
0001
1000
0010
0100
0010
1000
0001
,
0100
0000
0000
0100
0000
0000
0100
0000
0001
0000
0001
0000
0010
0100
1000
0100
,
0000
0001
0000
0100
0000
1000
0100
0010
0001
0000
0001
0000
0100
0010
1000
0100
,
0000
0010
0000
0000
0000
0000
0000
0000
0001
0000
0001
0000
0100
0010
1000
0010
,
0000
0001
0000
0010
0000
1000
0010
0100
0001
0000
0001
0000
0010
0100
1000
0010
,
0000
0100
0000
0000
0000
0000
0000
0000
0101
0000
0000
0000
0100
0000
0000
1010
,
0000
1010
0000
0000
1000
0000
0000
0100
0010
0000
0000
0001
1000
0000
0000
0000
,
0010
0100
0010
0100
0001
0000
0000
0000
0010
0000
0000
0101
0000
0101
0000
0000
,
0001
0000
0000
1000
0010
0000
0000
0100
0001
0010
0100
1000
0010
0100
0001
0010
,
0200
0000
0000
0000
1000
0000
0010
0000
1000
0000
1300
0000
0100
1000
0100
0010
,
0200
0000
1000
0001
1300
1100
1100
1100
,
1000
0100
0010
0100
0000
1000
0100
0010
0100
0000
1000
0000
1000
0100
0010
0100
,
0000
0000
1000
0010
0100
0010
0000
0000
0110
0000
0000
0000
1001
0000
0000
0000
,
0110
0000
0000
0000
,
0MM0
0000
0000
0000
0110
0000
0000
0000
0110
0000
0000
0000
1000
0010
0100
0010
,
1000
0000
0000
0000
0001
0100
0010
0100
0001
0100
0010
0100
0001
0000
0010
0000
,
0010
0000
0000
0000
1100
0000
0000
0000
0101
0000
0000
0000
0001
0100
1000
0100
,
0001
0000
0000
0000
1000
0100
0001
0100
1000
0100
0001
0100
1000
0000
0110
0000
,
1001
0000
0000
0000
0110
0000
0000
0000
0110
0000
0000
0000
0001
0100
0010
0100
,
0001
0000
0000
0000
1000
0010
0100
0010
1000
0010
0100
0010
1000
0000
0010
0000
,
0010
0000
0000
0000
0101
0000
0000
0000
1100
0000
0000
0000
1000
0010
0001
0010
,
1000
0000
0000
0000
0001
0010
1000
0010
0001
0010
1000
0010
0001
0000
0110
0000
,
1001
0000
0000
0000
1000
0000
0000
0010
0100
0000
0001
0000
1000
0000
0010
0000
,
0100
0101
1100
1010
,
0012
0000
0000
0000
,
0013
0000
0000
0100
0010
0000
0001
0000
1000
0000
0100
0000
0010
0000
0000
0000
,
0011
1100
1010
0200
,
0300
0000
0000
0002
,
0103
0000
0000
0010
1000
0000
0100
0000
0001
0000
0100
0000
1000
0000
0000
0000
,
0010
0000
0000
0100
0001
0000
0100
0000
1000
0000
0100
0000
0001
0010
0100
0000
,
1000
0000
0000
0010
0100
0000
0001
0000
1000
0000
0000
0100
0010
0000
0001
0000
,
1000
0100
0010
0001
0100
0010
1000
0100
0010
0000
0000
0010
0000
0000
0010
0000
,
0000
0000
0000
0000
,
0000
0000
0000
0000
,
0000
0000
0000
0000
MMMM
MMMM
MMMM
MMMM
,
MMMM
MMMM
MMMM
MMMM
MMMM
MMMM
MMMM
MMMM
,
0000
0000
0000
0000
0000
0000
0000
M000
,
00M0
00M0
000M
M0M0
0M00
00M0
0000
0000
;

//---------------dance-single - TaroNuke----------------
#NOTES:
     dance-single:
     TaroNuke:
     Medium:
     8:
     0.496,0.940,0.094,0.060,0.115:
0000
0000
0000
0000
,
0000
0000
0000
0000
,
0000
0000
0000
2000
,
0000
3000
0001
0100
,
0001
0100
0001
0000
1000
0010
0100
0010
,
1000
0100
0010
0001
0200
0000
0000
0000
,
0000
0000
0000
0000
0000
0000
0000
0000
0000
0000
0000
0000
0310
0000
0000
0010
,
0000
0010
0100
0000
0001
0000
1000
0000
,
0100
0000
1000
0000
0001
0000
0100
0010
,
0100
0010
0100
0000
0001
0000
0100
0000
,
0001
0000
0010
0000
1000
0000
0010
0001
,
0100
0010
1000
0000
0001
0000
1000
0000
,
0010
0000
0100
0000
0001
0000
0000
0001
,
0000
0000
0000
0000
0000
0000
0000
0001
,
0000
0000
0000
0000
0000
0000
0000
0001
,
0000
0000
0000
0000
0000
0000
0000
1000
,
0000
0000
0000
0000
0000
0000
0000
1000
,
0000
0100
0000
0001
0000
0100
0000
0000
,
0001
0000
0000
0000
,
0001
0000
0000
0000
,
0001
0000
0000
0000
,
0001
0000
0000
0000
,
0001
0000
0000
0000
,
1000
0000
0000
0000
,
0001
0000
0000
0000
,
0001
0000
0000
0000
,
1000
0000
0000
0000
,
1000
0000
0000
0000
,
1000
0010
0001
0010
,
0000
0001
0000
0000
,
0000
0001
0000
0000
,
0000
0001
0000
0000
,
0000
0001
0000
0000
,
0000
0001
0000
0000
,
0000
0001
0000
0000
,
0000
0001
0000
0000
,
0000
0001
0000
0000
,
0000
1000
0000
0000
,
0000
1000
0000
0000
,
0000
1000
0000
0000
,
0000
1000
0100
1000
,
0010
0000
0100
0010
1000
0010
0100
0001
,
1000
0100
0010
1000
,
0010
0000
0100
0000
0000
0001
0000
0000
,
0000
0000
0000
0000
0000
0001
0000
0000
,
0000
0000
0000
0000
0000
0001
0000
0000
,
0000
0000
0000
0000
0000
1000
0000
0000
,
0000
0000
0000
0000
0000
1000
0000
0001
,
0000
0100
0000
0010
0000
0000
0001
0000
,
0000
0000
0000
0001
,
0000
0000
0000
0001
,
0000
0000
0000
0001
,
0000
0000
0000
0001
,
0000
0000
0000
1000
,
0000
0000
0000
0001
,
0000
0000
0000
0001
,
0000
0000
0000
1000
,
0000
0000
0000
1000
,
0000
0000
0000
1000
,
0010
1000
0100
0001
,
0010
0000
0000
0000
,
0010
0000
0000
0000
,
0010
0000
0000
0000
,
0010
0000
0000
0000
,
0010
0000
0000
0000
,
0010
0000
0000
0000
,
0010
0000
0000
0000
,
0010
0000
0000
0000
,
0010
0000
0000
0000
,
0100
0000
0000
0000
,
0100
0000
0000
0000
,
0100
1000
0100
0010
,
0001
0100
0010
0100
0001
0000
0200
0000
,
0300
0000
0000
0100
,
0100
0000
0010
1000
0010
0000
0100
0001
,
1000
0010
0100
0010
0010
0000
0100
0000
,
0100
0000
0001
0010
0001
0000
1000
0100
,
0010
0001
0100
0010
1000
0000
0101
0000
,
0100
0000
0000
0000
0010
1000
0010
1000
0010
0000
0000
0000
0100
0001
0100
0001
,
1000
0010
1000
0010
0100
0000
0010
0000
0010
0000
0000
0000
0100
0000
0000
0000
,
0100
0000
0000
0000
0001
0010
0001
0010
0001
0000
0000
0000
1000
0100
1000
0100
,
0010
0001
0010
0001
0100
0000
0010
0000
1000
0000
0000
0000
0001
0000
0000
0000
,
0100
0000
0010
1000
0010
0000
0100
0000
,
0001
1000
0020
0030
,
0000
0000
0010
0010
,
0100
0001
0100
0000
0010
1000
0010
0100
,
0001
0000
0000
0001
0000
0000
0001
0000
1000
0000
0100
0000
1000
0000
0000
0000
,
0010
0100
0001
0100
0010
0100
0001
0000
,
1000
0000
0000
0000
0001
0010
0001
0000
,
1000
0010
0100
0010
1000
0100
0010
0000
,
0001
0000
1000
0010
,
0100
0010
0001
0010
,
1000
0100
1000
0000
0100
0000
0010
0000
,
0100
0000
0001
0000
0100
0000
1000
0100
,
1000
0000
0010
0100
0010
0000
1000
0000
,
0001
0000
0010
0100
0010
0000
0001
1000
,
0010
1000
0001
0000
0100
0000
0010
1000
,
0010
0100
0001
0000
0010
0000
1000
0000
,
0100
0000
0000
0000
,
0M10
0000
0001
0000
0100
0000
0010
1000
,
0010
0000
0100
0001
1000
0010
0100
0010
,
0010
0000
0100
0000
0100
0000
0001
0010
,
0001
0000
1000
0100
0010
0001
0100
0010
,
1000
0000
0000
0000
0101
0000
0000
0000
0100
0000
0000
0000
0010
1000
0010
1000
,
0010
0000
0000
0000
0100
0001
0100
0001
1000
0010
1000
0010
0100
0000
0010
0000
,
0010
0000
0000
0000
0100
0000
0000
0000
0100
0000
0000
0000
0001
0010
0001
0010
,
0001
0000
0000
0000
1000
0100
1000
0100
0010
0001
0010
0001
0100
0000
0010
0000
,
0010
0000
1000
0100
0001
0100
1000
0010
,
0001
0011
0110
1010
,
2000
3000
0000
0000
,
0001
0100
1000
0100
0001
0010
1000
0000
,
1010
0110
0011
2000
,
3000
0000
0000
0002
,
1003
0100
1000
0000
0010
0100
0010
0000
,
0100
0001
0100
0000
0001
0010
0100
0000
,
1000
0010
0100
0010
1000
0010
0100
0010
,
1000
0000
0100
0000
0010
0000
0001
0000
1001
0000
0000
1001
0000
0000
1001
0000
,
0000
0000
0000
0000
,
0000
0000
0000
0000
,
0000
0000
0000
0000
MMMM
MMMM
MMMM
MMMM
,
MMMM
MMMM
MMMM
MMMM
MMMM
MMMM
MMMM
MMMM
,
0000
0000
0000
0000
0000
0000
0000
M000
,
00M0
00M0
000M
M0M0
0M00
00M0
0000
0000
;

//---------------dance-single - TaroNuke----------------
#NOTES:
     dance-single:
     TaroNuke:
     Easy:
     5:
     0.338,0.522,0.085,0.051,0.017:
0000
0000
0000
0000
,
0000
0000
0000
0000
,
0000
0000
0000
0000
,
0000
0000
0001
0001
,
0001
0000
1000
1000
,
1000
0001
2000
0000
,
0000
0000
0000
3002
,
0000
1003
0100
0010
,
0100
1000
0010
0100
,
0001
1000
0100
1000
,
0010
0100
0001
1000
,
0020
0130
0100
0100
,
0100
0000
0100
0000
0100
0000
0000
0010
,
0000
0000
0000
0000
0000
0000
0000
0010
,
0000
0000
0000
0000
0000
0000
0000
0100
,
0000
0000
0000
0000
0000
0000
0000
0100
,
0000
0000
0000
0000
0000
0000
0000
0100
,
0000
0100
0000
0100
0000
0100
0000
0000
,
0010
0000
0000
0000
,
0010
0000
0000
0000
,
0010
0000
0000
0000
,
0010
0000
0000
0000
,
0010
0000
0000
0000
,
0100
0000
0000
0000
,
0100
0000
0000
0000
,
0100
0000
0000
0000
,
0100
0000
0000
0000
,
0100
0000
0000
0000
,
0100
0100
0100
0100
,
0100
0010
0000
0000
,
0000
0010
0000
0000
,
0000
0010
0000
0000
,
0000
0010
0000
0000
,
0000
0010
0000
0000
,
0000
0010
0000
0000
,
0000
0010
0000
0000
,
0000
0010
0000
0000
,
0000
0010
0000
0000
,
0000
0100
0000
0000
,
0000
0100
0000
0000
,
0000
0100
0100
0100
,
0100
0100
0100
0200
,
0310
0010
0010
0010
,
0010
0000
0010
0000
0000
0100
0000
0000
,
0000
0000
0000
0000
0000
0100
0000
0000
,
0000
0000
0000
0000
0000
0010
0000
0000
,
0000
0000
0000
0000
0000
0010
0000
0000
,
0000
0000
0000
0000
0000
0010
0000
0010
,
0000
0010
0000
0010
0000
0000
0100
0000
,
0000
0000
0000
0100
,
0000
0000
0000
0100
,
0000
0000
0000
0100
,
0000
0000
0000
0100
,
0000
0000
0000
0100
,
0000
0000
0000
0100
,
0000
0000
0000
0100
,
0000
0000
0000
0010
,
0000
0000
0000
0010
,
0000
0000
0000
0010
,
0010
0010
0010
0010
,
0100
0000
0000
0000
,
0100
0000
0000
0000
,
0100
0000
0000
0000
,
0100
0000
0000
0000
,
0100
0000
0000
0000
,
0100
0000
0000
0000
,
0100
0000
0000
0000
,
0100
0000
0000
0000
,
0100
0000
0000
0000
,
0010
0000
0000
0000
,
0010
0000
0000
0000
,
0010
0010
0010
0100
,
0001
0100
0010
1000
,
0000
0000
0000
0000
,
0000
0000
0000
0000
,
0000
0000
0000
1000
,
0010
0100
0001
0100
,
0010
1000
0001
0100
,
0100
0010
0010
1000
,
0100
0001
0100
1000
,
1000
0001
0001
0100
,
0010
1000
0010
0100
,
0000
0000
0001
0010
0100
0000
1000
0000
,
0001
0100
0010
0000
,
0000
0000
0000
0000
,
1000
0100
0010
0000
0001
1000
0001
1000
,
0020
0000
0130
0100
,
0100
0000
0001
0001
,
0001
0000
1000
1000
,
1000
0000
0010
0010
,
0010
0000
0100
0000
,
0001
0000
1000
0010
,
1000
0001
0000
0100
,
0000
0010
1000
0100
,
0010
0000
0001
0000
,
0100
0000
0010
1000
,
0001
1000
0001
0100
,
0000
0110
0000
0000
1000
0000
0100
0000
,
0000
0001
0000
0000
0000
0000
0000
0000
0000
0000
0000
0000
0000
0000
0000
0000
0000
0000
0000
0000
0000
0000
0000
0000
0000
0000
0000
0000
0000
0000
0000
0000
0000
0000
0000
0000
0000
0000
0000
0000
0000
0000
0000
0000
0000
0000
0000
0000
0000
0000
0000
0000
0000
0000
0000
0000
0000
0000
0000
0000
0000
0000
0000
0000
0000
0000
0000
0000
0000
0000
0000
0000
0000
0000
0000
0000
0000
0000
0000
0000
0000
0000
0000
0000
0000
0000
0000
0000
0000
0000
0000
0000
0000
0000
0000
0000
0000
0000
0000
0000
0000
0000
0000
0000
0000
0000
0000
0000
0000
0000
0000
0000
0000
0000
0000
0000
0000
0000
0000
0000
0000
0000
0000
0000
0000
0000
0000
0000
0000
0000
0000
0000
0000
0000
0000
0000
0000
0000
0000
0000
0000
0000
0000
0000
0000
0000
0000
0000
0000
0000
0000
0000
0000
0000
0000
0000
0000
0000
0000
0000
0000
0000
0000
0000
0000
0000
0000
0000
0000
0000
0000
0000
0000
0000
0000
0000
0000
0000
0000
0000
0000
0000
0000
0000
0000
0000
0000
0000
0000
0000
0000
0000
,
000M
1100
1000
1010
,
0010
1000
0100
0010
,
0001
0101
0001
0011
,
0010
0001
0010
0100
,
1000
1100
1000
1010
,
0010
1000
0100
0010
,
0001
0101
0001
0011
,
0010
0001
0010
0100
,
1000
1000
1000
0001
,
0001
1000
0010
0100
,
0001
0000
0000
0000
,
0001
0001
1000
1000
,
0001
0000
0000
0000
0000
0000
0000
0000
0000
0000
0000
0000
0000
0000
0000
0000
0000
0000
0000
0000
0000
0000
0000
0000
0000
0000
0000
0000
0000
0000
0000
0000
0000
0000
0000
0000
0000
0000
0000
0000
0000
0000
0000
0000
0000
0000
0000
0000
0100
0000
0000
0000
0000
0000
0000
0000
0000
0000
0000
0000
0000
0000
0000
0000
0000
0000
0000
0000
0000
0000
0000
0000
0000
0000
0000
0000
0000
0000
0000
0000
0000
0000
0000
0000
0000
0000
0000
0000
0000
0000
0000
0000
0000
0000
0000
0000
0010
0000
0000
0000
0000
0000
0000
0000
0000
0000
0000
0000
0000
0000
0000
0000
0000
0000
0000
0000
0000
0000
0000
0000
0000
0000
0000
0000
0000
0000
0000
0000
0000
0000
0000
0000
0000
0000
0000
0000
0000
0000
0000
0000
0000
0000
0000
0000
0000
0111
M000
0000
0000
0000
0000
0000
0000
0000
0000
0000
0000
0000
0000
0000
0000
0000
0000
0000
0000
0000
0000
0000
0000
0000
0000
0000
0000
0000
0000
0000
0000
0000
0000
0000
0000
0000
0000
0000
0000
0000
0000
0000
0000
0000
0000
0000
,
0000
0000
0000
2000
,
3100
0001
0100
0001
,
0100
1000
0100
1000
,
0010
0001
0010
1000
,
0100
0000
0000
0000
0010
0000
0000
0000
0001
0000
0000
0001
0000
0000
0001
0000
,
0000
0000
0000
0000
,
0000
0000
0000
0000
,
0000
0000
0000
0000
MMMM
MMMM
MMMM
MMMM
,
MMMM
MMMM
MMMM
MMMM
MMMM
MMMM
MMMM
MMMM
,
0000
0000
0000
0000
0000
0000
0000
M000
,
00M0
00M0
000M
M0M0
0M00
00M0
0000
0000
;
