#TITLE:Himiko;
#SUBTITLE:[8-bit Mix];
#ARTIST:SUZAKU vs. GENBU;
#TITLETRANSLIT:;
#SUBTITLETRANSLIT:;
#ARTISTTRANSLIT:;
#GENRE:;
#CREDIT:Telperion;
#BANNER:himiko8-bn.png;
#BACKGROUND:himiko8-bg.png;
#LYRICSPATH:;
#CDTITLE:;
#MUSIC:himiko8.ogg;
#OFFSET:-0.005079;
#SAMPLESTART:7.789000;
#SAMPLELENGTH:20.737000;
#SELECTABLE:YES;
#DISPLAYBPM:92.500000:185.000000;
#BPMS:0.000000=92.500000,12.000000=573000.000000,40.000000=185.000000,44.000000=573000.000000,72.000000=185.000000,92.000000=573000.000000,104.000000=185.000000,110.000000=573000.000000,122.000000=185.000000,129.000000=92.500000,161.000000=185.000000,205.000000=573000.000000,233.000000=185.000000,236.000000=370.000000,240.000000=185.000000,241.000000=573000.000000,269.000000=185.000000,273.000000=573000.000000,289.000000=185.000000,305.000000=88.000000,313.000000=85.000000,322.000000=76.000000;
#STOPS:12.000000=0.081055
,12.250000=0.081055
,12.500000=0.081055
,12.750000=0.081055
,13.000000=0.081055
,13.250000=0.081055
,13.500000=0.081055
,13.750000=0.081055
,14.000000=0.081055
,14.250000=0.081055
,14.500000=0.081055
,14.750000=0.081055
,15.000000=0.081055
,15.250000=0.081055
,15.500000=0.081055
,15.750000=0.081055
,16.000000=0.081055
,16.250000=0.081055
,16.500000=0.081055
,16.750000=0.081055
,17.000000=0.081055
,17.250000=0.081055
,17.500000=0.081055
,17.750000=0.081055
,18.000000=0.081055
,18.250000=0.081055
,18.500000=0.081055
,18.750000=0.081055
,19.000000=0.081055
,19.250000=0.081055
,19.500000=0.081055
,19.750000=0.081055
,20.000000=0.081055
,20.250000=0.081055
,20.500000=0.081055
,20.750000=0.081055
,21.000000=0.081055
,21.250000=0.081055
,21.500000=0.081055
,21.750000=0.081055
,22.000000=0.081055
,22.250000=0.081055
,22.500000=0.081055
,22.750000=0.081055
,23.000000=0.081055
,23.250000=0.081055
,23.500000=0.081055
,23.750000=0.081055
,24.000000=0.081055
,24.250000=0.081055
,24.500000=0.081055
,24.750000=0.081055
,25.000000=0.081055
,25.250000=0.081055
,25.500000=0.081055
,25.750000=0.081055
,26.000000=0.081055
,26.250000=0.081055
,26.500000=0.081055
,26.750000=0.081055
,27.000000=0.081055
,27.250000=0.081055
,27.500000=0.081055
,27.750000=0.081055
,28.000000=0.081055
,28.250000=0.081055
,28.500000=0.081055
,28.750000=0.081055
,29.000000=0.081055
,29.250000=0.081055
,29.500000=0.081055
,29.750000=0.081055
,30.000000=0.081055
,30.250000=0.081055
,30.500000=0.081055
,30.750000=0.081055
,31.000000=0.081055
,31.250000=0.081055
,31.500000=0.081055
,31.750000=0.081055
,32.000000=0.081055
,32.250000=0.081055
,32.500000=0.081055
,32.750000=0.081055
,33.000000=0.081055
,33.250000=0.081055
,33.500000=0.081055
,33.750000=0.081055
,34.000000=0.081055
,34.250000=0.081055
,34.500000=0.081055
,34.750000=0.081055
,35.000000=0.081055
,35.250000=0.081055
,35.500000=0.081055
,35.750000=0.081055
,36.000000=0.081055
,36.250000=0.081055
,36.500000=0.081055
,36.750000=0.081055
,37.000000=0.081055
,37.250000=0.081055
,37.500000=0.081055
,37.750000=0.081055
,38.000000=0.081055
,38.250000=0.081055
,38.500000=0.081055
,38.750000=0.081055
,39.000000=0.081055
,39.250000=0.081055
,39.500000=0.081055
,39.750000=0.081055
,44.000000=0.081055
,44.250000=0.081055
,44.500000=0.081055
,44.750000=0.081055
,45.000000=0.081055
,45.250000=0.081055
,45.500000=0.081055
,45.750000=0.081055
,46.000000=0.081055
,46.250000=0.081055
,46.500000=0.081055
,46.750000=0.081055
,47.000000=0.081055
,47.250000=0.081055
,47.500000=0.081055
,47.750000=0.081055
,48.000000=0.081055
,48.250000=0.081055
,48.500000=0.081055
,48.750000=0.081055
,49.000000=0.081055
,49.250000=0.081055
,49.500000=0.081055
,49.750000=0.081055
,50.000000=0.081055
,50.250000=0.081055
,50.500000=0.081055
,50.750000=0.081055
,51.000000=0.081055
,51.250000=0.081055
,51.500000=0.081055
,51.750000=0.081055
,52.000000=0.081055
,52.250000=0.081055
,52.500000=0.081055
,52.750000=0.081055
,53.000000=0.081055
,53.250000=0.081055
,53.500000=0.081055
,53.750000=0.081055
,54.000000=0.081055
,54.250000=0.081055
,54.500000=0.081055
,54.750000=0.081055
,55.000000=0.081055
,55.250000=0.081055
,55.500000=0.081055
,55.750000=0.081055
,56.000000=0.081055
,56.250000=0.081055
,56.500000=0.081055
,56.750000=0.081055
,57.000000=0.081055
,57.250000=0.081055
,57.500000=0.081055
,57.750000=0.081055
,58.000000=0.081055
,58.250000=0.081055
,58.500000=0.081055
,58.750000=0.081055
,59.000000=0.081055
,59.250000=0.081055
,59.500000=0.081055
,59.750000=0.081055
,60.000000=0.081055
,60.250000=0.081055
,60.500000=0.081055
,60.750000=0.081055
,61.000000=0.081055
,61.250000=0.081055
,61.500000=0.081055
,61.750000=0.081055
,62.000000=0.081055
,62.250000=0.081055
,62.500000=0.081055
,62.750000=0.081055
,63.000000=0.081055
,63.250000=0.081055
,63.500000=0.081055
,63.750000=0.081055
,64.000000=0.081055
,64.250000=0.081055
,64.500000=0.081055
,64.750000=0.081055
,65.000000=0.081055
,65.250000=0.081055
,65.500000=0.081055
,65.750000=0.081055
,66.000000=0.081055
,66.250000=0.081055
,66.500000=0.081055
,66.750000=0.081055
,67.000000=0.081055
,67.250000=0.081055
,67.500000=0.081055
,67.750000=0.081055
,68.000000=0.081055
,68.250000=0.081055
,68.500000=0.081055
,68.750000=0.081055
,69.000000=0.081055
,69.250000=0.081055
,69.500000=0.081055
,69.750000=0.081055
,70.000000=0.081055
,70.250000=0.081055
,70.500000=0.081055
,70.750000=0.081055
,71.000000=0.081055
,71.250000=0.081055
,71.500000=0.081055
,71.750000=0.081055
,92.000000=0.081055
,92.250000=0.081055
,92.500000=0.081055
,92.750000=0.081055
,93.000000=0.081055
,93.250000=0.081055
,93.500000=0.081055
,93.750000=0.081055
,94.000000=0.081055
,94.250000=0.081055
,94.500000=0.081055
,94.750000=0.081055
,95.000000=0.081055
,95.250000=0.081055
,95.500000=0.081055
,95.750000=0.081055
,96.000000=0.081055
,96.250000=0.081055
,96.500000=0.081055
,96.750000=0.081055
,97.000000=0.081055
,97.250000=0.081055
,97.500000=0.081055
,97.750000=0.081055
,98.000000=0.081055
,98.250000=0.081055
,98.500000=0.081055
,98.750000=0.081055
,99.000000=0.081055
,99.250000=0.081055
,99.500000=0.081055
,99.750000=0.081055
,100.000000=0.081055
,100.250000=0.081055
,100.500000=0.081055
,100.750000=0.081055
,101.000000=0.081055
,101.250000=0.081055
,101.500000=0.081055
,101.750000=0.081055
,102.000000=0.081055
,102.250000=0.081055
,102.500000=0.081055
,102.750000=0.081055
,103.000000=0.081055
,103.250000=0.081055
,103.500000=0.081055
,103.750000=0.081055
,110.000000=0.081055
,110.250000=0.081055
,110.500000=0.081055
,110.750000=0.081055
,111.000000=0.081055
,111.250000=0.081055
,111.500000=0.081055
,111.750000=0.081055
,112.000000=0.081055
,112.250000=0.081055
,112.500000=0.081055
,112.750000=0.081055
,113.000000=0.081055
,113.250000=0.081055
,113.500000=0.081055
,113.750000=0.081055
,114.000000=0.081055
,114.250000=0.081055
,114.500000=0.081055
,114.750000=0.081055
,115.000000=0.081055
,115.250000=0.081055
,115.500000=0.081055
,115.750000=0.081055
,116.000000=0.081055
,116.250000=0.081055
,116.500000=0.081055
,116.750000=0.081055
,117.000000=0.081055
,117.250000=0.081055
,117.500000=0.081055
,117.750000=0.081055
,118.000000=0.081055
,118.250000=0.081055
,118.500000=0.081055
,118.750000=0.081055
,119.000000=0.081055
,119.250000=0.081055
,119.500000=0.081055
,119.750000=0.081055
,120.000000=0.081055
,120.250000=0.081055
,120.500000=0.081055
,120.750000=0.081055
,121.000000=0.081055
,121.250000=0.081055
,121.500000=0.081055
,121.750000=0.081055
,205.000000=0.081055
,205.250000=0.081055
,205.500000=0.081055
,205.750000=0.081055
,206.000000=0.081055
,206.250000=0.081055
,206.500000=0.081055
,206.750000=0.081055
,207.000000=0.081055
,207.250000=0.081055
,207.500000=0.081055
,207.750000=0.081055
,208.000000=0.081055
,208.250000=0.081055
,208.500000=0.081055
,208.750000=0.081055
,209.000000=0.081055
,209.250000=0.081055
,209.500000=0.081055
,209.750000=0.081055
,210.000000=0.081055
,210.250000=0.081055
,210.500000=0.081055
,210.750000=0.081055
,211.000000=0.081055
,211.250000=0.081055
,211.500000=0.081055
,211.750000=0.081055
,212.000000=0.081055
,212.250000=0.081055
,212.500000=0.081055
,212.750000=0.081055
,213.000000=0.081055
,213.250000=0.081055
,213.500000=0.081055
,213.750000=0.081055
,214.000000=0.081055
,214.250000=0.081055
,214.500000=0.081055
,214.750000=0.081055
,215.000000=0.081055
,215.250000=0.081055
,215.500000=0.081055
,215.750000=0.081055
,216.000000=0.081055
,216.250000=0.081055
,216.500000=0.081055
,216.750000=0.081055
,217.000000=0.081055
,217.250000=0.081055
,217.500000=0.081055
,217.750000=0.081055
,218.000000=0.081055
,218.250000=0.081055
,218.500000=0.081055
,218.750000=0.081055
,219.000000=0.081055
,219.250000=0.081055
,219.500000=0.081055
,219.750000=0.081055
,220.000000=0.081055
,220.250000=0.081055
,220.500000=0.081055
,220.750000=0.081055
,221.000000=0.081055
,221.250000=0.081055
,221.500000=0.081055
,221.750000=0.081055
,222.000000=0.081055
,222.250000=0.081055
,222.500000=0.081055
,222.750000=0.081055
,223.000000=0.081055
,223.250000=0.081055
,223.500000=0.081055
,223.750000=0.081055
,224.000000=0.081055
,224.250000=0.081055
,224.500000=0.081055
,224.750000=0.081055
,225.000000=0.081055
,225.250000=0.081055
,225.500000=0.081055
,225.750000=0.081055
,226.000000=0.081055
,226.250000=0.081055
,226.500000=0.081055
,226.750000=0.081055
,227.000000=0.081055
,227.250000=0.081055
,227.500000=0.081055
,227.750000=0.081055
,228.000000=0.081055
,228.250000=0.081055
,228.500000=0.081055
,228.750000=0.081055
,229.000000=0.081055
,229.250000=0.081055
,229.500000=0.081055
,229.750000=0.081055
,230.000000=0.081055
,230.250000=0.081055
,230.500000=0.081055
,230.750000=0.081055
,231.000000=0.081055
,231.250000=0.081055
,231.500000=0.081055
,231.750000=0.081055
,232.000000=0.081055
,232.250000=0.081055
,232.500000=0.081055
,232.750000=0.081055
,241.000000=0.081055
,241.250000=0.081055
,241.500000=0.081055
,241.750000=0.081055
,242.000000=0.081055
,242.250000=0.081055
,242.500000=0.081055
,242.750000=0.081055
,243.000000=0.081055
,243.250000=0.081055
,243.500000=0.081055
,243.750000=0.081055
,244.000000=0.081055
,244.250000=0.081055
,244.500000=0.081055
,244.750000=0.081055
,245.000000=0.081055
,245.250000=0.081055
,245.500000=0.081055
,245.750000=0.081055
,246.000000=0.081055
,246.250000=0.081055
,246.500000=0.081055
,246.750000=0.081055
,247.000000=0.081055
,247.250000=0.081055
,247.500000=0.081055
,247.750000=0.081055
,248.000000=0.081055
,248.250000=0.081055
,248.500000=0.081055
,248.750000=0.081055
,249.000000=0.081055
,249.250000=0.081055
,249.500000=0.081055
,249.750000=0.081055
,250.000000=0.081055
,250.250000=0.081055
,250.500000=0.081055
,250.750000=0.081055
,251.000000=0.081055
,251.250000=0.081055
,251.500000=0.081055
,251.750000=0.081055
,252.000000=0.081055
,252.250000=0.081055
,252.500000=0.081055
,252.750000=0.081055
,253.000000=0.081055
,253.250000=0.081055
,253.500000=0.081055
,253.750000=0.081055
,254.000000=0.081055
,254.250000=0.081055
,254.500000=0.081055
,254.750000=0.081055
,255.000000=0.081055
,255.250000=0.081055
,255.500000=0.081055
,255.750000=0.081055
,256.000000=0.081055
,256.250000=0.081055
,256.500000=0.081055
,256.750000=0.081055
,257.000000=0.081055
,257.250000=0.081055
,257.500000=0.081055
,257.750000=0.081055
,258.000000=0.081055
,258.250000=0.081055
,258.500000=0.081055
,258.750000=0.081055
,259.000000=0.081055
,259.250000=0.081055
,259.500000=0.081055
,259.750000=0.081055
,260.000000=0.081055
,260.250000=0.081055
,260.500000=0.081055
,260.750000=0.081055
,261.000000=0.081055
,261.250000=0.081055
,261.500000=0.081055
,261.750000=0.081055
,262.000000=0.081055
,262.250000=0.081055
,262.500000=0.081055
,262.750000=0.081055
,263.000000=0.081055
,263.250000=0.081055
,263.500000=0.081055
,263.750000=0.081055
,264.000000=0.081055
,264.250000=0.081055
,264.500000=0.081055
,264.750000=0.081055
,265.000000=0.081055
,265.250000=0.081055
,265.500000=0.081055
,265.750000=0.081055
,266.000000=0.081055
,266.250000=0.081055
,266.500000=0.081055
,266.750000=0.081055
,267.000000=0.081055
,267.250000=0.081055
,267.500000=0.081055
,267.750000=0.081055
,268.000000=0.081055
,268.250000=0.081055
,268.500000=0.081055
,268.750000=0.081055
,273.000000=0.081055
,273.250000=0.081055
,273.500000=0.081055
,273.750000=0.081055
,274.000000=0.081055
,274.250000=0.081055
,274.500000=0.081055
,274.750000=0.081055
,275.000000=0.081055
,275.250000=0.081055
,275.500000=0.081055
,275.750000=0.081055
,276.000000=0.081055
,276.250000=0.081055
,276.500000=0.081055
,276.750000=0.081055
,277.000000=0.081055
,277.250000=0.081055
,277.500000=0.081055
,277.750000=0.081055
,278.000000=0.081055
,278.250000=0.081055
,278.500000=0.081055
,278.750000=0.081055
,279.000000=0.081055
,279.250000=0.081055
,279.500000=0.081055
,279.750000=0.081055
,280.000000=0.081055
,280.250000=0.081055
,280.500000=0.081055
,280.750000=0.081055
,281.000000=0.081055
,281.250000=0.081055
,281.500000=0.081055
,281.750000=0.081055
,282.000000=0.081055
,282.250000=0.081055
,282.500000=0.081055
,282.750000=0.081055
,283.000000=0.081055
,283.250000=0.081055
,283.500000=0.081055
,283.750000=0.081055
,284.000000=0.081055
,284.250000=0.081055
,284.500000=0.081055
,284.750000=0.081055
,285.000000=0.081055
,285.250000=0.081055
,285.500000=0.081055
,285.750000=0.081055
,286.000000=0.081055
,286.250000=0.081055
,286.500000=0.081055
,286.750000=0.081055
,287.000000=0.081055
,287.250000=0.081055
,287.500000=0.081055
,287.750000=0.081055
,288.000000=0.081055
,288.250000=0.081055
,288.500000=0.081055
,288.750000=0.081055
;
#DELAYS:;
#TIMESIGNATURES:0.000000=4=4
;
#BGCHANGES:;
#KEYSOUNDS:;
#ATTACKS:;

//---------------dance-single - Telperion----------------
#NOTES:
     dance-single:
     Telperion:
     Hard:
     9:
     0.593,0.724,0.171,0.575,0.182,437.000,22.000,74.000,87.000,14.000,0.000,0.000,0.593,0.724,0.171,0.575,0.182,437.000,22.000,74.000,87.000,14.000,0.000,0.000:
0M00
0000
0000
0000
0000
0000
0000
0000
000M
0000
0000
0000
0000
0000
0000
0000
M000
0000
0M00
0000
000M
00M0
0M00
M000
000M
0000
0000
0000
0000
0000
0000
0000
,
00M0
0000
0000
0000
0M00
0000
0000
0000
M000
0000
0000
0M00
0000
0000
00M0
0000
,
0000
000M
0000
0000
0M00
0000
0000
0000
0000
0000
0000
0000
0000
0000
0000
0000
,
1000
0100
0010
0001
0200
0000
0000
0000
,
0301
0100
0010
1000
0200
0000
0000
0000
,
0310
0001
0010
0100
2000
0000
0000
0000
,
3001
0100
0010
0100
0002
0000
0010
0000
,
1003
0100
0001
0100
0020
0000
0000
0000
,
0031
0100
1000
0100
0002
0000
0000
0000
,
0013
0100
0001
0100
1000
0010
0100
0010
,
100M
200M
0000
0000
0002
0000
3013
0000
,
1001
0000
0000
0000
0000
0000
0000
0000
0000
0000
0000
0000
0000
0000
0000
0000
0000
0000
0000
0000
0000
0000
0000
0000
0001
0000
0000
0000
0000
0000
0000
0000
0000
0000
0000
0000
0000
0000
0000
0000
0000
0000
0000
0000
0000
0000
0000
0000
1000
0000
0000
0000
0000
0000
0000
0000
0000
0000
0000
0000
0000
0000
0000
0000
0000
0000
0000
0000
0000
0000
0000
0000
0100
0000
0000
0000
0000
0000
0000
0000
0000
0000
0000
0000
0000
0000
0000
0000
0000
0000
0000
0000
0000
0000
0000
0000
0020
0000
0000
0000
0000
0000
0000
0000
0000
0000
0000
0000
0000
0000
0000
0000
0000
0000
0000
0000
0000
0000
0000
0000
0000
0000
0000
0000
0000
0000
0000
0000
0000
0000
0000
0000
0000
0000
0000
0000
0000
0000
0000
0000
0000
0000
0000
0000
0000
0000
0000
0000
0000
0000
0000
0000
0000
0000
0000
0000
0000
0000
0000
0000
0000
0000
0000
0000
0000
0000
0000
0000
0000
0000
0000
0000
0000
0000
0000
0000
0000
0000
0000
0000
0000
0000
0000
0000
0000
0000
0000
0000
0000
0000
0000
0030
,
0110
0000
0000
0000
0000
0000
0000
0000
0000
0000
0000
0000
0000
0000
0000
0000
0000
0000
0000
0000
0000
0000
0000
0000
0100
0000
0000
0000
0000
0000
0000
0000
0000
0000
0000
0000
0000
0000
0000
0000
0000
0000
0000
0000
0000
0000
0000
0000
1000
0000
0000
0000
0000
0000
0000
0000
0000
0000
0000
0000
0000
0000
0000
0000
0000
0000
0000
0000
0000
0000
0000
0000
0001
0000
0000
0000
0000
0000
0000
0000
0000
0000
0000
0000
0000
0000
0000
0000
0000
0000
0000
0000
0000
0000
0000
0000
0200
0000
0000
0000
0000
0000
0000
0000
0000
0000
0000
0000
0000
0000
0000
0000
0000
0000
0000
0000
0000
0000
0000
0000
0000
0000
0000
0000
0000
0000
0000
0000
0000
0000
0000
0000
0000
0000
0000
0000
0000
0000
0000
0000
0000
0000
0000
0000
0000
0000
0000
0000
0000
0000
0000
0000
0000
0000
0000
0000
0000
0000
0000
0000
0000
0000
0000
0000
0000
0000
0000
0000
0000
0000
0000
0000
0000
0000
0000
0000
0000
0000
0000
0000
0000
0000
0000
0000
0000
0000
0000
0000
0000
0000
0000
0300
,
0110
0000
0000
0000
0000
0000
0000
0000
0000
0000
0000
0000
0000
0000
0000
0000
0000
0000
0000
0000
0000
0000
0000
0000
0010
0000
0000
0000
0000
0000
0000
0000
0000
0000
0000
0000
0000
0000
0000
0000
0000
0000
0000
0000
0000
0000
0000
0000
1000
0000
0000
0000
0000
0000
0000
0000
0000
0000
0000
0000
0000
0000
0000
0000
0000
0000
0000
0000
0000
0000
0000
0000
0001
0000
0000
0000
0000
0000
0000
0000
0000
0000
0000
0000
0000
0000
0000
0000
0000
0000
0000
0000
0000
0000
0000
0000
0020
0000
0000
0000
0000
0000
0000
0000
0000
0000
0000
0000
0000
0000
0000
0000
0000
0000
0000
0000
0000
0000
0000
0000
0000
0000
0000
0000
0000
0000
0000
0000
0000
0000
0000
0000
0000
0000
0000
0000
0000
0000
0000
0000
0000
0000
0000
0000
0000
0000
0000
0000
0000
0000
0000
0000
0000
0000
0000
0000
0000
0000
0000
0000
0000
0000
0000
0000
0000
0000
0000
0000
0000
0000
0000
0000
0000
0000
0000
0000
0000
0000
0000
0000
0000
0000
0000
0000
0000
0000
0000
0000
0000
0000
0000
0030
,
0011
0001
1000
0010
2000
0000
3100
0000
,
1001
0000
0000
0000
0000
0000
0000
0000
0000
0000
0000
0000
0000
0000
0000
0000
0000
0000
0000
0000
0000
0000
0000
0000
1000
0000
0000
0000
0000
0000
0000
0000
0000
0000
0000
0000
0000
0000
0000
0000
0000
0000
0000
0000
0000
0000
0000
0000
0010
0000
0000
0000
0000
0000
0000
0000
0000
0000
0000
0000
0000
0000
0000
0000
0000
0000
0000
0000
0000
0000
0000
0000
0100
0000
0000
0000
0000
0000
0000
0000
0000
0000
0000
0000
0000
0000
0000
0000
0000
0000
0000
0000
0000
0000
0000
0000
2000
0000
0000
0000
0000
0000
0000
0000
0000
0000
0000
0000
0000
0000
0000
0000
0000
0000
0000
0000
0000
0000
0000
0000
0000
0000
0000
0000
0000
0000
0000
0000
0000
0000
0000
0000
0000
0000
0000
0000
0000
0000
0000
0000
0000
0000
0000
0000
0000
0000
0000
0000
0000
0000
0000
0000
0000
0000
0000
0000
0000
0000
0000
0000
0000
0000
0000
0000
0000
0000
0000
0000
0000
0000
0000
0000
0000
0000
0000
0000
0000
0000
0000
0000
0000
0000
0000
0000
0000
0000
0000
0000
0000
0000
0000
3000
,
1100
0000
0000
0000
0000
0000
0000
0000
0000
0000
0000
0000
0000
0000
0000
0000
0000
0000
0000
0000
0000
0000
0000
0000
0100
0000
0000
0000
0000
0000
0000
0000
0000
0000
0000
0000
0000
0000
0000
0000
0000
0000
0000
0000
0000
0000
0000
0000
0001
0000
0000
0000
0000
0000
0000
0000
0000
0000
0000
0000
0000
0000
0000
0000
0000
0000
0000
0000
0000
0000
0000
0000
0010
0000
0000
0000
0000
0000
0000
0000
0000
0000
0000
0000
0000
0000
0000
0000
0000
0000
0000
0000
0000
0000
0000
0000
0200
0000
0000
0000
0000
0000
0000
0000
0000
0000
0000
0000
0000
0000
0000
0000
0000
0000
0000
0000
0000
0000
0000
0000
0000
0000
0000
0000
0000
0000
0000
0000
0000
0000
0000
0000
0000
0000
0000
0000
0000
0000
0000
0000
0000
0000
0000
0000
0000
0000
0000
0000
0000
0000
0000
0000
0000
0000
0000
0000
0000
0000
0000
0000
0000
0000
0000
0000
0000
0000
0000
0000
0000
0000
0000
0000
0000
0000
0000
0000
0000
0000
0000
0000
0000
0000
0000
0000
0000
0000
0000
0000
0000
0000
0000
0300
,
0101
0001
0100
1000
0001
0100
0010
0100
,
100M
100M
0100
0010
0001
0010
2000
0000
,
3002
0000
0000
0000
,
0200
0000
0000
0000
,
0020
0000
0000
0000
,
2000
0000
0000
0000
0000
0000
0000
0000
0000
0000
0000
0000
0000
0000
0000
0000
0000
0000
0000
0000
0000
0000
0000
0000
0000
0000
0000
0000
0000
0000
0000
0000
0000
0000
0000
0000
0000
0000
0000
0000
0000
0000
0000
0000
0000
0000
0000
0000
0000
0000
0000
0000
0000
0000
0000
0000
0000
0000
0000
0000
0000
0000
0000
0000
0000
0000
0000
0000
0000
0000
0000
0000
0000
0000
0000
0000
0000
0000
0000
0000
0000
0000
0000
0000
0000
0000
0000
0000
0000
0000
0000
0000
0000
0000
0000
0030
3313
0000
0000
0000
0000
0000
0000
0000
0000
0000
0000
0000
0000
0000
0000
0000
0000
0000
0000
0000
0000
0000
0000
0000
0000
0000
0000
0000
0000
0000
0000
0000
0000
0000
0000
0000
0000
0000
0000
0000
0000
0000
0000
0000
0000
0000
0000
0000
1111
0000
0000
0000
0000
0000
0000
0000
0000
0000
0000
0000
0000
0000
0000
0000
0000
0000
0000
0000
0000
0000
0000
0000
0000
0000
0000
0000
0000
0000
0000
0000
0000
0000
0000
0000
0000
0000
0000
0000
0000
0000
0000
0000
0000
0000
0000
0000
,
0001
0000
0001
0000
1000
0000
0001
1000
0000
0001
1000
0000
0001
0000
1000
0000
,
1000
0000
0001
1000
0000
0001
1000
0000
0001
0000
0010
0000
0010
0000
0100
0010
,
0000
0100
0010
0000
0100
0000
1000
0000
1000
0000
0001
1000
0000
1000
0001
0000
,
0010
0001
0010
0100
1000
0001
0010
1000
,
0001
0000
0100
0000
2000
0000
0000
0000
3010
0000
0100
0000
0010
0000
1000
0001
,
0000
1000
0001
0000
0010
0000
0100
0000
0010
0000
0001
1000
0000
0010
1000
0000
,
0010
0000
0100
0000
0001
0000
0010
0001
0000
0010
0100
0000
1000
0000
0001
0000
,
1000
0000
0010
0100
0000
0001
0100
0000
0020
0000
1000
0000
0230
0000
0010
0000
,
0302
0010
2003
0100
3002
1000
0023
0100
,
0032
1003
0120
0030
0000
0000
2000
3000
,
0000
0000
0002
0003
0000
0000
0020
0030
,
0200
0300
0002
0003
0000
0000
0200
0300
,
0000
0000
2000
3000
0000
0000
0002
0003
,
2000
3000
0010
0100
0210
0000
0301
1000
,
1200
0000
0301
0100
0110
0100
1000
0001
,
0012
0003
0100
0010
0012
0003
1000
0100
,
0101
0001
0010
0000
0010
0100
1000
0000
,
0001
1000
0001
0000
0220
0000
0000
0000
0000
0000
0000
0000
0330
0000
0000
0000
,
0000
0000
0000
0000
,
0000
0000
000M
M000
0M00
00M0
000M
0M00
,
00M0
0M00
002M
M000
000M
0M00
203M
0M00
,
30M2
0M00
20M3
0M00
000M
00M0
000M
0M00
,
30M0
000M
M020
0M00
M000
000M
2M30
000M
,
32M0
000M
M320
000M
0M00
M000
000M
0M00
,
003M
M000
00M2
0M00
00M0
0M00
M023
0M00
,
M032
0M00
20M3
0M00
000M
00M0
000M
0M00
,
30M0
000M
M020
0M00
000M
M000
023M
M000
,
032M
0000
M000
0000
0M32
0000
M000
0000
00M0
0000
0000
0000
0013
0100
0010
0100
,
0002
0000
1003
0100
0001
0100
1000
0100
,
0010
0001
0010
0100
1000
0000
0010
0000
0001
0000
0010
0000
1000
0000
0010
0000
,
0001
0010
0100
0010
1000
0000
0010
0000
0100
0000
0001
0000
1000
0000
0010
0000
,
0100
0000
0001
0000
0010
0001
0010
0000
0100
0010
0100
0000
1000
0001
1000
0001
,
2000
0000
3001
0100
1000
0100
0001
0100
,
1000
0100
0010
0100
0001
0000
0010
0000
1000
0000
0010
0000
0001
0000
0010
0000
,
1000
0010
0100
0010
0001
0000
1000
0000
0100
0000
0010
0000
0001
0000
1000
0000
,
0100
0010
0002
1000
0023
0100
0032
0100
,
2000
0000
0000
0000
,
3003
0000
0001
1000
0010
1000
0000
1010
,
0000
0010
0100
0001
0010
0001
0000
0011
,
0000
0010
0100
1000
0010
0001
0000
0001
,
0010
0100
0001
0010
0100
0001
0000
0001
,
0100
1000
0001
0100
0010
0100
0000
1100
,
0000
0100
0001
0010
0100
0010
0000
1010
,
0000
0010
0011
0001
0010
1000
0000
1000
,
0010
0100
1000
0010
0100
1000
0000
1000
,
0100
0010
0100
0010
0100
0000
0001
0000
0010
0000
0100
0000
0001
0000
0100
0000
,
0010
0001
1000
0010
0100
1000
0001
1000
,
0100
0001
0010
0100
0001
1000
0001
0100
,
0010
0001
1000
0100
0010
0001
1000
0010
,
0100
0001
1000
2000
0000
0000
0100
0000
,
0002
0000
0010
0020
3000
0000
0100
0000
,
0100
2003
0000
3002
,
0000
0000
2003
0000
3002
0000
1033
0001
,
1000
0000
0001
0000
0010
0010
0000
0010
0000
0000
0000
0000
0100
0100
0000
0100
,
0000
0000
0000
0000
1000
1000
0000
1000
0000
0000
0000
0000
0001
0001
0000
0001
,
0001
0000
0100
0001
0100
0000
0010
0100
,
1000
0000
0100
0010
1000
0001
0010
0000
,
0100
0220
0000
0000
,
0000
0330
0000
0000
0000
0000
0000
0000
;

//---------------dance-single - Telperion----------------
#NOTES:
     dance-single:
     Telperion:
     Edit:
     12:
     0.864,0.945,0.148,0.520,0.939,693.000,19.000,67.000,61.000,0.000,0.000,0.000,0.864,0.945,0.148,0.520,0.939,693.000,19.000,67.000,61.000,0.000,0.000,0.000:
MM00
0000
0000
0000
0000
0000
0000
0000
00MM
0000
0000
0000
0000
0000
0000
0000
M000
0000
0M00
0000
000M
00M0
0M00
M000
000M
0000
0000
0000
0000
0000
0000
0000
,
0M00
0000
0000
0000
00M0
0000
0000
0000
0M00
0000
0000
00M0
0000
0000
0M00
0000
,
0000
00M0
0000
0000
0M00
0000
0000
0000
2000
0000
0000
0000
0000
0000
0000
0000
,
3100
1000
0100
1000
0100
0010
0100
0010
0002
0000
0000
0000
0003
0000
0000
0000
,
0100
0001
0100
0001
0100
0010
0100
0010
2000
0000
0000
0000
3000
0000
0000
0000
,
0001
0100
0001
0100
0010
1000
0010
1000
0002
0000
0000
0000
0003
0000
0000
0000
,
1000
0001
1000
0001
0010
0100
0010
0100
2000
0000
0000
0000
3020
0000
0000
0000
,
0130
0000
0001
0100
0010
1000
0010
0100
0002
0000
0000
0000
0003
0000
0000
0000
,
0010
0000
0001
0010
0100
1000
0100
0010
0002
0000
0000
0000
0203
0000
0000
0000
,
0310
0000
0100
0010
0100
0001
1000
0100
0020
0000
0000
0000
0030
0000
0000
0000
,
0100
0200
0000
0000
2300
0000
3010
0000
,
0101
0000
0100
0000
0001
1000
0100
0010
0002
0000
0000
0000
0003
0000
0000
0000
,
1100
0000
0100
0000
1000
0001
1000
0010
0200
0000
0000
0000
0300
0000
0000
0000
,
0110
0000
0010
0000
0100
0001
1000
0100
0020
0000
0000
0000
0030
0000
0000
0000
,
0110
0000
0100
0000
1000
0001
0010
0100
2000
0000
0000
0000
3002
0000
0000
0000
,
0103
0000
0100
0000
0010
1000
0010
0100
0002
0000
0000
0000
2000
0000
3000
0000
,
0013
0000
0010
0000
0100
0010
0001
1000
0020
0000
0000
0000
0030
0000
0000
0000
,
0100
0000
0100
0000
0001
1000
0100
0010
0001
0010
0100
1000
0002
0000
0000
0000
,
1003
0000
1010
0000
0000
0010
1000
0100
0001
0100
0010
0100
1000
0000
0000
0000
,
001M
0100
0010
0000
0010
0000
0100
0010
0000
0100
0010
0000
0100
0010
0100
0000
,
M100
0000
0010
0100
0000
0010
0100
0000
0010
0100
0010
0000
0010
0000
0100
0010
,
M00M
0100
0010
0000
0100
0010
0100
0000
0100
0000
0010
0100
0000
0010
0100
0000
,
M01M
0010
0010
0000
0010
0000
0010
0010
0M00
0010
0010
0000
0001
0010
0100
1000
,
0010
0100
0010
0000
0010
0000
1000
0001
0000
1000
0001
0000
0010
0100
0010
0000
,
0010
0000
0100
0010
0000
0001
1000
0000
0010
0100
1000
0000
1000
0000
0100
0010
,
0000
0100
0001
0000
1000
0100
0010
0000
0001
0000
0010
0100
0000
0010
0100
0000
,
0001
0100
1000
0000
1000
0000
0010
0100
0000
0100
0010
0000
1000
0010
1000
0000
,
1000
0000
1000
0100
0001
0100
0010
0100
1000
0001
1000
0000
0010
0000
0010
0100
,
0000
0100
1000
0000
0100
0010
1000
0000
0100
0000
0100
0010
0000
0010
0001
0000
,
1000
0100
0001
0000
0001
0000
0100
0010
0000
0010
0001
0000
1000
0010
1000
0000
,
0010
0000
0010
0100
0000
0100
1000
0000
0100
0010
0100
0000
0001
0000
1000
0001
,
0000
1000
0100
0000
0010
0100
0001
0000
0001
0000
0100
0010
0000
0001
1000
0000
,
0001
1000
0001
0000
02M0
0000
0000
0000
M010
0000
0000
0000
230M
0000
0000
0000
,
32M0
0000
M302
0000
0M10
1000
0M23
0000
,
M230
03M2
M203
230M
,
0M10
0001
3M20
0000
M031
0010
M200
0301
,
M010
0000
0000
0000
010M
0000
0100
0010
M001
0000
0000
1000
0M01
0000
1000
0010
,
010M
0000
0000
0000
M001
0000
0100
0010
100M
0000
0010
0000
M100
0000
0001
1000
,
01M0
0000
0000
0000
M010
0000
0100
1000
001M
0000
0100
0001
10M0
0000
0100
0010
,
M001
0000
0010
0100
200M
0000
0000
0000
0M01
0000
3020
0000
020M
0000
0000
0000
,
M330
000M
M000
0000
2MM2
0000
0000
0000
0000
0000
0000
0000
3003
0000
0000
0000
,
0000
0000
0000
0000
,
0000
0000
1000
0001
1000
0001
0100
0010
,
0100
0001
0020
0130
0010
0001
2000
3010
,
0200
0310
2000
3100
0001
1000
0010
0001
,
1000
0010
0200
0310
1000
0010
0200
0301
,
0020
0031
2000
3010
0001
1000
0100
0001
,
1000
0000
0110
0000
0100
0001
0010
0100
,
1000
0100
0101
0000
0100
0010
0001
1000
,
0010
0100
1100
0000
1000
0100
0001
0010
,
0100
0000
0010
0000
0001
0000
0100
0000
0010
0000
0100
0000
0001
1000
0001
1000
,
0001
0000
0000
0000
0220
0000
0000
0000
0330
0000
0000
0000
0001
1000
0001
1000
,
0100
1000
0100
0010
0002
0000
0000
0000
0003
0000
0000
0000
0100
0001
0100
0001
,
1000
0100
0010
0001
2000
0000
0000
0000
3000
0000
0000
0000
0010
0100
0010
0100
,
0001
1000
0001
0010
0100
0010
0001
1000
0001
0010
0100
1000
0001
1000
0100
0010
,
0002
0000
0003
0000
2020
0000
0000
0000
3030
0000
0000
0000
1000
0001
1000
0001
,
0010
0100
0010
0100
2000
0000
0000
0000
3000
0000
0000
0000
0001
1000
0010
0100
,
0001
0100
0010
1000
0200
0000
0000
0000
0300
0000
0000
0000
0010
0001
0010
0100
,
1000
0001
0010
0100
1000
0000
1000
0000
0001
0000
0001
0000
1000
0000
0001
0000
,
0220
0000
0000
0000
,
0330
0000
0000
0000
0001
1000
0001
1000
0010
0100
0010
0100
0000
0100
0001
1000
,
0100
1000
0001
0100
0010
1000
0010
1000
0001
0100
0001
0100
0000
0100
0001
0010
,
0100
0010
0001
1000
0001
0010
0001
0010
0100
1000
0100
0010
0000
0010
0001
1000
,
0001
0100
0010
0100
0001
1000
0010
1000
0001
1000
0010
0100
0000
0100
0001
1000
,
0001
1000
0001
1000
0100
0010
0100
1000
0001
0010
0100
1000
0000
1000
0001
1000
,
0010
0100
0001
0100
0010
1000
0100
0010
0001
0010
0100
1000
0000
1000
0001
0100
,
0010
0100
0010
0100
0001
1000
0001
0010
0001
1000
0100
0010
0000
0010
0001
1000
,
0001
0010
0100
1000
0001
0000
0002
0000
0000
0000
0000
0000
1003
0000
0000
0000
,
1010
0000
0000
0000
0001
1000
0010
0100
0001
1000
0010
0100
0001
0000
0100
0000
,
0010
0000
1000
0000
0001
0010
0100
1000
0001
0010
0100
1000
0001
0000
1000
0000
,
0100
0000
1000
0000
0010
1000
0010
0100
0001
0100
0010
1000
0010
0000
0100
0000
,
0010
0000
1000
0000
0001
1000
0100
0010
0001
0100
0010
2000
0000
0000
3001
0000
,
1000
0001
0110
0110
0000
0000
0020
0130
,
0020
0130
1001
1001
0000
0000
0002
1003
,
2000
0000
3001
0000
0110
0000
0000
0000
0000
0000
0000
0000
0000
0001
1000
0001
,
0010
0100
1000
0001
1000
0010
1000
0000
0001
0010
0001
0000
2002
0000
0000
0000
,
3000
0000
0000
0000
0103
0100
0000
0100
0000
0000
0000
0000
0010
0010
0000
0010
,
0000
0000
0000
0000
1000
1000
0000
1000
0000
0000
0000
0000
0001
0001
0000
0001
,
0001
0000
0000
0000
1000
0100
0010
0001
0010
0000
0001
0100
0010
0000
1000
0010
,
0001
0000
0010
1000
0100
0010
0100
0000
1000
0001
0000
0100
0020
0000
0000
0000
,
0230
0302
0000
0000
,
0000
0003
0000
0000
0000
0000
0000
0000
;

//---------------dance-single - Telperion----------------
#NOTES:
     dance-single:
     Telperion:
     Medium:
     6:
     0.357,0.472,0.070,0.256,0.039,280.000,9.000,33.000,101.000,0.000,0.000,0.000,0.357,0.472,0.070,0.256,0.039,280.000,9.000,33.000,101.000,0.000,0.000,0.000:
M000
0000
0000
0000
0000
0000
0000
0000
000M
0000
0000
0000
0000
0000
0000
0000
00M0
0000
0M00
0000
M000
0M00
00M0
000M
0M00
0000
0000
0000
0000
0000
0000
0000
,
00M0
0000
0000
0000
M000
0000
0000
0000
00M0
0000
0000
0M00
0000
0000
000M
0000
,
0000
M000
0000
0000
0M00
0000
0000
0000
0000
0000
0000
0000
0000
0000
0000
0000
,
0010
0000
0100
0010
0002
0000
0003
0000
,
1000
0000
0010
1000
0200
0000
0300
0000
,
0010
0000
0100
1000
0002
0000
0003
0000
,
0010
0000
0001
1000
0020
0000
0130
0000
,
0010
0000
0100
0001
2000
0000
3000
0000
,
0100
0000
0010
0001
0020
0000
0130
0000
,
1000
0010
0100
0001
0200
0000
0300
0000
,
0010
0020
0000
0000
1000
0000
0001
0000
,
1030
1000
0000
0000
0011
0000
0100
0000
,
1000
1000
0000
0000
0101
0000
0010
0000
,
0100
0100
0000
0000
1001
0000
0010
0000
,
0100
0100
0000
0000
0020
0000
0032
0000
,
0013
0010
0000
0000
1100
0000
0010
0000
,
0001
0001
0000
0000
1010
0000
0001
0000
,
0010
0010
0000
0000
0100
0010
0100
1000
,
0001
0002
0000
0000
1000
0000
0010
0000
,
1MM3
0000
0000
0000
,
0M00
0000
0000
0000
,
00M0
0000
0000
0000
,
M000
0000
000M
0110
,
1001
0000
0001
0100
0010
0000
0010
0000
,
1000
0100
0010
0000
0100
0000
1000
0001
,
0100
0000
0100
0000
0010
0100
0001
0000
,
0001
1000
0100
1000
0001
0100
0001
0010
,
0001
1000
0010
1000
0001
0000
0010
0001
,
1000
0000
0010
0000
0100
0010
1000
0000
,
0100
0000
0010
0001
1000
0000
0010
0000
,
0100
0001
0100
0000
0010
1000
0010
1000
,
0001
0100
0001
0100
0001
0010
0100
1000
,
0001
0110
0000
000M
,
0000
M000
0M00
000M
,
0000
00M0
000M
0M00
,
0000
00M0
M000
0M00
,
0000
0001
0100
0010
,
1000
0000
0100
0000
1000
0010
0100
0000
,
0001
0010
0100
1000
,
0100
0010
0002
0000
0000
0000
2000
0000
,
3003
0000
0220
0000
0000
0000
0000
0330
,
0000
0000
0000
0000
,
0000
0000
M000
0M00
M000
0M00
M000
000M
,
M000
000M
0M00
000M
0M00
000M
0M00
00M0
,
0M00
00M0
M000
00M0
M000
000M
00M0
000M
,
0M00
00M0
M000
00M0
0M00
000M
00M0
0M00
,
M000
0M00
00M0
000M
0M00
000M
M000
00M0
,
M000
0M00
00M0
0M00
M000
000M
0M00
00M0
,
M000
00M0
0M00
000M
M000
00M0
0M00
00M0
,
M000
0M00
00M0
000M
00M0
000M
M000
00M0
,
M000
000M
0M00
000M
M000
0M00
M001
0100
,
0010
1000
0002
0000
0000
0000
0003
0000
,
0010
0001
0200
0000
0000
0000
0300
0000
,
1000
0100
0002
0000
0000
0000
0003
0000
,
1000
0100
0002
0000
0000
0000
0103
0010
,
0002
2003
0000
3000
,
0001
0010
0200
0000
0000
0000
0300
0000
,
0001
0100
2000
0000
0000
0000
3000
0000
,
0001
0100
1000
0100
0010
0100
0001
0010
,
0200
0000
0000
0000
,
0300
0000
0100
0010
0000
0010
0000
0100
,
0000
1000
0001
1000
0000
1000
0000
0010
,
0000
0100
0001
0100
0000
0100
0000
0010
,
0000
0100
0001
0010
0000
0100
0000
1000
,
0000
0100
0010
0000
0010
0000
0100
1000
,
0001
0100
0010
0000
0010
0000
0100
0001
,
1000
0100
0001
0000
0001
0000
0100
0010
,
0001
0100
1000
1000
0000
0000
0100
0001
,
0001
0000
1000
0100
1000
0001
0000
0001
,
0000
0010
0001
0100
0001
1000
0000
1000
,
0000
0100
0010
0100
1000
0001
0000
0001
,
0000
0010
0001
0100
0010
1000
0000
0010
,
0100
0001
0010
0020
0000
0000
0001
0000
,
1000
0000
0130
0200
0000
0000
0001
0000
,
0010
2300
0000
0010
,
0000
0000
3001
0000
1000
0000
0001
1000
,
0001
0000
1000
0000
0020
0030
0000
0010
0000
0000
0000
0000
0200
0300
0000
0100
,
0000
0000
0000
0000
0002
0003
0000
0001
0000
0000
0000
0000
2000
3000
0000
2000
,
3000
0001
0010
0100
,
0001
1000
0010
0001
,
0100
0020
0000
0000
,
0000
0030
0000
0000
0000
0000
0000
0000
;

//---------------dance-single - Telperion----------------
#NOTES:
     dance-single:
     Telperion:
     Easy:
     3:
     0.211,0.252,0.016,0.132,0.000,171.000,2.000,17.000,0.000,0.000,0.000,0.000,0.211,0.252,0.016,0.132,0.000,171.000,2.000,17.000,0.000,0.000,0.000,0.000:
0000
0000
0000
0000
,
0000
0000
0000
0000
,
0000
0000
0000
0000
,
1000
0001
1000
0000
,
0100
0010
0100
0000
,
1000
0001
1000
0000
,
0010
0100
0010
0000
,
1000
0100
0010
0000
,
0001
0010
0100
0000
,
1000
0010
0100
0000
,
0002
0000
2000
3003
,
0001
1000
0001
0000
,
0010
0100
0010
0000
,
0001
1000
0001
0000
,
0100
0010
0100
0000
,
0001
0100
0010
0000
,
1000
0100
0010
0000
,
0001
0010
0100
0000
,
2000
0000
0002
3003
,
0010
0000
0000
0000
,
0100
0000
0000
0000
,
1000
0000
0000
0000
,
0001
0000
1000
1001
,
0010
0100
0010
0100
,
0001
0100
0001
0100
,
0001
1000
0100
0010
,
0002
0000
0000
0000
,
0003
0001
1000
0100
,
1000
0100
1000
0001
,
1000
0001
0100
0010
,
0100
0010
1000
0010
,
0100
0001
0010
0100
,
1000
0010
0000
0000
,
0000
0000
0000
0000
,
0000
0000
0000
0000
,
0000
0000
0000
0000
,
0000
0010
0000
0000
,
0000
0010
0000
0000
,
0000
0010
0000
0000
,
0000
0010
0100
0001
,
0010
0000
0200
0000
0000
0000
0000
0300
,
0000
0000
0000
0000
,
0000
0000
0000
0000
,
0000
0000
0000
0000
,
0000
0000
0000
0000
,
0000
0000
0000
0000
,
0000
0000
0000
0000
,
0000
0000
0000
0000
,
0000
0000
0000
0000
,
0000
0000
0000
0000
,
0000
0000
0000
0000
,
0000
1000
0001
0010
,
0000
0001
1000
0010
,
0000
0100
0001
1000
,
0000
0100
1000
0001
,
0000
0010
0100
1000
,
0000
0010
0100
0001
,
0000
1000
0100
0010
,
0000
0001
1000
0010
,
0220
0000
0000
0000
,
0330
0010
0100
0000
,
0100
0001
0100
0000
,
0001
1000
0001
0000
,
1000
0100
1000
0000
,
0100
0010
0100
0000
,
0100
1000
0100
0000
,
1000
0001
1000
0000
,
0001
0100
0000
0010
,
0100
0001
0001
0000
,
1000
0100
0100
0000
,
0100
1000
1000
0000
,
0001
0100
0100
0010
,
0010
0200
0000
0300
,
0100
0020
0000
0030
,
0010
2000
0000
0000
,
0000
0002
0000
0000
,
3003
0000
0000
0000
0020
0000
0000
0030
0000
0000
0000
0000
0200
0000
0000
0300
,
0000
0000
0000
0000
2000
0000
0000
3000
0000
0000
0000
0000
0002
0000
0000
0003
,
0000
0100
0000
0010
,
0000
1000
0000
0010
,
0000
0002
0000
0000
,
0000
0003
0000
0000
0000
0000
0000
0000
;

//---------------dance-single - Telperion----------------
#NOTES:
     dance-single:
     Telperion:
     Beginner:
     1:
     0.079,0.189,0.023,0.023,0.000,65.000,3.000,3.000,0.000,0.000,0.000,0.000,0.079,0.189,0.023,0.023,0.000,65.000,3.000,3.000,0.000,0.000,0.000,0.000:
0000
0000
0000
0000
,
0000
0000
0000
0000
,
0000
0000
0000
0000
,
0010
0000
0000
0000
,
0000
0000
0000
0000
,
0010
0000
0000
0000
,
0000
0000
0000
0000
,
0100
0000
0000
0000
,
0000
0000
0000
0000
,
0001
0000
0000
0000
,
1000
0000
0000
0000
,
0001
0000
0000
0000
,
0001
0000
0000
0000
,
1000
0000
0000
0000
,
1000
0000
0000
0000
,
0100
0000
0000
0000
,
0100
0000
0000
0000
,
0010
0000
0000
0000
,
0001
0000
0000
0000
,
0100
0000
0000
0000
,
0000
0000
0000
0000
,
0000
0000
0000
0000
,
0000
0000
0100
0110
,
0001
0000
0000
0000
,
0000
0000
0000
0000
,
0000
0000
0000
0000
,
0001
0000
0000
0000
,
0010
0110
1000
0000
,
0000
0000
0000
0000
,
0000
0000
0000
0000
,
0000
0000
0010
0000
,
0000
0000
0000
0000
,
0000
0100
0000
0000
,
0000
0000
0000
0000
,
0000
0000
0000
0000
,
0000
0000
0000
0000
,
0000
0001
0000
0000
,
0000
0001
0000
0000
,
0000
1000
0000
0000
,
0000
1000
0000
0100
,
0010
0001
0000
0000
,
0000
0000
0000
0000
,
0000
0000
0000
0000
,
0000
0000
0000
0000
,
0000
0000
0000
0000
,
0000
0000
0000
0000
,
0000
0000
0000
0000
,
0000
0000
0000
0000
,
0000
0000
0000
0000
,
0000
0000
0000
0000
,
0000
0000
0000
0000
,
0000
0100
0000
0000
,
0000
0100
0000
0000
,
0000
0100
0000
0000
,
0000
0010
0000
0000
,
0000
1000
0000
0000
,
0000
1000
0000
0000
,
0000
0001
0000
0000
,
0000
0010
0000
0100
,
0220
0000
0000
0000
,
0330
1000
0000
0000
,
0000
1000
0000
0000
,
0000
0001
0000
0000
,
0000
0001
0000
0000
,
0000
0100
0000
0000
,
0000
0100
0000
0000
,
0000
0010
0000
0000
,
0000
0010
0000
0000
,
0000
0100
0000
0000
,
0000
0001
0000
0000
,
0000
1000
0000
0000
,
0000
0100
0000
0000
,
0000
0010
0000
0000
,
0000
0010
0000
0000
,
0000
0100
0000
0000
,
0000
1000
0000
0000
,
0000
0001
0000
0100
,
0000
0010
0000
1000
,
0000
0010
0000
0100
,
0000
0001
0000
1000
,
0000
0200
0000
0000
,
0000
0300
0000
0000
0000
0000
0000
0000
;

//---------------dance-double - Telperion----------------
#NOTES:
     dance-double:
     Telperion:
     Hard:
     9:
     0.532,0.628,0.039,0.334,0.186,432.000,5.000,43.000,158.000,5.000,0.000,0.000,0.532,0.628,0.039,0.334,0.186,432.000,5.000,43.000,158.000,5.000,0.000,0.000: // measure 1
0000000M
00000000
00000000
00000000
00000000
00000000
00000000
00000000
000000M0
00000000
00000000
00000000
00000000
00000000
00000000
00000000
00000M00
00000000
0000M000
00000000
000M0000
00M00000
0M000000
M0000000
0000000M
00000000
00000000
00000000
00000000
00000000
00000000
00000000
,  // measure 2
M0000000
00000000
00000000
00000000
0M000000
00000000
00000000
00000000
00M00000
00000000
00000000
000M0000
00000000
00000000
0000M000
00000000
,  // measure 3
00000000
00000M00
00000000
00000000
000000M0
00000000
00000000
00000000
00000000
00000000
00000000
00000000
00000000
00000000
00000000
00000000
,  // measure 4
00000001
00000100
00000010
00001000
01000000
10000000
00100000
00000000
,  // measure 5
10000000
01000000
00100000
00001000
00000100
00000001
00000010
00000000
,  // measure 6
00000001
00001000
00000100
00010000
01000000
10000000
00100000
00000000
,  // measure 7
10000000
00010000
01000000
00100000
00001000
00000010
00000100
00000000
,  // measure 8
00000001
00001000
00000100
00010000
01000000
00100000
00010000
00000000
,  // measure 9
10000000
00010000
00100000
00001000
00000100
00000010
00001000
00000000
,  // measure 10
00000001
00000010
00000100
00001000
00010000
00100000
01000000
10000000
,  // measure 11
00100000
00200000
00000000
00000000
01300000
00000000
01100000
00000000
,  // measure 12
00020000
00000000
00000000
00000000
00000000
00000000
00000000
00000000
00000000
00000000
00000000
00000000
00000000
00000000
00000000
00000000
00000000
00000000
00000000
00000000
00000000
00000000
00000000
00030000
00010000
00000000
00000000
00000000
00000000
00000000
00000000
00000000
00000000
00000000
00000000
00000000
00000000
00000000
00000000
00000000
00000000
00000000
00000000
00000000
00000000
00000000
00000000
00000000
00001000
00000000
00000000
00000000
00000000
00000000
00000000
00000000
00000000
00000000
00000000
00000000
00000000
00000000
00000000
00000000
00000000
00000000
00000000
00000000
00000000
00000000
00000000
00000000
00010000
00000000
00000000
00000000
00000000
00000000
00000000
00000000
00000000
00000000
00000000
00000000
00000000
00000000
00000000
00000000
00000000
00000000
00000000
00000000
00000000
00000000
00000000
00000000
00000100
00000000
00000000
00000000
00000000
00000000
00000000
00000000
00000000
00000000
00000000
00000000
00000000
00000000
00000000
00000000
00000000
00000000
00000000
00000000
00000000
00000000
00000000
00000000
00000010
00000000
00000000
00000000
00000000
00000000
00000000
00000000
00000000
00000000
00000000
00000000
00000000
00000000
00000000
00000000
00000000
00000000
00000000
00000000
00000000
00000000
00000000
00000000
00000001
00000000
00000000
00000000
00000000
00000000
00000000
00000000
00000000
00000000
00000000
00000000
00000000
00000000
00000000
00000000
00000000
00000000
00000000
00000000
00000000
00000000
00000000
00000000
00000000
00000000
00000000
00000000
00000000
00000000
00000000
00000000
00000000
00000000
00000000
00000000
00000000
00000000
00000000
00000000
00000000
00000000
00000000
00000000
00000000
00000000
00000000
00000000
,  // measure 13
00002000
00000000
00000000
00000000
00000000
00000000
00000000
00000000
00000000
00000000
00000000
00000000
00000000
00000000
00000000
00000000
00000000
00000000
00000000
00000000
00000000
00000000
00000000
00003000
00001000
00000000
00000000
00000000
00000000
00000000
00000000
00000000
00000000
00000000
00000000
00000000
00000000
00000000
00000000
00000000
00000000
00000000
00000000
00000000
00000000
00000000
00000000
00000000
00010000
00000000
00000000
00000000
00000000
00000000
00000000
00000000
00000000
00000000
00000000
00000000
00000000
00000000
00000000
00000000
00000000
00000000
00000000
00000000
00000000
00000000
00000000
00000000
00001000
00000000
00000000
00000000
00000000
00000000
00000000
00000000
00000000
00000000
00000000
00000000
00000000
00000000
00000000
00000000
00000000
00000000
00000000
00000000
00000000
00000000
00000000
00000000
00100000
00000000
00000000
00000000
00000000
00000000
00000000
00000000
00000000
00000000
00000000
00000000
00000000
00000000
00000000
00000000
00000000
00000000
00000000
00000000
00000000
00000000
00000000
00000000
01000000
00000000
00000000
00000000
00000000
00000000
00000000
00000000
00000000
00000000
00000000
00000000
00000000
00000000
00000000
00000000
00000000
00000000
00000000
00000000
00000000
00000000
00000000
00000000
10000000
00000000
00000000
00000000
00000000
00000000
00000000
00000000
00000000
00000000
00000000
00000000
00000000
00000000
00000000
00000000
00000000
00000000
00000000
00000000
00000000
00000000
00000000
00000000
00000000
00000000
00000000
00000000
00000000
00000000
00000000
00000000
00000000
00000000
00000000
00000000
00000000
00000000
00000000
00000000
00000000
00000000
00000000
00000000
00000000
00000000
00000000
00000000
,  // measure 14
00020000
00000000
00000000
00000000
00000000
00000000
00000000
00000000
00000000
00000000
00000000
00000000
00000000
00000000
00000000
00000000
00000000
00000000
00000000
00000000
00000000
00000000
00000000
00030000
00010000
00000000
00000000
00000000
00000000
00000000
00000000
00000000
00000000
00000000
00000000
00000000
00000000
00000000
00000000
00000000
00000000
00000000
00000000
00000000
00000000
00000000
00000000
00000000
00001000
00000000
00000000
00000000
00000000
00000000
00000000
00000000
00000000
00000000
00000000
00000000
00000000
00000000
00000000
00000000
00000000
00000000
00000000
00000000
00000000
00000000
00000000
00000000
00100000
00000000
00000000
00000000
00000000
00000000
00000000
00000000
00000000
00000000
00000000
00000000
00000000
00000000
00000000
00000000
00000000
00000000
00000000
00000000
00000000
00000000
00000000
00000000
00010000
00000000
00000000
00000000
00000000
00000000
00000000
00000000
00000000
00000000
00000000
00000000
00000000
00000000
00000000
00000000
00000000
00000000
00000000
00000000
00000000
00000000
00000000
00000000
01000000
00000000
00000000
00000000
00000000
00000000
00000000
00000000
00000000
00000000
00000000
00000000
00000000
00000000
00000000
00000000
00000000
00000000
00000000
00000000
00000000
00000000
00000000
00000000
00001000
00000000
00000000
00000000
00000000
00000000
00000000
00000000
00000000
00000000
00000000
00000000
00000000
00000000
00000000
00000000
00000000
00000000
00000000
00000000
00000000
00000000
00000000
00000000
00000000
00000000
00000000
00000000
00000000
00000000
00000000
00000000
00000000
00000000
00000000
00000000
00000000
00000000
00000000
00000000
00000000
00000000
00000000
00000000
00000000
00000000
00000000
00000000
,  // measure 15
00020000
00000000
00000000
00000000
00000000
00000000
00000000
00000000
00000000
00000000
00000000
00000000
00000000
00000000
00000000
00000000
00000000
00000000
00000000
00000000
00000000
00000000
00000000
00030000
00010000
00000000
00000000
00000000
00000000
00000000
00000000
00000000
00000000
00000000
00000000
00000000
00000000
00000000
00000000
00000000
00000000
00000000
00000000
00000000
00000000
00000000
00000000
00000000
00100000
00000000
00000000
00000000
00000000
00000000
00000000
00000000
00000000
00000000
00000000
00000000
00000000
00000000
00000000
00000000
00000000
00000000
00000000
00000000
00000000
00000000
00000000
00000000
01000000
00000000
00000000
00000000
00000000
00000000
00000000
00000000
00000000
00000000
00000000
00000000
00000000
00000000
00000000
00000000
00000000
00000000
00000000
00000000
00000000
00000000
00000000
00000000
10000000
00000000
00000000
00000000
00000000
00000000
00000000
00000000
00000000
00000000
00000000
00000000
00000000
00000000
00000000
00000000
00000000
00000000
00000000
00000000
00000000
00000000
00000000
00000000
01000000
00000000
00000000
00000000
00000000
00000000
00000000
00000000
00000000
00000000
00000000
00000000
00000000
00000000
00000000
00000000
00000000
00000000
00000000
00000000
00000000
00000000
00000000
00000000
00010000
00000000
00000000
00000000
00000000
00000000
00000000
00000000
00000000
00000000
00000000
00000000
00000000
00000000
00000000
00000000
00000000
00000000
00000000
00000000
00000000
00000000
00000000
00000000
00001000
00000000
00000000
00000000
00000000
00000000
00000000
00000000
00000000
00000000
00000000
00000000
00000000
00000000
00000000
00000000
00000000
00000000
00000000
00000000
00000000
00000000
00000000
00000000
,  // measure 16
00020000
00000000
00000000
00000000
00000000
00000000
00000000
00000000
00000000
00000000
00000000
00000000
00000000
00000000
00000000
00000000
00000000
00000000
00000000
00000000
00000000
00000000
00000000
00030000
00010000
00000000
00000000
00000000
00000000
00000000
00000000
00000000
00000000
00000000
00000000
00000000
00000000
00000000
00000000
00000000
00000000
00000000
00000000
00000000
00000000
00000000
00000000
00000000
00100000
00000000
00000000
00000000
00000000
00000000
00000000
00000000
00000000
00000000
00000000
00000000
00000000
00000000
00000000
00000000
00000000
00000000
00000000
00000000
00000000
00000000
00000000
00000000
00001000
00000000
00000000
00000000
00000000
00000000
00000000
00000000
00000000
00000000
00000000
00000000
00000000
00000000
00000000
00000000
00000000
00000000
00000000
00000000
00000000
00000000
00000000
00000000
00010000
00000000
00000000
00000000
00000000
00000000
00000000
00000000
00000000
00000000
00000000
00000000
00000000
00000000
00000000
00000000
00000000
00000000
00000000
00000000
00000000
00000000
00000000
00000000
00000010
00000000
00000000
00000000
00000000
00000000
00000000
00000000
00000000
00000000
00000000
00000000
00000000
00000000
00000000
00000000
00000000
00000000
00000000
00000000
00000000
00000000
00000000
00000000
00010000
00000000
00000000
00000000
00000000
00000000
00000000
00000000
00000000
00000000
00000000
00000000
00000000
00000000
00000000
00000000
00000000
00000000
00000000
00000000
00000000
00000000
00000000
00000000
00000000
00000000
00000000
00000000
00000000
00000000
00000000
00000000
00000000
00000000
00000000
00000000
00000000
00000000
00000000
00000000
00000000
00000000
00000000
00000000
00000000
00000000
00000000
00000000
,  // measure 17
00002000
00000000
00000000
00000000
00000000
00000000
00000000
00000000
00000000
00000000
00000000
00000000
00000000
00000000
00000000
00000000
00000000
00000000
00000000
00000000
00000000
00000000
00000000
00003000
00001000
00000000
00000000
00000000
00000000
00000000
00000000
00000000
00000000
00000000
00000000
00000000
00000000
00000000
00000000
00000000
00000000
00000000
00000000
00000000
00000000
00000000
00000000
00000000
00000100
00000000
00000000
00000000
00000000
00000000
00000000
00000000
00000000
00000000
00000000
00000000
00000000
00000000
00000000
00000000
00000000
00000000
00000000
00000000
00000000
00000000
00000000
00000000
00000010
00000000
00000000
00000000
00000000
00000000
00000000
00000000
00000000
00000000
00000000
00000000
00000000
00000000
00000000
00000000
00000000
00000000
00000000
00000000
00000000
00000000
00000000
00000000
00000100
00000000
00000000
00000000
00000000
00000000
00000000
00000000
00000000
00000000
00000000
00000000
00000000
00000000
00000000
00000000
00000000
00000000
00000000
00000000
00000000
00000000
00000000
00000000
00010000
00000000
00000000
00000000
00000000
00000000
00000000
00000000
00000000
00000000
00000000
00000000
00000000
00000000
00000000
00000000
00000000
00000000
00000000
00000000
00000000
00000000
00000000
00000000
00001000
00000000
00000000
00000000
00000000
00000000
00000000
00000000
00000000
00000000
00000000
00000000
00000000
00000000
00000000
00000000
00000000
00000000
00000000
00000000
00000000
00000000
00000000
00000000
00000000
00000000
00000000
00000000
00000000
00000000
00000000
00000000
00000000
00000000
00000000
00000000
00000000
00000000
00000000
00000000
00000000
00000000
00000000
00000000
00000000
00000000
00000000
00000000
,  // measure 18
00020000
00000000
00000000
00000000
00000000
00000000
00000000
00000000
00000000
00000000
00000000
00000000
00000000
00000000
00000000
00000000
00000000
00000000
00000000
00000000
00000000
00000000
00000000
00030000
00010000
00000000
00000000
00000000
00000000
00000000
00000000
00000000
00000000
00000000
00000000
00000000
00000000
00000000
00000000
00000000
00000000
00000000
00000000
00000000
00000000
00000000
00000000
00000000
00100000
00000000
00000000
00000000
00000000
00000000
00000000
00000000
00000000
00000000
00000000
00000000
00000000
00000000
00000000
00000000
00000000
00000000
00000000
00000000
00000000
00000000
00000000
00000000
00010000
00000000
00000000
00000000
00000000
00000000
00000000
00000000
00000000
00000000
00000000
00000000
00000000
00000000
00000000
00000000
00000000
00000000
00000000
00000000
00000000
00000000
00000000
00000000
10000000
00000000
00000000
00000000
00000000
00000000
00000000
00000000
00000000
00000000
00000000
00000000
00000000
00000000
00000000
00000000
00000000
00000000
00000000
00000000
00000000
00000000
00000000
00000000
01000000
00000000
00000000
00000000
00000000
00000000
00000000
00000000
00000000
00000000
00000000
00000000
00000000
00000000
00000000
00000000
00000000
00000000
00000000
00000000
00000000
00000000
00000000
00000000
00010000
00000000
00000000
00000000
00000000
00000000
00000000
00000000
00000000
00000000
00000000
00000000
00000000
00000000
00000000
00000000
00000000
00000000
00000000
00000000
00000000
00000000
00000000
00000000
00001000
00000000
00000000
00000000
00000000
00000000
00000000
00000000
00000000
00000000
00000000
00000000
00000000
00000000
00000000
00000000
00000000
00000000
00000000
00000000
00000000
00000000
00000000
00000000
,  // measure 19
00000100
00000200
00000000
00000000
00000310
00000000
00000110
00000000
,  // measure 20
00000002
00000000
00000000
00000000
,  // measure 21
00002003
00000000
00000000
00000000
,  // measure 22
00023000
00000000
00000000
00000000
,  // measure 23
20030000
00000000
30100000
MM0110MM
,  // measure 24
00000100
00000010
00000001
00000010
00001000
00010000
00100000
01000000
,  // measure 25
00100000
00010000
00001000
00000100
00000010
00000001
00000010
00001000
,  // measure 26
00010000
01000000
10000000
01000000
00100000
10000000
00100000
00010000
,  // measure 27
0000100M
0010000M
0001000M
1000000M
0001000M
0010000M
0000100M
0001000M
,  // measure 28
0000020M
0000000M
0000000M
0000000M
0000030M
00000000
00000000
00000000
00000010
00000000
00000100
00000000
00000001
00000000
00000100
00000000
,  // measure 29
00001000
00010000
00100000
01000000
00100000
00010000
10000000
01000000
,  // measure 30
00010000
00001000
00000010
00000001
00000010
00000100
00001000
00000001
,  // measure 31
00000010
00000100
00001000
00010000
M0100000
M0001000
M0010000
M0100000
,  // measure 32
M1000000
00000000
M0100000
00000000
M0010000
00000000
M0001000
00000000
M0000100
0M000000
M0000010
00M00000
0M000002
000M0000
00M00000
00000M00
,  // measure 33
000M0000
000000M0
00000M00
00000000
00001003
00000000
00000000
00000000
00000000
00000000
00000000
00000000
00000000
00000000
00000000
00000000
,  // measure 34
00000000
00000000
00000000
00000000
,  // measure 35
00000000
00000000
00000000
00000000
,  // measure 36
00000000
00000000
00000000
00000000
,  // measure 37
00000000
00000000
00000000
00000000
M0000010
00000000
00000001
00001000
000M0001
00000000
00000000
00000000
0MM00100
00000000
00000010
00000100
,  // measure 38
000M0010
00000000
00000000
00000000
M0001000
00000000
00000100
00010000
0M001000
00000000
00010000
00000000
000010MM
00000000
01000000
00010000
,  // measure 39
010000M0
00000000
00000000
00000000
0010000M
00000000
10000000
00010000
10000M00
00000000
00000000
00000000
0100M0M0
00000000
00100000
01000000
,  // measure 40
00100M00
01000000
2000000M
00000000
010000M0
0001M000
30200M00
00000000
,  // measure 41
0130000M
0000M000
0000000M
00000000
20020MM0
00000000
00000000
00000000
00000000
00000000
00000000
00000000
00000000
00000000
30030000
00000000
,  // measure 42
00000000
00000000
00000000
00000000
,  // measure 43
00000000
00000000
0000000M
000000M0
00000M00
000M0000
0000M000
0M000000
,  // measure 44
00M00000
M0000000
000M0002
00M00000
0M000000
00M00000
0000M023
000M0000
,  // measure 45
0000023M
0000M000
000203M0
0000000M
00000M00
0000M000
000000M0
0000M000
,  // measure 46
00030M00
00M00000
000M2000
M0000000
0M000000
000M0000
020030M0
00000M00
,  // measure 47
0320M000
00000M00
2M300000
000M0000
00M00000
0000M000
000M0000
00000M00
,  // measure 48
3000000M
0000M000
M0020000
0M000000
00M00000
00000M00
0203M000
00000M00
,  // measure 49
032M0000
M0000000
0M302000
M0000000
00M00000
000M0000
0M000000
00000M00
,  // measure 50
000030M0
00000M00
0000M020
0000000M
00000M00
000M0000
0000203M
00000M00
,  // measure 51
000030M2
00000000
00M00000
00000000
0000M023
00000000
0M000000
00000000
0000000M
00000000
000M0000
00000000
M0000130
00000010
00M00100
00000010
,  // measure 52
0000M001
0M000000
00001000
00000010
00000100
00001000
00010000
00001000
,  // measure 53
00100000
00010000
00100000
00010000
00100000
00000000
01000000
00000000
00010000
00000000
00001000
00000000
00000100
00000000
00000010
00000000
,  // measure 54
00001000
00000100
00001000
00000100
00001000
00000000
00000001
00000000
00000010
00000000
00000100
00000000
00010000
00000000
00001000
00000000
,  // measure 55
01000000
00010000
01000000
00010000
01000000
00000000
00100000
00000000
01000000
00000000
10000000
00000000
01000000
00000000
00100000
00000000
,  // measure 56
00010000
00000000
00001000
00100000
01000000
10000000
01000000
00010000
,  // measure 57
00001000
00010000
00001000
00010000
00001000
00000000
00000100
00000000
00000010
00000000
00001000
00000000
00000001
00000000
00000010
00000000
,  // measure 58
00000100
00001000
00000100
00001000
00000100
00000000
00000010
00000000
00001000
00000000
00010000
00000000
00000100
00000000
00010000
00000000
,  // measure 59
01000000
10000000
00100000
01000000
10000000
00010000
00001000
00000010
,  // measure 60
M0000001
000M0000
0M000000
0000M000
00M00000
M0000M00
000M0000
0000M000
,  // measure 61
0M000000
00000000
00000010
00000001
00000100
00001000
00000000
00010000
,  // measure 62
01000000
10000000
00100000
10000000
01000000
00010000
00000000
00001000
,  // measure 63
00000010
00000001
00000100
00000001
00000010
00001000
00000000
00010000
,  // measure 64
00100000
10000000
01000000
00100000
00010000
00001000
00000100
00000010
,  // measure 65
00000001
00000000
00001000
00000100
00000010
00001000
00000000
00010000
,  // measure 66
00100000
01000000
00010000
00100000
01000000
00010000
00000000
00001000
,  // measure 67
00000100
00000001
00000010
00000100
00000010
00001000
00000000
00010000
,  // measure 68
00100000
01000000
00100000
00200000
00000000
00000000
01300000
00000000
,  // measure 69
01100000
00000000
10000000
01000000
00100000
00001000
00000100
00000010
,  // measure 70
00010000
00000000
00000010
00001000
00000100
00000010
00001000
00010000
,  // measure 71
00100000
00000000
01000000
00100000
00010000
00001000
00000100
00000001
,  // measure 72
00000010
00000000
00000001
00000010
00000100
00010000
00001000
01000000
,  // measure 73
00010000
00100000
01000000
02000000
00000000
00000000
10000000
00000000
,  // measure 74
00010000
00000000
00100000
00200000
00000000
00000000
00001000
00000000
,  // measure 75
00010000
00000200
00000000
00000010
,  // measure 76
00000000
00000020
00000000
00000330
,  // measure 77
03300000
00000000
00000000
00000000
01000000
01000000
00000000
01000000
00000000
00000000
00000000
00000000
10000000
10000000
00000000
10000000
,  // measure 78
00000000
00000000
00000000
00000000
00010000
00010000
00000000
00010000
00000000
00000000
00000000
00000000
00100000
00100000
00000000
00100000
,  // measure 79
00000000
00000000
00000000
00000000
00001000
00001000
00000000
00010000
00000010
00000000
00000000
00000010
00000100
00000000
00000000
00000100
,  // measure 80
00000001
00000000
00000000
00000001
00001000
00001000
00000000
00000100
00010000
00000000
00001000
00010000
02000000
00000000
00000000
00000000
,  // measure 81
23000000
00000000
30200000
00000000
00000000
00000000
00000000
00300000
;
