#TITLE:FREE;
#SUBTITLE:;
#ARTIST:AVTechNO! feat. tisDANNYdesu;
#TITLETRANSLIT:;
#SUBTITLETRANSLIT:;
#ARTISTTRANSLIT:;
#GENRE:Vocaloid Cover;
#CREDIT:AznPunk07/Frozen_Heat/GuardianFrozen;
#MENUCOLOR:#8bfffb;
#METERTYPE:DDR;
#BANNER:FREE ver tisDANNYdesu-bn.png;
#BACKGROUND:FREE ver tisDANNYdesu-bg.png;
#LYRICSPATH:FREE ver tisDANNYdesu.lrc;
#CDTITLE:!cdtitle.png;
#MUSIC:FREE ver tisDANNYdesu.mp3;
#OFFSET:-1.360;
#SAMPLESTART:39.420;
#SAMPLELENGTH:15.360;
#SELECTABLE:YES;
#LISTSORT:;
#BPMS:0.000=126.000;
#STOPS:;
#BGCHANGES:;
#ATTACKS:;

//---------------dance-single - ----------------
#NOTES:
     dance-single:
     :
     Hard:
     7:
     0.375,0.380,0.025,0.008,0.137:
0000
0000
0000
0000
,
0000
0000
0000
0000
,
0000
0000
0000
0000
,
0000
0000
0000
0000
,
0001
0000
0100
0000
1000
0000
0100
0010
,
0000
0001
0010
0001
0000
0100
1000
0100
,
0000
0000
0010
0000
0001
1000
0000
1000
,
0001
0000
0000
0100
0000
0010
0000
1000
,
0000
0001
0010
0000
1000
0001
1000
0000
,
0010
1000
0010
0000
0100
0000
0001
1000
,
0000
0000
1000
0000
0100
0000
0010
0001
,
0000
0000
1000
0001
1000
0001
0000
0000
,
1000
0000
0000
1000
0010
0000
0000
0010
0100
0000
0000
0000
0000
0000
0000
0000
,
0001
0000
0000
0001
0010
0000
0000
0010
1000
0000
0010
0000
0100
0000
0000
0000
,
1000
0000
0000
1000
0001
0000
0000
0001
0100
0000
0000
0000
0000
0000
0000
0000
,
0001
0000
0000
0001
0100
0000
0000
0100
1000
0000
0100
0000
0010
0000
0000
0000
,
1000
0000
0000
1000
0001
0000
0000
0001
0010
0000
0001
0000
0000
0000
0000
0000
,
0100
0000
0000
0100
0010
0000
0000
0010
1000
0000
0001
0000
0010
0000
0100
0000
,
1000
0000
0000
1000
0010
0000
0000
0010
0100
0000
0010
0000
0000
0000
0000
0000
,
0001
0000
0000
0001
0010
0000
0000
0010
0100
0000
1000
0000
0010
0000
1000
0000
,
0000
0001
0100
0000
0001
0000
1000
0100
,
1000
0000
0010
0000
0100
0001
0000
0000
,
1000
0000
0100
0000
0010
0100
0010
0000
,
0001
0000
1000
0010
1000
0010
0000
0100
,
0001
0000
1000
0001
1000
0000
0100
0000
,
0010
0011
0100
1100
,
0001
1000
0001
0000
0100
0010
0100
0000
,
0001
0000
1000
0000
0100
0010
0001
0000
,
1000
0010
1000
0000
0001
1000
0001
0000
,
0010
0000
0100
0000
0010
0001
0010
0001
,
0000
1000
0001
0000
1000
0000
1000
1000
,
0000
0010
0100
0010
1000
0000
0100
1000
,
0001
0000
0100
0000
0001
1000
0010
0100
,
0001
0000
0010
0000
0100
1000
0001
0100
,
0000
0010
0000
1000
0001
1000
0000
0100
,
0000
0000
0010
0001
0000
0000
0001
1000
,
0000
0001
0010
0000
0100
0010
0001
0000
,
0001
0000
1000
0000
0010
0100
0001
0100
,
0000
0010
1000
0000
0100
0000
1000
0010
,
0001
0000
0010
0000
0100
0001
1000
0100
,
0000
0010
0100
0000
1000
0001
0000
1000
,
0000
0010
0000
0100
0001
0100
0010
1000
,
0001
0010
0001
0000
1000
0001
1000
0000
,
0010
0100
0000
0001
0000
1000
0000
0001
,
0010
1000
0010
0000
0100
1000
0100
0000
,
0010
0001
0000
1000
0001
1000
0000
0010
,
0000
0100
0001
0000
0010
0001
1000
0000
,
1000
0001
0100
0001
1000
0100
0000
0001
,
0010
1000
0000
1000
0010
0001
0000
1000
,
0001
0000
0000
0100
0000
0010
0000
1000
,
0010
0001
0000
0010
0000
0100
0000
0001
,
0000
1000
0100
0110
,
0001
0000
0000
0001
0100
0000
0000
0100
0010
0000
0000
0000
0000
0000
0000
0000
,
1000
0000
0000
1000
0100
0000
0000
0100
0001
0000
0100
0000
0010
0000
0000
0000
,
0001
0000
0000
0001
1000
0000
0000
1000
0010
0000
0000
0000
0000
0000
0000
0000
,
1000
0000
0000
1000
0010
0000
0000
0010
0001
0000
0010
0000
0100
0000
0000
0000
,
0001
0000
0000
0001
1000
0000
0000
1000
0100
0000
1000
0000
0000
0000
0000
0000
,
0010
0000
0000
0010
0100
0000
0000
0100
0001
0000
1000
0000
0100
0000
0010
0000
,
0001
0000
0000
0001
0100
0000
0000
0100
0010
0000
0100
0000
0000
0000
0000
0000
,
1000
0000
0000
1000
0100
0000
0000
0100
0010
0001
0000
0000
0002
0000
0000
0000
,
0000
0000
0000
0003
;

//---------------dance-single - ----------------
#NOTES:
     dance-single:
     :
     Challenge:
     8:
     0.518,0.531,0.042,0.283,0.171:
0000
0000
0000
0000
,
0000
0000
0000
0000
,
0000
0000
0000
0000
,
0000
0000
0000
0000
0000
0000
0000
0000
0000
0001
0000
0000
0000
0000
0000
0000
,
0001
0100
1000
0100
0010
1000
0001
0100
,
0000
0001
0010
1000
0000
0010
0001
1000
,
0000
0010
1000
0001
0010
0100
0000
1000
,
0100
1000
0100
0010
0000
0001
0000
1000
,
0000
0001
0100
0010
0100
0001
1000
0000
,
0100
1000
0100
0010
0100
1000
0001
0100
,
0000
0000
0010
1000
0001
0010
0100
1000
,
0000
0000
1000
0100
0010
0001
0000
0000
,
1000
0000
0010
1000
0010
0000
0100
0001
0100
0000
0001
0000
0000
0000
0000
0000
,
0010
0000
0001
0010
0001
0000
1000
0100
1000
0000
0100
0000
0010
0000
0000
0000
,
0001
0000
0100
0010
0100
0000
0010
1000
0010
0000
0100
0000
0000
0000
0000
0000
,
0001
0000
1000
0100
1000
0000
0001
1000
0001
0000
1000
0000
0010
0100
0010
0100
,
0010
0000
1000
0100
1000
0000
0001
1000
0001
0000
0010
0000
0000
0000
0000
0000
,
0100
0000
0010
0001
0010
0000
0100
0010
0100
0000
1000
0000
0001
0000
0000
0000
,
0100
0000
0010
0100
0010
0000
1000
0100
1000
0000
0100
0000
0000
0000
0000
0000
,
0001
0000
1000
0010
1000
0000
0100
0001
0100
0000
0010
0000
1000
0000
0000
0000
,
0000
0001
0100
0000
0010
1000
0010
0100
,
0001
1000
0001
0010
0100
1000
0000
0200
,
0000
0300
0010
0100
1000
0001
0100
0001
,
0000
1000
0010
0001
0010
1000
0000
0001
,
1000
0001
0010
0010
0100
0000
0011
0000
,
1100
0000
1001
0000
0100
0001
1000
0100
,
0010
0010
0100
0100
1000
0001
0100
0000
,
0010
1000
0001
1000
0010
0100
0001
0000
,
0010
0100
1000
0100
1000
1000
0001
0100
,
0001
0000
0001
0000
0010
0000
0100
1000
0100
0000
0100
0000
1000
0000
1000
0000
,
0000
0000
0001
0000
0200
0000
0000
0000
0010
0000
0000
0310
0000
0000
0000
0010
,
1000
0000
0001
1000
0002
0000
0013
0100
,
1000
0001
1000
0001
0100
0001
0100
0001
,
0010
0100
1000
0100
0010
0001
1000
0001
,
0100
1000
0100
0001
0100
0100
0000
0010
,
0000
0000
0000
0000
0010
0000
0100
0000
0000
0000
0100
0000
0001
0010
0001
0010
,
0001
0100
2000
0000
3100
0020
0000
1030
,
0002
0000
0013
0100
0020
0000
0130
2000
,
0000
3001
0100
0001
0020
0100
0130
1000
,
0002
0000
1003
0010
0001
0010
0100
0002
,
0000
1003
0100
1000
0001
0100
0010
0200
,
0000
0302
0000
2003
0010
3010
0100
0010
,
1000
1000
0001
0100
0001
0010
0100
0010
,
0001
1000
1000
0020
0000
0230
0000
0301
,
1000
0100
0001
0100
0010
0100
1000
1000
,
0001
0002
0000
0103
0010
0002
0000
0023
,
0000
1030
0100
0001
0100
0100
1000
1000
,
0001
0100
1000
0100
0010
2000
0000
3100
,
0001
0200
0000
0310
0001
0020
0000
0031
,
2000
0000
0000
3002
0000
0203
0000
0310
,
1000
0020
0000
0230
0000
0302
0000
2000
,
0000
0000
3003
0110
,
0001
0000
0100
0001
0100
0000
0010
1000
0010
0000
1000
0000
0000
0000
0000
0000
,
0100
0000
1000
0100
1000
0000
0001
0010
0001
0000
0010
0000
0200
0000
0000
0000
,
1300
0000
0010
0100
0010
0000
0100
0001
0100
0000
0010
0000
0000
0000
0000
0000
,
1000
0000
0001
0010
0001
0000
1000
0001
1000
0000
0001
0000
0020
0000
0000
0000
,
0130
0000
1000
0010
1000
0000
0001
1000
0001
0000
0100
0000
0000
0000
0000
0000
,
0010
0000
0100
0001
0100
0000
0010
0100
0010
0000
1000
0000
0002
0000
0000
0000
,
0013
0000
0100
0010
0100
0000
1000
0001
1000
0000
0010
0000
0000
0000
0000
0000
,
1000
0000
0001
0100
0001
0000
0010
1000
0010
0100
0000
0000
2002
0000
0000
0000
,
0000
0000
0000
3003
;

//---------------dance-single - ----------------
#NOTES:
     dance-single:
     :
     Medium:
     5:
     0.306,0.274,0.167,0.117,0.000: // measure 1
0000
0000
0000
0000
,  // measure 2
0000
0000
0000
0000
,  // measure 3
0000
0000
0000
0000
,  // measure 4
0000
0000
0000
0000
,  // measure 5
2000
0000
0000
3100
0000
0000
0001
1000
,  // measure 6
0002
0000
0000
0103
0000
0000
1000
0001
,  // measure 7
0200
0000
0000
0310
0000
0000
0001
1000
,  // measure 8
0020
0000
0000
0130
0000
0000
1000
0000
,  // measure 9
0002
0000
0000
0013
0000
0000
1000
0001
,  // measure 10
2000
0000
0000
3010
0000
0000
0001
1000
,  // measure 11
0020
0000
0000
0130
0000
0000
1000
0001
,  // measure 12
0200
0000
0000
0300
0010
0000
0100
0000
,  // measure 13
0001
0011
0100
0000
,  // measure 14
1000
0000
1010
0000
0100
0001
0100
0000
,  // measure 15
0010
0110
1000
0000
,  // measure 16
0001
0000
0101
0000
0010
1000
0010
0000
,  // measure 17
1000
1001
0010
0000
,  // measure 18
1000
0000
1100
0000
0010
0100
0010
0000
,  // measure 19
0001
0011
1000
0000
,  // measure 20
0100
0000
0101
0000
1000
0010
1000
0000
,  // measure 21
0000
0000
0001
0000
0010
0000
0100
0010
,  // measure 22
0001
1000
0001
0000
,  // measure 23
1000
0000
0010
0000
0100
0010
0100
0000
,  // measure 24
0001
1000
0100
0000
,  // measure 25
0010
0001
1000
0010
,  // measure 26
0220
0000
0000
0330
,  // measure 27
1000
0000
0001
0000
1000
0100
0010
0000
,  // measure 28
0001
0000
1000
0000
0001
1000
0001
0000
,  // measure 29
0000
0100
0001
0010
,  // measure 30
0100
0000
1000
0000
0001
1000
0001
1000
,  // measure 31
0000
0010
0100
0110
,  // measure 32
0000
0001
0011
1010
,  // measure 33
0000
1000
0100
0001
,  // measure 34
0100
1000
0001
1000
,  // measure 35
0010
0100
0010
0000
0100
0000
0001
0000
,  // measure 36
2000
0000
0002
3003
,  // measure 37
0000
0000
0001
0000
0010
0001
0010
0000
,  // measure 38
0100
0000
1000
0001
0100
0000
0010
0000
,  // measure 39
0000
0000
1000
0000
0100
0000
0010
0100
,  // measure 40
1000
0000
0001
0000
0100
0000
0010
0100
,  // measure 41
0000
0000
0001
0000
1000
0001
1000
0000
,  // measure 42
0100
0000
0010
0000
0001
0100
1000
0000
,  // measure 43
0100
0010
1000
0001
,  // measure 44
0010
0100
0010
0100
0000
0100
0000
0000
,  // measure 45
1000
0000
0001
0000
0100
0001
0010
0000
,  // measure 46
0100
0000
1000
0000
0010
1000
0100
0000
,  // measure 47
0010
0000
0001
0000
1000
0010
0100
0000
,  // measure 48
0001
0000
1000
0000
0001
0100
0010
0000
,  // measure 49
1000
1000
0000
0000
0001
0001
0000
0000
,  // measure 50
0100
0000
0000
0010
0000
0100
0000
0000
,  // measure 51
0001
0001
0000
1000
0000
1000
0000
0100
,  // measure 52
0000
2000
0002
3003
,  // measure 53
1000
1100
0010
0000
,  // measure 54
0001
0000
0101
0000
0010
1000
0010
0000
,  // measure 55
0100
0110
0001
0000
,  // measure 56
1000
0000
1010
0000
0100
0001
0100
0000
,  // measure 57
0001
1001
0100
0000
,  // measure 58
0001
0000
0011
0000
0100
0010
0100
0000
,  // measure 59
1000
1100
0001
0000
,  // measure 60
0010
0000
1010
0000
0001
0100
0001
0000
;

//---------------dance-single - ----------------
#NOTES:
     dance-single:
     :
     Beginner:
     1:
     0.118,0.173,0.025,0.067,0.000: // measure 1
0000
0000
0000
0000
,  // measure 2
0000
0000
0000
0000
,  // measure 3
0000
0000
0000
0000
,  // measure 4
0000
0000
0000
0000
,  // measure 5
0000
0000
0000
0000
,  // measure 6
0000
0000
0000
0000
,  // measure 7
0000
0000
0000
0000
,  // measure 8
0000
0000
0000
0000
,  // measure 9
0000
0000
0000
0000
,  // measure 10
0000
0000
0000
0000
,  // measure 11
0000
0000
0000
0000
,  // measure 12
0000
0000
0000
0000
,  // measure 13
0001
0001
0001
0000
,  // measure 14
1000
1000
1000
0000
,  // measure 15
0100
0100
0100
0000
,  // measure 16
0010
0010
0010
0000
,  // measure 17
0001
0001
0001
0000
,  // measure 18
0100
0100
0100
0000
,  // measure 19
0010
0010
0010
0000
,  // measure 20
1000
1000
1000
0000
,  // measure 21
0001
0000
0000
0000
,  // measure 22
0100
0000
0100
0000
,  // measure 23
0010
0000
0000
0000
,  // measure 24
1000
0000
0001
0000
,  // measure 25
1000
0000
0000
0000
,  // measure 26
0100
0100
0100
0000
,  // measure 27
0010
0000
0000
0000
,  // measure 28
0001
0000
1000
0000
,  // measure 29
0010
0000
0000
0000
,  // measure 30
0100
0000
0000
0000
,  // measure 31
0001
0000
1000
0000
,  // measure 32
1001
0000
0000
0000
,  // measure 33
0010
0000
0000
0000
,  // measure 34
0100
0000
0000
0000
,  // measure 35
0010
0000
0100
0000
,  // measure 36
0110
0000
0000
0000
,  // measure 37
0002
0003
0000
0000
,  // measure 38
2000
3000
0000
0000
,  // measure 39
0020
0030
0000
0000
,  // measure 40
0200
0300
0000
0000
,  // measure 41
0002
0003
0000
0000
,  // measure 42
0020
0030
0000
0000
,  // measure 43
0200
0300
0000
0000
,  // measure 44
2000
3000
0000
0000
,  // measure 45
0001
0000
0000
0000
,  // measure 46
1000
0000
0100
0000
,  // measure 47
0010
0000
0000
0000
,  // measure 48
0100
0000
1000
0000
,  // measure 49
0001
0000
0000
0000
,  // measure 50
0100
0000
0001
0000
,  // measure 51
0010
0000
0100
0000
,  // measure 52
1000
0000
0000
0010
,  // measure 53
0010
0000
0100
0000
,  // measure 54
1000
1000
1000
0000
,  // measure 55
0010
0000
0100
0000
,  // measure 56
0001
0001
0001
0000
,  // measure 57
0010
0000
0100
0000
,  // measure 58
0010
0010
0010
0000
,  // measure 59
0001
0000
1000
0000
,  // measure 60
0100
0100
1001
0000
;

//---------------dance-single - ----------------
#NOTES:
     dance-single:
     :
     Easy:
     3:
     0.230,0.249,0.150,0.042,0.000: // measure 1
0000
0000
0000
0000
,  // measure 2
0000
0000
0000
0000
,  // measure 3
0000
0000
0000
0000
,  // measure 4
0000
0000
0000
0000
,  // measure 5
0001
0100
1000
0000
,  // measure 6
1000
0100
0001
0000
,  // measure 7
0010
0000
0100
0000
,  // measure 8
0010
0001
1000
0010
,  // measure 9
0100
0000
0001
0000
,  // measure 10
1000
0001
1001
0001
,  // measure 11
1000
0000
0100
0000
,  // measure 12
0010
0000
0001
1000
,  // measure 13
0001
0100
0101
0000
,  // measure 14
1000
0010
1010
0000
,  // measure 15
1000
0001
1001
0000
,  // measure 16
0010
0100
0110
0000
,  // measure 17
1000
0100
1100
0000
,  // measure 18
0010
0001
0011
0000
,  // measure 19
0001
1000
1001
0000
,  // measure 20
0010
0100
0000
0110
,  // measure 21
0000
1000
0100
0001
,  // measure 22
0100
1000
0001
0000
,  // measure 23
0100
0000
0010
0000
,  // measure 24
1000
0001
0010
0000
,  // measure 25
0100
0100
0010
0000
,  // measure 26
0001
1000
0001
0000
,  // measure 27
0100
0000
0010
0000
,  // measure 28
1000
0010
0100
0001
,  // measure 29
0000
1000
0001
1000
,  // measure 30
0100
0100
0010
0010
,  // measure 31
0000
0001
1000
1001
,  // measure 32
0000
0001
0100
0101
,  // measure 33
0000
1000
0010
0010
,  // measure 34
0100
0010
1000
0001
,  // measure 35
0010
0000
0100
0000
,  // measure 36
1100
0000
1010
0100
,  // measure 37
0000
0001
1000
0000
,  // measure 38
1000
0001
0010
0010
,  // measure 39
0100
0000
0010
0000
,  // measure 40
0001
1000
0001
0001
,  // measure 41
0100
0000
0010
0000
,  // measure 42
1000
1000
0100
1000
,  // measure 43
0010
0010
0100
0100
,  // measure 44
0001
1000
1001
0010
,  // measure 45
0000
0100
1100
0000
,  // measure 46
0010
0011
0100
1000
,  // measure 47
0001
0100
0101
0000
,  // measure 48
0010
1010
0100
0001
,  // measure 49
1000
0000
0001
0000
,  // measure 50
0010
0000
0100
0000
,  // measure 51
0010
0001
1000
0010
,  // measure 52
0200
0000
0000
0300
,  // measure 53
0001
1000
0001
0000
,  // measure 54
1000
0001
0010
0200
,  // measure 55
0310
0001
1000
0000
,  // measure 56
0010
0100
0001
2000
,  // measure 57
3001
0010
0100
0000
,  // measure 58
0010
0001
1000
0002
,  // measure 59
0103
0010
1000
0000
,  // measure 60
0001
1000
0020
0030
;
