#TITLE:Bottom Terror;
#SUBTITLE:;
#ARTIST:GuruMediator;
#TITLETRANSLIT:;
#SUBTITLETRANSLIT:;
#ARTISTTRANSLIT:;
#CREDIT:;
#BANNER:;
#BACKGROUND:;
#LYRICSPATH:;
#CDTITLE:;
#MUSIC:Bottom Terror.mp3;
#OFFSET:-0.040;
#SAMPLESTART:64.040;
#SAMPLELENGTH:12.800;
#SELECTABLE:YES;
#BPMS:0.000=150.000;
#STOPS:;
#BGCHANGES:0.000=Bottom Terror.avi=1.000=0=0=0,
99999=-nosongbg-=1.000=0=0=0 // don't automatically add -songbackground-
;

//---------------dance-single - ----------------
#NOTES:
     dance-single:
     :
     Hard:
     7:
     0.553,0.515,0.430,0.255,0.044: // measure 1
0000
0000
0000
0000
,  // measure 2
0000
0000
0000
0000
,  // measure 3
0000
0000
0000
0000
,  // measure 4
0000
0000
0000
0000
,  // measure 5
1000
0000
0000
0000
0100
0000
0000
0000
0010
0000
0000
0001
0000
0000
0010
0000
,  // measure 6
0100
0021
0100
0001
,  // measure 7
1030
0000
0000
0000
0010
0000
0000
0000
0001
0000
0000
1000
0000
0000
0001
0000
,  // measure 8
1000
0010
0100
0001
1000
0010
0100
0000
,  // measure 9
0001
0010
0001
0000
1000
0010
1000
0000
,  // measure 10
0001
0010
0100
1000
0001
0001
0001
0000
,  // measure 11
1010
0000
0101
0000
0001
0010
0100
0000
,  // measure 12
0100
1000
0100
0001
0101
0000
1100
0000
,  // measure 13
1000
0010
0100
0000
0010
0100
0001
1000
,  // measure 14
0100
0100
0100
0000
0010
0010
0110
0000
,  // measure 15
0011
0000
0101
0000
0010
1000
0100
0000
,  // measure 16
1000
0100
0010
0001
1001
0000
0110
0000
,  // measure 17
1001
0000
0000
1000
0010
0000
0000
0000
0200
0000
0000
0000
0301
0000
0000
0000
,  // measure 18
0100
0001
1000
0100
0020
0000
0031
0000
,  // measure 19
0001
1000
0001
0000
0100
0000
0000
0000
0020
0000
0000
0000
1030
0000
0000
0000
,  // measure 20
2002
3003
0200
0301
,  // measure 21
0001
0010
0001
0000
2100
0000
3001
0000
,  // measure 22
1010
0101
1002
0013
,  // measure 23
0010
0001
0100
0000
1020
0000
0130
0000
,  // measure 24
0110
0000
0000
0000
1001
0000
0000
0000
1000
0100
1000
0000
0011
0000
0000
0000
,  // measure 25
1000
0001
0100
0020
0000
0100
0130
0000
,  // measure 26
0010
0000
1000
0001
1000
0000
0110
0000
,  // measure 27
0010
1000
1000
0001
0001
1000
0100
0010
,  // measure 28
0100
0000
0010
0001
1000
0000
1001
0000
,  // measure 29
1000
0001
0100
0020
0000
1000
1030
0000
,  // measure 30
0010
0000
1000
0001
0010
0000
0110
0000
,  // measure 31
0100
1000
1000
0001
0001
0010
0100
0010
,  // measure 32
0002
0000
0000
0003
,  // measure 33
1000
1000
0001
0100
0100
0010
1000
0000
,  // measure 34
0001
0100
0101
0000
0010
1000
1010
0000
,  // measure 35
0001
0001
0010
0001
0001
1000
0100
0000
,  // measure 36
0010
0001
1001
0000
0220
0000
0330
0000
,  // measure 37
0010
1000
1000
0100
0100
0010
0001
0000
,  // measure 38
1000
0000
0001
0000
1001
0000
0000
0000
0001
0100
0001
0000
0101
0000
0000
0000
,  // measure 39
0100
0010
0010
1000
1000
0001
1000
0000
,  // measure 40
2002
0000
0003
0000
0010
0010
3010
0000
,  // measure 41
1000
0100
0010
0001
1000
0001
0100
0000
,  // measure 42
0010
0100
0001
0010
0100
0010
0001
0001
,  // measure 43
1000
0010
0001
0010
1000
0010
0100
0000
,  // measure 44
0001
1000
0100
0010
0100
1000
0001
0000
,  // measure 45
1000
0010
0100
0010
1000
0001
1000
0000
,  // measure 46
0001
0010
0100
0010
0001
1000
0010
0010
,  // measure 47
0010
0100
0001
0010
0100
0010
0001
0000
,  // measure 48
1000
0010
0100
0001
0100
0100
0110
0000
,  // measure 49
1001
0000
0000
0000
1000
0000
0100
0000
0010
0000
0000
0110
0000
0000
1100
0000
,  // measure 50
0000
2000
0010
3001
,  // measure 51
1000
0000
0001
0000
0100
0000
0000
0000
0010
0000
0000
0110
0000
0000
0101
0000
,  // measure 52
0000
0001
1000
0000
1000
0100
0010
0001
,  // measure 53
1000
0000
0000
0000
0001
0000
1000
0000
0010
0000
0000
0110
0000
0000
0101
0000
,  // measure 54
0000
0002
0010
1003
,  // measure 55
1000
0000
0100
0000
0010
0000
0100
0000
1000
0000
0000
1001
0000
0000
0220
0000
,  // measure 56
0000
0000
0000
0000
0330
0000
0000
0000
1000
0001
1000
0000
0001
0000
0000
0000
,  // measure 57
2002
0000
0000
3003
,  // measure 58
1001
0000
1000
0100
0010
0001
1000
0010
,  // measure 59
0100
0001
1000
0000
1001
0000
0110
0000
,  // measure 60
0010
1000
0100
0010
0001
0100
0010
1000
,  // measure 61
0200
1000
0001
1300
,  // measure 62
1001
0000
0001
0100
0010
0100
0001
1000
,  // measure 63
0100
1000
0002
0000
0103
0000
1001
0000
,  // measure 64
1100
0000
0010
0001
0100
1000
0100
0001
,  // measure 65
0020
0000
0000
0030
,  // measure 66
1001
0000
1000
0010
0001
1000
0001
0010
,  // measure 67
1000
0100
0010
0000
0110
0000
1001
0000
,  // measure 68
1000
0100
1000
0001
0100
0010
0100
0001
,  // measure 69
2000
0010
0001
3100
,  // measure 70
1001
0000
0001
0010
0100
0010
0001
1000
,  // measure 71
0010
0100
0020
0000
1030
0000
1001
0000
,  // measure 72
1000
0100
0010
0001
1000
0010
0100
0001
,  // measure 73
1000
0100
0001
0100
1000
0100
0001
0100
,  // measure 74
0220
0000
0000
0330
,  // measure 75
2002
0000
0000
0000
,  // measure 76
0000
0000
0000
0000
,  // measure 77
3003
0000
0000
0000
;

//---------------dance-single - ----------------
#NOTES:
     dance-single:
     :
     Medium:
     6:
     0.466,0.485,0.359,0.335,0.024: // measure 1
0000
0000
0000
0000
,  // measure 2
0000
0000
0000
0000
,  // measure 3
0000
0000
0000
0000
,  // measure 4
0000
0000
0000
0000
,  // measure 5
1000
0000
0000
0000
0001
0000
0000
0000
0100
0000
0000
0100
0000
0000
0100
0000
,  // measure 6
0000
2002
0000
3003
,  // measure 7
1000
0000
0000
0000
0001
0000
0000
0000
0010
0000
0000
0010
0000
0000
0010
0000
,  // measure 8
0001
0000
1000
0000
0001
1000
0001
0000
,  // measure 9
0100
0100
0100
0000
0010
0000
1000
0000
,  // measure 10
0001
1000
0001
0000
1000
0000
1100
0000
,  // measure 11
0100
0010
0001
0000
0010
0000
0001
0000
,  // measure 12
1000
0001
1000
0000
0101
0000
1001
0000
,  // measure 13
1000
0100
0010
0000
0100
0000
1000
0000
,  // measure 14
0001
1000
0010
0000
0100
0001
1000
0000
,  // measure 15
0010
0000
0100
0000
0001
0010
0001
0000
,  // measure 16
1000
0001
0100
0000
0210
0000
0310
0000
,  // measure 17
2001
0000
3001
0000
1000
0001
0100
0000
,  // measure 18
0010
0100
0010
0000
2000
0000
3001
0000
,  // measure 19
1000
0100
0010
0000
0012
0000
1003
0000
,  // measure 20
2002
3003
0200
0310
,  // measure 21
0001
0001
0001
0000
2001
0000
3010
0000
,  // measure 22
1010
1100
0012
0103
,  // measure 23
0020
1030
2010
3001
,  // measure 24
0011
1100
1010
0101
,  // measure 25
0001
1000
0100
0020
0000
0001
0031
0000
,  // measure 26
0001
0100
0010
1000
,  // measure 27
0001
1000
0001
1000
0001
0000
0100
0000
,  // measure 28
0010
1000
0100
0010
,  // measure 29
0001
1000
0001
2000
0000
0010
3010
0000
,  // measure 30
1000
0001
1000
0100
,  // measure 31
0010
0100
0010
0001
0010
0000
0001
0000
,  // measure 32
2002
0000
0000
3003
,  // measure 33
1000
0001
1000
0001
0001
0000
0100
0000
,  // measure 34
0010
1000
0100
0000
2100
0000
3001
0000
,  // measure 35
1000
0010
0100
0010
0010
0000
0100
0000
,  // measure 36
0001
1000
0100
0000
2002
0000
3003
0000
,  // measure 37
1000
0100
0010
0001
0010
0000
1100
0000
,  // measure 38
1000
0010
0100
0000
0001
0100
0010
0000
,  // measure 39
1000
0010
0100
0001
0100
0000
1010
0000
,  // measure 40
0220
0000
0030
0000
0001
0001
0301
0000
,  // measure 41
1000
0000
0100
0000
0010
0001
0100
0000
,  // measure 42
0010
0000
1000
0000
0001
1000
0100
0100
,  // measure 43
1000
0000
0001
0000
0010
0100
0010
0000
,  // measure 44
0001
0000
1000
0000
0010
0100
0001
0001
,  // measure 45
1000
0000
0001
0000
1000
0010
0001
0000
,  // measure 46
0010
0000
1000
0000
0001
1000
0100
0010
,  // measure 47
0100
0000
0010
0000
0001
0010
1000
0000
,  // measure 48
0010
0000
0001
0000
1000
1000
1000
0000
,  // measure 49
1001
0000
0000
0000
0001
0000
0000
0000
0100
0000
0000
0100
0000
0000
0200
0000
,  // measure 50
0000
0002
0000
0303
,  // measure 51
0001
0000
1000
0000
0001
0000
0000
0000
1000
0000
0000
1000
0000
0000
2000
0000
,  // measure 52
0000
0010
0001
3100
,  // measure 53
1000
0000
0000
0000
0100
0000
0000
0000
0010
0000
0000
0010
0000
0000
0020
0000
,  // measure 54
0000
0200
0000
0330
,  // measure 55
1000
0000
0001
0000
1000
0000
0000
0000
0001
0000
0000
1000
0000
0000
2002
0000
,  // measure 56
0000
0000
0000
3003
,  // measure 57
0220
0000
0000
0330
,  // measure 58
1001
0000
0001
0010
0001
0000
1000
0100
,  // measure 59
1000
0001
0200
0310
,  // measure 60
1001
0000
1000
0010
1000
0000
0001
0100
,  // measure 61
0002
0010
1000
0103
,  // measure 62
1010
0000
0010
1000
0100
0000
0010
0001
,  // measure 63
0100
0120
1030
1001
,  // measure 64
0011
0000
0010
0001
1000
0000
0010
1000
,  // measure 65
0002
0000
0000
0003
,  // measure 66
1100
0000
0001
0100
0010
0000
1000
0100
,  // measure 67
0010
1100
2001
3001
,  // measure 68
0101
0000
0100
0001
0010
0000
0010
0001
,  // measure 69
2000
0010
0001
3100
,  // measure 70
1001
0000
1000
0010
0001
0000
1000
0010
,  // measure 71
0001
0210
0301
1001
,  // measure 72
1001
0000
1000
0100
0001
0000
1000
0100
,  // measure 73
0001
0101
1100
1010
,  // measure 74
0220
0000
0000
0330
,  // measure 75
2002
0000
0000
0000
,  // measure 76
0000
0000
0000
0000
,  // measure 77
3003
0000
0000
0000
;

//---------------dance-single - ----------------
#NOTES:
     dance-single:
     :
     Easy:
     4:
     0.351,0.424,0.287,0.454,0.000: // measure 1
0000
0000
0000
0000
,  // measure 2
0000
0000
0000
0000
,  // measure 3
0000
0000
0000
0000
,  // measure 4
0000
0000
0000
0000
,  // measure 5
1000
0000
0001
0000
0100
0000
0000
0110
,  // measure 6
0000
2002
0000
3003
,  // measure 7
1000
0000
0001
0000
0010
0000
0000
0220
,  // measure 8
0000
0000
0000
0330
,  // measure 9
1001
1000
0010
0000
,  // measure 10
0100
0001
1000
0001
,  // measure 11
0010
0010
0100
0000
,  // measure 12
0010
0001
1000
1000
,  // measure 13
1000
0001
0100
0000
,  // measure 14
0010
0100
0001
1000
,  // measure 15
0100
0100
0010
0000
,  // measure 16
0100
0010
1002
1003
,  // measure 17
0220
0330
0010
1000
,  // measure 18
2002
3003
0001
0010
,  // measure 19
0220
0330
0100
1000
,  // measure 20
2002
3003
1000
0001
,  // measure 21
0202
0303
0100
0010
,  // measure 22
2020
3030
1000
0100
,  // measure 23
2200
3300
0100
0010
,  // measure 24
0012
0010
1000
1003
,  // measure 25
1001
0000
0000
2002
0000
0000
3003
0000
,  // measure 26
1000
0010
0200
0310
,  // measure 27
0010
1000
0002
0003
,  // measure 28
1000
0100
0020
0130
,  // measure 29
0110
0000
0000
0220
0000
0000
0330
0000
,  // measure 30
0010
0001
2000
3001
,  // measure 31
1000
0010
0200
0300
,  // measure 32
2002
0000
0000
3003
,  // measure 33
1001
0000
1000
0100
,  // measure 34
1000
0000
0001
0000
,  // measure 35
0100
0001
0100
0010
,  // measure 36
0100
0000
0220
0330
,  // measure 37
0010
1000
0001
1000
,  // measure 38
0100
0000
0010
0000
,  // measure 39
0001
0010
0100
1000
,  // measure 40
2002
0000
0000
3003
,  // measure 41
1000
0010
0100
0010
,  // measure 42
1000
0001
0010
0100
,  // measure 43
0010
0001
1000
0010
,  // measure 44
0100
0001
1000
0000
,  // measure 45
0001
0010
0100
1000
,  // measure 46
0100
0001
0100
1000
,  // measure 47
0010
0100
0001
0010
,  // measure 48
0001
1000
0002
0003
,  // measure 49
1001
0000
1000
0000
0010
0000
0000
0110
,  // measure 50
0000
2002
0000
3003
,  // measure 51
1000
0000
0100
0000
0010
0000
0000
0220
,  // measure 52
0000
0000
0000
0330
,  // measure 53
1000
0000
0100
0000
0010
0000
0000
0011
,  // measure 54
0000
2002
0000
3003
,  // measure 55
1000
0000
0010
0000
0100
0000
0000
0220
,  // measure 56
0000
0000
0000
0330
,  // measure 57
2002
0000
0000
3003
,  // measure 58
1001
0001
0100
1000
,  // measure 59
0100
0001
2000
3000
,  // measure 60
1000
0001
0010
1000
,  // measure 61
0020
0001
0001
0031
,  // measure 62
0001
1000
0010
0100
,  // measure 63
0001
1000
0002
0003
,  // measure 64
0010
0001
0100
0010
,  // measure 65
2000
0000
0000
3000
,  // measure 66
1001
1000
0100
1000
,  // measure 67
0001
0100
0020
0030
,  // measure 68
0100
0001
0100
0010
,  // measure 69
2000
0010
0010
3010
,  // measure 70
1000
0100
0010
0100
,  // measure 71
1000
0001
0200
0300
,  // measure 72
0010
0100
0001
0010
,  // measure 73
1000
0110
0110
1001
,  // measure 74
2002
0000
0000
3003
,  // measure 75
0220
0000
0000
0000
,  // measure 76
0000
0000
0000
0000
,  // measure 77
0330
0000
0000
0000
;

//---------------dance-single - ----------------
#NOTES:
     dance-single:
     :
     Beginner:
     1:
     0.141,0.177,0.151,0.000,0.000: // measure 1
0000
0000
0000
0000
,  // measure 2
0000
0000
0000
0000
,  // measure 3
0000
0000
0000
0000
,  // measure 4
0000
0000
0000
0000
,  // measure 5
1001
0000
0000
0000
,  // measure 6
0000
0000
0000
0000
,  // measure 7
0110
0000
0000
0000
,  // measure 8
0000
0000
0000
0000
,  // measure 9
1001
0000
1000
0000
,  // measure 10
0100
0000
0100
0000
,  // measure 11
0100
0000
0010
0000
,  // measure 12
0001
0000
0001
0000
,  // measure 13
0001
0000
1000
0000
,  // measure 14
0010
0000
0010
0000
,  // measure 15
0010
0000
0100
0000
,  // measure 16
0110
0000
0000
0000
,  // measure 17
1001
0000
0000
0000
,  // measure 18
1000
0000
0000
0000
,  // measure 19
0100
0000
0000
0000
,  // measure 20
0110
0000
0000
0000
,  // measure 21
1001
0000
0000
0000
,  // measure 22
0001
0000
0000
0000
,  // measure 23
0100
0000
0000
0000
,  // measure 24
0010
0000
1000
0000
,  // measure 25
1001
0000
0000
0000
,  // measure 26
0001
0000
0100
0000
,  // measure 27
0001
0000
0000
0000
,  // measure 28
1000
0000
0100
0000
,  // measure 29
1000
0000
0000
0000
,  // measure 30
0001
0000
0010
0000
,  // measure 31
0001
0000
0000
0000
,  // measure 32
1001
0000
0000
0000
,  // measure 33
0110
0000
0010
0000
,  // measure 34
1000
0000
1000
0000
,  // measure 35
0001
0000
0010
0000
,  // measure 36
0100
0000
0000
0000
,  // measure 37
0010
0000
0001
0000
,  // measure 38
1000
0000
1000
0000
,  // measure 39
0001
0000
0100
0000
,  // measure 40
0110
0000
0000
0000
,  // measure 41
1001
0000
0000
0000
,  // measure 42
0001
0000
0100
0000
,  // measure 43
0010
0000
1000
0000
,  // measure 44
0001
0000
1000
0000
,  // measure 45
0100
0000
0000
0000
,  // measure 46
0100
0000
0010
0000
,  // measure 47
0001
0000
1000
0000
,  // measure 48
0001
0000
0100
0000
,  // measure 49
0110
0000
0000
0000
,  // measure 50
0010
0000
1000
0000
,  // measure 51
0001
0000
0000
0000
,  // measure 52
1000
0000
0001
0000
,  // measure 53
0010
0000
0000
0000
,  // measure 54
0100
0000
0010
0000
,  // measure 55
0001
0000
0000
0000
,  // measure 56
0110
0000
0000
0000
,  // measure 57
1001
0000
0000
0000
,  // measure 58
1001
0000
0001
0000
,  // measure 59
0100
0000
0010
0000
,  // measure 60
1000
0000
0000
0000
,  // measure 61
0001
0000
0010
0000
,  // measure 62
0001
0000
1000
0000
,  // measure 63
0010
0000
0100
0000
,  // measure 64
0010
0000
0000
0000
,  // measure 65
1001
0000
0000
0000
,  // measure 66
0110
0000
0000
0000
,  // measure 67
0100
0000
0001
0000
,  // measure 68
1000
0000
0001
0000
,  // measure 69
0010
0000
0000
0000
,  // measure 70
0100
0000
0010
0000
,  // measure 71
0001
0000
0000
0000
,  // measure 72
1000
0000
0001
0000
,  // measure 73
1000
0000
0010
0000
,  // measure 74
0100
0000
0000
0000
,  // measure 75
1001
0000
0000
0000
;
