#TITLE:Wolverine NES Title Theme;
#SUBTITLE:;
#ARTIST:Tim Follin;
#TITLETRANSLIT:;
#SUBTITLETRANSLIT:;
#ARTISTTRANSLIT:;
#CREDIT:;
#BANNER:;
#BACKGROUND:;
#LYRICSPATH:;
#CDTITLE:;
#MUSIC:01_-_title_screen.mp3;
#OFFSET:-0.060;
#SAMPLESTART:90.700;
#SAMPLELENGTH:12.000;
#SELECTABLE:YES;
#BPMS:0.000=180.040;
#STOPS:;
#BGCHANGES:;

//---------------dance-single - ----------------
#NOTES:
     dance-single:
     :
     Beginner:
     3:
     0.280,0.363,0.184,0.215,0.000:
0000
0000
0000
0000
,
0000
0000
0000
0000
,
1000
0000
0000
0000
,
0001
0000
0001
0000
,
0100
0100
0100
0000
,
0010
0000
1000
0000
,
0200
0300
2000
3000
,
0002
0003
0200
0300
,
0001
0000
1000
0000
,
0001
0001
0001
0001
,
1000
0000
0100
0000
,
1000
0000
0010
0000
,
0100
0000
0001
0000
,
0100
0000
0010
0000
,
1000
0000
0100
0000
,
0010
0000
0001
0000
,
1000
1000
0001
0001
,
2002
0000
0000
3003
,
0100
0000
0010
0000
,
1000
0000
1001
0000
,
0010
0000
0001
0000
,
0100
0000
0110
0000
,
0010
0000
1000
0000
,
0001
0000
1001
0000
,
1000
0000
0100
0000
,
1000
0010
1000
0010
,
1000
1000
0000
0000
,
0001
0001
0000
0000
,
0100
0100
0000
0000
,
0010
0010
0000
0000
,
0100
0100
0000
0000
,
0001
0001
0000
0000
,
1000
1000
0000
0000
,
0100
0100
0000
0000
,
0010
1000
0000
0000
,
0100
1000
0000
0000
,
0001
0100
0000
0000
,
0001
0010
0000
0000
,
0001
1000
0000
0000
,
1000
0001
0000
0000
,
0100
0010
0000
0000
,
0010
0100
0010
0100
,
0020
0000
2030
0000
,
3002
0000
0023
0000
,
0031
0000
0000
0000
,
1001
0000
1001
0000
,
1000
0001
1000
0000
,
0110
0000
0110
0000
,
2000
0000
3200
0000
,
0320
0000
0032
0000
,
0013
0000
0110
0000
,
1000
1000
1000
1000
,
0001
0000
0100
0000
,
0001
0000
1001
0000
,
1000
0000
0010
0000
,
1000
0000
1001
0000
,
0001
0000
0010
0000
,
0001
0000
1001
0000
,
1000
1000
0100
0100
,
0220
0000
0000
0330
,
0001
0000
0100
0000
,
0010
0000
1000
0000
,
0100
0000
1000
0000
,
0010
0000
0100
0000
,
0001
0000
0010
0000
,
0001
0000
0100
0000
,
0010
0000
1000
0000
,
0001
0100
0001
0100
,
0010
1000
0000
0000
,
1000
0010
0000
0000
,
0001
0100
0000
0000
,
0100
0001
0000
0000
,
1000
0100
0000
0000
,
0100
1000
0000
0000
,
0010
0001
0000
0000
,
0001
0010
0000
0000
,
1000
1001
0000
0000
,
0001
1001
0000
0000
,
0100
0110
0000
0000
,
0010
0110
0000
0000
,
1001
1001
0000
0000
,
0110
0110
0000
0000
,
1000
0001
1000
1000
,
0001
1000
0001
0001
,
2000
0000
3200
0000
,
0320
0000
0032
0000
,
1003
0000
0000
0000
,
1001
0000
1001
0000
,
1000
0001
1000
0000
,
0001
1000
0001
0000
,
2000
0000
3002
0000
,
0203
0000
0302
0000
,
0023
0000
0230
0000
,
1300
0001
1000
0001
,
2002
0000
0000
3003
;

//---------------dance-single - ----------------
#NOTES:
     dance-single:
     :
     Easy:
     5:
     0.481,0.617,0.598,0.337,0.000:
0000
0000
0000
0000
,
0000
0000
0000
0000
,
1000
0000
0001
0000
,
1100
0000
0101
0000
,
1000
0100
1000
0010
,
0100
0000
0001
0000
0010
0000
0001
1000
,
0002
0000
0203
0000
,
0320
0000
2030
0000
,
3100
1000
0010
0100
,
0010
1000
0100
0001
,
0010
0001
0100
0010
,
1000
0100
0001
0100
,
1000
0010
0100
0001
,
0010
1000
0010
0001
,
0100
0010
0100
0001
,
0010
0100
1000
0001
,
0101
1001
1100
1001
,
0220
0330
2002
3003
,
1000
0001
0100
0010
,
1000
0100
1001
0000
,
0001
0100
0010
1000
,
0001
0010
1001
0000
,
1000
0100
0010
0001
,
1000
0001
0110
0000
,
0001
0010
0100
1000
,
0002
0203
0320
2030
,
3001
0000
1000
0000
0000
1001
0000
0000
,
1000
0000
0001
0000
0000
1001
0000
0000
,
0100
0000
0010
0000
0000
0110
0000
0000
,
0010
0000
0100
0000
0000
0110
0000
0000
,
1000
0000
0100
0000
0000
1100
0000
0000
,
1000
0000
0010
0000
0000
1010
0000
0000
,
0001
0000
0100
0000
0000
0101
0000
0000
,
0001
0000
0010
0000
0000
0011
0000
0000
,
0001
0000
1010
0000
0000
0101
0000
0000
,
1000
0000
0101
0000
0000
1010
0000
0000
,
0001
0000
1100
0000
0000
0011
0000
0000
,
1000
0000
0011
0000
0000
1100
0000
0000
,
1000
0000
0110
0000
0000
1001
0000
0000
,
0001
0000
0110
0000
0000
1001
0000
0000
,
1000
0100
1001
0110
,
0001
0100
1001
0110
,
2000
0000
3002
0000
,
0203
0000
0320
0000
,
1030
0001
1100
0101
,
0001
1000
0011
1010
,
1000
0100
0010
0001
,
0100
0001
1000
0000
0100
1000
0001
0000
,
2000
0000
3020
0000
,
2030
0000
3002
0000
,
0103
1001
0010
1001
,
1000
0100
0010
0001
,
1000
0000
0001
1000
0001
0000
0000
0000
,
1000
0100
1001
0110
,
0001
0100
0010
0100
,
0001
1000
0100
1001
,
0100
1000
0010
0000
0100
0000
0000
0000
,
0001
1000
0100
1000
,
0101
1100
1010
0011
,
2002
0000
0000
3003
,
1000
0010
0100
1000
,
0001
0100
0010
0001
,
1000
0001
0010
0100
,
0001
1000
0100
0010
,
1000
0001
0100
0010
,
0001
0100
0010
1000
,
0001
0001
1000
1000
,
0002
0203
0320
2030
,
3100
0000
0001
0000
0000
0110
0000
0000
,
0010
0000
1000
0000
0000
0110
0000
0000
,
1000
0000
0001
0000
0000
0101
0000
0000
,
0001
0000
1000
0000
0000
1010
0000
0000
,
1000
0000
0100
0000
0000
0011
0000
0000
,
0001
0000
0010
0000
0000
1100
0000
0000
,
0001
0000
1000
0000
0000
1100
0000
0000
,
1000
0000
0001
0000
0000
0101
0000
0000
,
0100
0000
1001
0000
0000
1100
0000
0000
,
0010
0000
1001
0000
0000
0101
0000
0000
,
1000
0000
0110
0000
0000
0101
0000
0000
,
0001
0000
0110
0000
0000
1010
0000
0000
,
1000
0000
0011
0000
0000
1001
0000
0000
,
0001
0000
1100
0000
0000
1001
0000
0000
,
2000
3020
0230
0320
,
2030
3200
0320
0230
,
2300
0000
3002
0000
,
0203
0000
0320
0000
,
1030
0000
0001
0000
1000
0001
1000
0000
,
0001
1000
0001
0000
0100
0010
0100
0000
,
1001
0101
1001
1100
,
1001
0011
1001
1010
,
0002
0000
2003
0000
,
3200
0000
0320
0000
,
0031
0000
0100
0000
0010
1000
0100
0000
,
1000
0000
0001
0000
0100
0001
0010
0000
,
2002
0000
0000
3003
;

//---------------dance-single - Copied from----------------
#NOTES:
     dance-single:
     Copied from:
     Medium:
     7:
     0.597,0.617,0.674,0.337,0.038:
0000
0000
0000
0000
,
0000
0000
0000
0000
,
1000
0000
0000
0000
,
0001
0000
0100
0000
,
1000
0100
0010
0001
,
1000
0100
1000
0100
0010
0001
0010
0001
,
2000
0000
0000
0001
3002
0000
0000
0100
,
0203
0000
0000
0010
0320
0000
0000
1000
,
1030
1001
0110
1001
,
0001
0100
0010
0000
1000
0010
0100
0000
,
0001
0000
1000
0001
0100
0000
1001
0000
,
0100
0000
0010
0000
1000
0100
1000
0000
,
0010
0000
0100
0001
1000
0000
0110
0000
,
1001
1100
1001
0101
,
0010
0001
0100
0000
0020
0000
1030
0000
,
0100
1000
0001
0000
0200
0000
0310
0000
,
2000
3020
0230
0302
,
0013
0100
1000
0000
0100
0010
0001
0000
,
0010
0001
0100
1001
,
0100
0000
1000
0000
0010
0000
0100
0001
,
0010
0001
0100
1001
,
0100
0000
1000
0000
0010
0000
0100
0001
,
0010
0100
1000
0110
,
0001
0000
0100
0000
0010
0000
1000
0100
,
0010
0100
1000
0110
,
0001
0000
1000
0000
0100
0000
1000
0000
0001
0000
0100
0000
,
1001
0000
1100
0000
0000
1001
0000
0000
,
1001
0000
0101
0000
0000
1001
0000
0000
,
1100
0000
1010
0000
0000
0110
0000
0000
,
0110
0000
1010
0000
0000
1100
0000
0000
,
1001
0000
0110
0000
0000
0110
0000
0000
,
0101
0000
1010
0000
0000
1010
0000
0000
,
0110
0000
1001
0000
0000
1001
0000
0000
,
1010
0000
0101
0000
0000
0101
0000
0000
,
1000
0001
0100
0000
0000
1001
0000
0000
,
0001
1000
0100
0000
0000
1001
0000
0000
,
1000
0010
0100
0000
1010
0000
0000
0000
,
0001
0100
0010
0000
0000
0101
0000
0000
,
1000
0010
0100
0000
0000
0110
0000
0000
,
0001
0100
0010
0000
0000
0110
0000
0000
,
2000
3020
0230
0320
,
2030
0000
0100
0200
3000
0310
0001
1000
,
0020
0000
0230
0000
,
0302
0000
2003
0000
,
3100
1000
0100
0000
0010
0001
0010
0000
,
0100
1000
0100
0000
0010
0001
0010
0000
,
1001
0110
1010
0110
,
0001
0100
0001
0100
0010
1000
0010
1000
,
0200
0000
0000
1300
2000
0000
0000
0001
,
3002
0000
0000
0100
0203
0000
0000
0010
,
0310
1000
0100
0000
1000
0001
0100
0000
,
0002
0203
0320
2030
,
3100
0000
0010
1000
0000
0100
1000
0000
,
0001
0000
0100
0001
0000
0010
0001
0000
,
0100
0000
0010
1000
0000
0100
1000
0000
,
0001
0000
0100
0001
0000
0010
0001
0000
,
0100
0010
1000
0000
0100
1000
0001
0000
,
0100
0001
0010
0000
0001
0100
0010
0000
,
0200
0302
2003
3200
,
1300
0000
0000
0001
0000
0000
0100
0000
0000
0000
0000
0000
0001
0000
0000
0000
1000
0000
0000
0000
0100
0000
0000
0000
,
1000
0001
0100
0000
0001
1000
0100
0000
,
1000
0010
0100
0000
1001
0000
0110
0000
,
0001
0100
0010
0000
0100
0001
0010
0000
,
0100
1000
0010
0000
1001
0000
0110
0000
,
1000
0001
0100
0000
0001
1000
0100
0000
,
1000
0010
0100
0000
1001
0000
0110
0000
,
1000
0100
1000
0100
0010
0001
0010
0000
,
1000
0000
0001
0000
0100
0000
0001
0000
1000
0000
0100
0000
,
1001
0000
0110
0000
0000
1001
0000
0000
,
0110
0000
1001
0000
0000
0110
0000
0000
,
1100
0000
0110
0000
0000
0011
0000
0000
,
0011
0000
0110
0000
0000
1100
0000
0000
,
1001
0000
1100
0000
0000
1001
0000
0000
,
1001
0000
0101
0000
0000
1001
0000
0000
,
0110
0000
0101
0000
0000
0110
0000
0000
,
0110
0000
1010
0000
0000
0110
0000
0000
,
1000
0100
0001
0000
0000
0101
0000
0000
,
0001
0100
1000
0000
0000
1100
0000
0000
,
1000
0010
0001
0000
0000
0011
0000
0000
,
0001
0010
1000
0000
0000
1010
0000
0000
,
1000
0100
0001
0000
0000
1001
0000
0000
,
0001
0100
1000
0000
0000
1001
0000
0000
,
1000
0010
0100
0000
0001
0100
0010
0000
,
2000
0000
0100
3200
0000
0310
0001
0100
,
0020
0000
0230
0000
,
0302
0000
0023
0000
,
0130
1000
0100
1000
0010
0100
0010
0000
,
0100
0001
0100
0000
0001
0010
0001
0000
,
1100
0101
0011
1010
,
1000
0100
1000
0100
0010
0001
0010
0001
,
0200
0000
0000
0010
0320
0000
0000
1000
,
2030
0000
0000
0001
3002
0000
0000
0100
,
0103
0010
1000
0100
1000
0010
0100
0000
,
0001
0100
0010
0100
0001
0010
0100
0000
,
2002
0000
0000
3003
;

//---------------dance-single - Copied from----------------
#NOTES:
     dance-single:
     Copied from:
     Hard:
     9:
     0.810,0.726,0.261,0.322,0.502: // measure 1
0000
0000
0000
0000
,  // measure 2
0000
0000
0000
0000
,  // measure 3
1000
0000
0001
0000
0100
0000
0000
0000
0001
1000
0001
1000
0001
0000
0000
0000
,  // measure 4
1000
0100
1000
0100
1000
0000
0000
0000
0001
0100
0001
0100
0001
0000
0000
0000
,  // measure 5
1000
0001
0100
0000
0001
1000
0100
0000
,  // measure 6
1000
0010
0100
0010
1000
0100
0001
0100
,  // measure 7
2000
0000
3001
0100
0020
0000
1030
0001
,  // measure 8
0200
0000
0301
1000
0200
0000
1300
0010
,  // measure 9
0100
0001
0100
0010
1000
0100
1000
0010
,  // measure 10
0001
0010
1000
0100
1000
0010
0100
0001
,  // measure 11
0020
0000
0031
1000
0200
1000
1300
0000
,  // measure 12
0010
1000
0200
0000
0310
0001
1001
0000
,  // measure 13
0100
0001
0100
2000
0000
0100
3100
0000
,  // measure 14
0001
0000
0010
0000
0100
0000
0001
0000
0100
0000
1000
0000
,  // measure 15
0100
0010
0002
0000
0100
0203
0000
0301
,  // measure 16
1000
0000
0000
0000
0000
0000
0100
0000
0000
0000
0000
0000
0020
0000
0000
0000
0000
0000
0000
0000
0000
0000
0000
0000
0100
0000
0000
0000
0000
0000
0000
0000
0100
0030
0000
0000
0000
0000
0000
0000
1000
0000
0000
0000
0000
0000
0000
0000
,  // measure 17
1000
0100
0000
0000
1000
0010
0000
0000
0100
0001
0000
0000
0010
0001
0000
0000
,  // measure 18
0010
0000
0000
0001
0000
0000
2001
0000
0000
0000
0000
0000
3100
0000
0000
0000
1000
0000
0100
0000
0000
0000
0001
0000
,  // measure 19
0100
1000
0010
0100
0010
1000
0100
0001
,  // measure 20
0100
1000
0010
0100
0001
0100
0010
0000
,  // measure 21
0100
0001
1000
0100
1000
0001
0100
0010
,  // measure 22
1000
0100
0001
0100
1000
0010
0001
0000
,  // measure 23
0010
1000
0100
1000
0010
0100
0001
0010
,  // measure 24
0001
0100
0010
1000
0100
1000
0001
0000
,  // measure 25
0100
0001
0010
0001
0100
0010
1000
0100
,  // measure 26
1000
0000
1000
0001
0000
0001
0100
0000
0100
0010
0000
0010
,  // measure 27
1000
0100
0000
0000
1000
0100
0000
0000
1000
0000
0001
0000
1100
0000
0000
0000
,  // measure 28
0001
0100
0000
0000
0001
0100
0000
0000
0001
0000
1000
0000
0101
0000
0000
0000
,  // measure 29
1000
0010
0000
0000
1000
0010
0000
0000
1000
0000
0001
0000
1010
0000
0000
0000
,  // measure 30
0001
0010
0000
0000
0001
0010
0000
0000
0001
0000
1000
0000
0011
0000
0000
0000
,  // measure 31
1000
0001
0000
0000
1000
0001
0000
0000
0100
0000
0010
0000
1001
0000
0000
0000
,  // measure 32
0001
1000
0000
0000
0001
1000
0000
0000
0010
0000
0100
0000
1001
0000
0000
0000
,  // measure 33
0100
0010
0000
0000
0100
0010
0000
0000
1000
0000
0001
0000
0110
0000
0000
0000
,  // measure 34
0010
0100
0000
0000
0010
0100
0000
0000
0001
0000
1000
0000
0110
0000
0000
0000
,  // measure 35
1000
0100
0000
0000
1000
0010
0000
0000
1000
0000
0010
0000
0110
0000
0000
0000
,  // measure 36
0100
0001
0000
0000
0010
0001
0000
0000
0100
0000
0001
0000
0011
0000
0000
0000
,  // measure 37
0001
1000
0000
0000
0100
1000
0000
0000
0001
0000
1000
0000
1100
0000
0000
0000
,  // measure 38
1000
0001
0000
0000
0010
0001
0000
0000
1000
0000
0001
0000
0011
0000
0000
0000
,  // measure 39
0001
0100
0000
0000
0010
0100
0000
0000
0001
0000
0100
0000
0110
0000
0000
0000
,  // measure 40
0100
1000
0000
0000
0100
0010
0000
0000
1000
0000
0001
0000
0011
0000
0000
0000
,  // measure 41
0001
0000
0010
1000
0000
0010
0001
0000
0010
1000
0000
0010
,  // measure 42
0002
0000
0103
0200
0000
0310
1000
0100
,  // measure 43
2100
0000
0000
0001
3002
0000
0000
0100
,  // measure 44
0203
0000
0000
0000
0000
0000
0000
0000
0000
1000
0000
0000
2300
0000
0000
0000
0000
0000
3100
0000
0001
0000
0010
0000
,  // measure 45
0100
0000
1000
0000
0010
0000
0100
0000
0001
0100
0001
0100
0001
0000
0000
0000
,  // measure 46
0010
0001
0010
0001
0010
0000
0000
0000
0001
1000
0001
1000
0001
0000
0000
0000
,  // measure 47
1000
0100
0001
0000
0001
0100
1000
0000
,  // measure 48
1000
0010
0001
0010
1000
0100
1000
0010
,  // measure 49
0200
0000
0301
1000
0200
0000
1300
0001
,  // measure 50
0020
0000
0031
1000
0020
0000
0130
0001
,  // measure 51
1000
0100
0000
0000
1000
0010
0000
0000
0100
0001
0000
0000
0010
0001
0000
0000
,  // measure 52
1000
0100
1000
0010
0100
0001
0010
0100
,  // measure 53
1000
0001
0100
1000
0100
0001
1000
0000
,  // measure 54
0010
0001
0010
1000
0100
1000
0001
0000
,  // measure 55
0010
0001
0100
0010
1000
0100
0001
0000
,  // measure 56
0100
1000
0010
0001
0010
1000
0100
0000
,  // measure 57
1000
0010
0100
0010
1000
0100
1000
0001
,  // measure 58
0010
0001
0100
0010
1000
0100
1000
0010
,  // measure 59
0100
0001
0000
0000
0100
0001
0000
0000
0010
0001
0000
0000
0010
0001
0000
0000
,  // measure 60
0001
0000
0000
1000
0000
0000
0001
0000
0000
0000
0000
0000
2000
0000
0000
0000
0000
0000
0000
0000
0000
0000
0000
0000
3001
0000
0000
0000
0000
0000
0000
0000
0010
0000
0000
0000
1000
0000
0000
0000
0000
0000
0000
0000
0010
0000
0000
0000
,  // measure 61
0001
1000
0200
0000
1300
0001
0200
0000
,  // measure 62
0301
0000
0100
0000
0010
0000
0110
0000
0001
0000
1000
0000
,  // measure 63
0200
0000
0000
0000
1300
0002
0000
0000
1003
0000
0000
0000
0100
0000
1000
0000
,  // measure 64
0020
0000
0100
0000
0130
0000
0000
0000
0001
1000
0001
0000
0100
0000
0010
0000
,  // measure 65
2010
0100
3100
0000
0021
0001
0031
0000
,  // measure 66
0001
0100
0000
0000
0010
1000
0000
0000
0100
1000
0000
0000
0100
0010
0000
0000
,  // measure 67
0110
0000
1100
0000
0101
0000
0110
0000
0000
1001
0000
0000
,  // measure 68
1000
0000
0001
0100
0000
0100
0010
0000
0010
1000
0000
1000
,  // measure 69
0100
1000
0000
0000
1000
0010
0000
0000
1000
0000
0100
0000
0001
0000
0001
0000
,  // measure 70
0100
1000
0000
0000
0010
1000
0000
0000
0100
0000
1000
0000
0001
0000
0001
0000
,  // measure 71
0100
0010
0000
0000
0100
0001
0000
0000
0010
0000
0001
0000
0100
0000
0100
0000
,  // measure 72
1000
0100
0000
0000
0100
0001
0000
0000
0010
0000
0001
0000
1000
0000
1000
0000
,  // measure 73
0100
1000
0000
0000
0010
1000
0000
0000
0100
0000
1000
0000
0010
0000
0010
0000
,  // measure 74
0100
0001
0000
0000
0100
1000
0000
0000
0100
0000
0001
0000
0010
0000
0010
0000
,  // measure 75
0001
1000
0000
0000
1000
0001
0000
0000
0010
0000
0001
0000
1000
0000
1000
0000
,  // measure 76
0100
1000
0000
0000
1000
0010
0000
0000
0100
0000
0001
0000
0010
0000
0010
0000
,  // measure 77
0001
0100
0000
0000
0001
0100
0000
0000
1010
0000
1000
0000
0100
0000
1000
0000
,  // measure 78
0001
1000
0000
0000
0001
1000
0000
0000
1100
0000
1000
0000
0001
0000
0100
0000
,  // measure 79
0001
0010
0000
0000
0001
0010
0000
0000
0011
0000
0010
0000
0100
0000
1000
0000
,  // measure 80
0001
0100
0000
0000
0001
0100
0000
0000
1010
0000
1000
0000
0100
0000
0010
0000
,  // measure 81
0001
0010
0000
0000
0001
0010
0000
0000
1001
0000
1000
0000
0010
0000
0100
0000
,  // measure 82
0010
1000
0000
0000
0010
1000
0000
0000
1100
0000
0100
0000
1000
0000
0010
0000
,  // measure 83
1000
0000
1000
0100
0000
0100
0001
0000
0001
0100
0000
0100
,  // measure 84
2000
0000
0001
3002
0000
0100
0103
0010
,  // measure 85
2000
0000
0000
0100
3200
0000
0000
0010
,  // measure 86
0320
0000
0000
0001
0032
0000
0000
1000
,  // measure 87
1003
0000
0100
0000
1000
0000
1000
0000
0001
0100
0001
0100
0001
0000
0000
0000
,  // measure 88
0010
0100
0010
0100
0010
0000
0000
0000
0100
0001
0100
0001
0100
0000
0000
0000
,  // measure 89
1000
0001
0110
0000
0001
1000
0110
0000
,  // measure 90
1000
0100
1000
0010
0100
0001
0010
0001
,  // measure 91
0200
0000
0310
1000
0002
0000
0103
0010
,  // measure 92
2000
0000
3100
0010
0002
0000
0103
0010
,  // measure 93
1000
0100
0000
0000
1000
0010
0000
0000
1000
0001
0000
0000
0010
0001
0000
0000
,  // measure 94
0100
0100
0010
0100
0001
0001
1000
0100
,  // measure 95
2002
0000
0000
3003
;
