#TITLE:Want You Gone;
#SUBTITLE:;
#ARTIST:Jonathan Coulton feat. GLaDOS (Ellen McLain);
#TITLETRANSLIT:;
#SUBTITLETRANSLIT:;
#ARTISTTRANSLIT:;
#CREDIT:;
#BANNER:;
#BACKGROUND:;
#LYRICSPATH:;
#CDTITLE:;
#MUSIC:Want You Gone.ogg;
#OFFSET:-0.080;
#SAMPLESTART:24.660;
#SAMPLELENGTH:18.500;
#SELECTABLE:YES;
#DISPLAYBPM:100.000;
#BPMS:0.000=100.000;
#STOPS:10.750=0.580
,93.750=0.580
,145.000=3.000
;
#BGCHANGES:;

//---------------dance-single - ----------------
#NOTES:
     dance-single:
     :
     Hard:
     8:
     0.402,0.442,0.028,0.163,0.208:
0000
0000
0000
0000
,
0000
0000
0000
0000
,
1000
0000
0100
0000
1000
0000
0010
0100
0000
0100
0010
0000
1000
0000
0100
0000
,
0010
0100
1000
0000
0001
0000
0010
0001
0000
0100
0000
0000
1000
0000
0100
0000
,
0010
0000
0100
0010
0000
0010
0100
0100
0000
0000
0000
0000
2000
0000
0000
0001
,
3010
0000
0010
0000
0100
1000
0100
1000
0010
0001
0010
0000
0100
0000
0000
0000
,
1000
0000
0100
0000
0010
0000
0001
0000
0100
0000
0000
0000
1000
0100
1000
0000
,
0010
0000
0010
0000
0100
0000
0001
1000
0000
1000
0001
0000
0100
0000
0100
0000
,
0010
1000
0100
0010
0001
0100
2100
0000
,
0010
0000
0100
0001
3100
0001
2001
0000
,
3010
0000
0000
0000
1000
0100
1000
0000
0010
0000
0010
0000
0000
0000
0100
0000
,
0000
1000
0000
0002
0000
1000
0100
0000
,
0103
0000
1000
0100
1000
0010
0001
0200
,
0000
0000
0300
0000
0010
0002
0000
0003
0010
0001
0010
0000
1000
0000
0100
0000
,
1000
0000
0001
0100
0010
1000
0000
0010
,
0000
0100
0000
0001
0000
0010
1000
0100
,
1000
0100
0010
0000
0100
0010
1000
0001
,
1000
0001
1000
0001
0000
0000
0010
0100
,
0010
0000
0100
0000
0010
0000
0100
0000
0011
0000
0000
0000
0100
0000
0000
1000
,
0100
0000
0010
0000
0001
0000
0010
0000
0001
0000
0000
0000
1000
0000
0000
0100
,
0010
0000
0000
0010
0000
0000
0000
0000
0001
0000
0000
0000
1000
0000
0000
0000
0100
0000
0010
0000
0100
0000
0000
0000
0001
0000
0000
0000
0000
0000
1000
0000
,
0100
1000
0100
0000
0010
0000
0100
0010
0000
0010
0000
0000
0100
0000
0001
0000
,
1000
0000
1000
0000
0001
0100
0001
0100
0001
0010
0001
0000
0100
0000
0100
0010
,
0100
0000
0001
0000
1000
0000
0100
1000
0010
0000
1000
0001
1000
0000
0100
0000
,
0001
0000
0000
0000
0000
0000
0000
0000
0000
0000
0000
0000
0000
1000
0000
0000
0100
0000
0000
0000
1000
0000
0000
0000
0000
0000
0000
0000
0000
0000
0000
0000
1000
0000
0000
0000
0000
0000
0000
0000
0001
0000
0000
0000
0010
0000
0000
0000
0001
0000
0000
0000
0000
0000
0000
0000
0100
0000
0000
0000
0000
0000
0000
0000
,
1000
0100
1000
0100
0020
0000
0200
0330
,
1000
0100
0010
0001
0120
0000
0031
0000
,
0010
1000
0010
0000
0001
0000
0001
0000
0000
0000
1000
0000
0000
0000
0010
0000
,
0000
0200
0000
0010
1000
0000
1300
0000
,
0010
1000
0010
0001
0100
2000
0000
3000
,
0001
0200
0000
0300
0001
0100
0001
0000
0010
0000
1000
0000
0010
0000
0000
0000
,
0100
1000
0001
0010
0000
0001
0000
1000
,
0000
0100
0000
0001
0010
1000
0010
1000
,
0001
0000
1000
0001
0100
0010
0100
0010
,
0100
0010
0000
0000
1000
0001
1000
0001
,
1000
0000
0001
0000
0000
0000
0000
0000
1000
0000
0100
0000
1000
0000
0100
0010
,
0000
0000
0000
0001
0000
0000
0000
0000
0000
0000
0010
0000
0000
0000
0000
0000
0000
1000
0000
0000
0000
0000
0000
0000
0100
0000
0000
0000
0000
0000
0000
0000
0010
0000
0000
0000
0000
0000
0000
0000
0001
0000
0000
0000
0000
0000
0000
0000
0010
0000
0000
0000
0100
0000
0000
0000
0000
0000
0000
0000
0000
0000
0000
0000
,
0000
1000
0100
0020
0000
0000
0030
0000
0001
0000
0010
0000
0100
0010
0100
0010
,
1000
0001
2000
0000
3100
0000
0010
0001
0010
0000
1000
0000
0100
0000
0010
0100
,
0000
0000
0000
0000
1000
0000
1000
0000
0010
0100
0010
0000
0001
0000
1000
0100
,
0000
0000
0020
0000
0000
0030
1000
0100
1000
0000
0001
0000
0001
0000
0100
0010
,
0000
0000
0000
0000
1000
0100
1000
0000
0001
0010
0001
0000
2000
0000
0000
0000
,
0200
0000
3020
0000
0330
0000
0000
0000
0010
0000
0000
0000
1000
0100
1000
0000
,
0010
0010
0000
0100
0000
1000
0000
0002
,
0000
1000
0100
0000
0103
0000
1000
0100
,
1000
0000
0010
0000
0001
0000
0200
0000
0000
0000
0300
0000
0010
0002
0000
0003
,
0010
0001
0010
0000
1000
0000
0100
0000
1000
0000
0000
0000
0001
0000
0100
0000
,
0010
1000
0000
0010
0000
0100
0000
0001
,
0000
0010
1000
0100
1000
0100
0010
0000
,
0100
0010
0100
0100
0001
0100
0010
0000
,
0100
1000
0010
0100
0010
0100
0001
1000
,
0100
0010
0100
0001
0010
1000
0100
0010
,
0100
0010
1000
0100
0010
0100
1000
0000
,
0200
0020
0000
0000
0000
0000
0000
0000
,
0000
0000
0000
0330
0000
0000
0000
0000
;

//---------------dance-single - ----------------
#NOTES:
     dance-single:
     :
     Medium:
     6:
     0.254,0.289,0.000,0.134,0.000:
0000
0000
0000
0000
,
0000
0000
0000
0000
,
1000
0100
1000
0000
0010
0001
0010
0000
,
1000
0000
0100
0010
0100
0010
0000
0000
,
1000
0100
1000
0100
0010
0100
1000
0100
,
1000
0100
0001
0010
,
1000
0100
1000
0010
0001
0010
0000
0000
,
0100
1000
0100
0010
0100
0001
0010
0000
,
0010
0000
1000
0100
1000
0000
0001
0000
,
0010
0000
0100
0000
1000
1000
0002
0000
,
0000
0000
1003
0100
1000
0010
0000
0001
,
0000
0100
0000
2000
0000
0000
3000
0000
,
0000
0000
1000
0100
1000
0010
0001
0200
,
0000
0000
0000
0000
0000
0300
0010
0000
,
0010
0000
0100
1000
0100
0010
0000
0100
,
0000
0001
0000
1000
0000
0100
0000
0010
,
1000
0100
1000
0000
0001
0010
2000
0000
,
0000
0000
3000
0002
,
0000
0000
0000
0000
0003
0000
1000
0100
,
1000
0010
0001
0100
0010
0000
1000
0100
,
1000
0010
0100
0010
1000
0000
0001
0100
,
0010
1000
0100
0010
0100
1000
0010
0000
,
0001
0200
0000
0310
,
1000
0000
0100
0100
1000
0000
0001
0000
,
0010
0100
0010
0100
0100
0001
0010
0100
,
1000
0100
1000
0100
0010
0000
1000
0000
,
0001
0000
0010
0200
0000
0000
0300
0000
,
1000
0100
1000
0010
0000
0001
0000
0010
,
0000
0200
0000
0000
0000
0000
0300
0000
,
1000
0100
1000
0010
0001
0020
0000
0000
,
0000
0000
0030
1000
,
0100
0010
0100
0001
0000
1000
0000
0010
,
0000
0100
0000
0010
0000
0100
0010
0100
,
0010
0000
1000
0200
0000
0000
0000
0000
,
0000
0300
0020
0000
,
0000
0000
0030
0000
1000
0100
0010
0001
,
0010
0100
1000
0000
1000
0000
0100
0000
,
0010
0001
0010
0100
,
0100
0100
0010
0000
1000
0000
0010
0100
,
0010
0000
0001
0000
0001
0000
1000
0100
,
1000
0020
0030
0000
0100
0000
0010
0000
,
0001
0000
1000
0000
0100
0000
0001
1000
,
0001
2000
0000
0000
3000
0000
0010
0100
,
0010
0100
0000
0001
0000
1000
0000
0200
,
0000
0000
0300
0000
0000
0000
1000
0100
,
1000
0000
0001
0010
0002
0000
0003
0000
,
0000
0000
1000
0000
1000
0000
0010
0100
,
0010
0001
0000
1000
0000
0010
0000
0100
,
0000
0010
0000
0001
0010
0100
1000
0000
,
0010
0200
0000
0000
0000
0000
0000
0000
,
0300
0001
0100
0010
0001
1000
0100
0000
,
0010
0002
0000
0000
0000
0000
0000
0000
,
0003
1000
0000
0100
1000
0010
0001
0000
,
0200
0020
0000
0000
0000
0000
0000
0000
,
0000
0000
0330
0000
;

//---------------dance-single - ----------------
#NOTES:
     dance-single:
     :
     Easy:
     3:
     0.189,0.173,0.014,0.113,0.000:
0000
0000
0000
0000
,
0000
0000
0000
0000
,
1000
0100
0010
0000
,
0001
1000
0010
0000
,
0100
0010
0100
1000
,
1000
0002
0000
1003
,
1000
0010
0010
0100
,
0100
0001
1000
0010
,
0100
0010
1000
0100
,
1000
0020
0000
0030
,
0000
1000
1000
0001
,
0001
0010
0020
0000
,
0030
0100
0000
0010
,
0000
0001
0001
1000
,
1000
0010
0100
1000
,
0100
1000
0010
0100
,
0001
1000
0010
2002
,
0000
0000
0000
0000
,
0000
0000
3003
1000
,
0001
1000
0001
0000
,
0010
0100
0010
1000
,
1000
0001
0000
0100
,
0100
0010
0010
0100
,
1000
0100
0000
1000
,
0001
0100
0010
0010
,
1000
0100
1000
0010
,
0100
0001
1000
1000
,
0001
0001
0010
0100
,
0010
0200
0300
0000
,
1000
1000
0001
0001
,
0200
0000
0300
0010
,
1000
0001
0100
0100
,
0001
1000
0010
0100
,
0010
1000
0220
0000
,
0000
0000
0000
0000
,
0000
0330
0100
1000
,
0100
1000
0001
0100
,
0010
1000
0100
1000
,
1000
0010
0100
0001
,
0000
1000
1000
0010
,
0100
0001
1000
0010
,
0010
0100
0100
0001
,
1000
0100
0010
0010
,
1000
0001
1000
0100
,
0100
0010
0010
1000
,
0001
1000
0001
0200
,
0300
0010
0010
0100
,
1000
0001
0010
0100
,
0001
1000
0010
0100
,
0010
2000
3000
0002
,
0003
0100
0010
0100
,
1000
0200
0300
0020
,
0030
1000
0010
0100
,
0002
2000
0000
0000
,
0000
0000
3003
0000
;

//---------------dance-single - Copied from ----------------
#NOTES:
     dance-single:
     Copied from:
     Beginner:
     1:
     0.092,0.094,0.014,0.000,0.000: // measure 1
0000
0000
0000
0000
,  // measure 2
0000
0000
0000
0000
,  // measure 3
1000
0000
0010
0000
,  // measure 4
0001
0000
0010
0000
,  // measure 5
0100
0000
0100
0000
,  // measure 6
0000
0001
0000
1000
,  // measure 7
0000
0010
0000
0100
,  // measure 8
0000
0001
0000
0000
,  // measure 9
0000
0010
0000
1000
,  // measure 10
0000
0010
0000
0100
,  // measure 11
0000
0000
1000
0000
,  // measure 12
0001
0000
0010
0000
,  // measure 13
0000
0100
0000
0010
,  // measure 14
0000
0001
0000
1000
,  // measure 15
0000
0010
0000
1000
,  // measure 16
0000
1000
0000
0100
,  // measure 17
0000
1000
0000
1001
,  // measure 18
0000
0000
0000
0000
,  // measure 19
0000
0000
0000
1000
,  // measure 20
0000
0001
0000
0000
,  // measure 21
0010
0000
0010
1000
,  // measure 22
0000
0001
0000
0100
,  // measure 23
0000
0010
0000
0100
,  // measure 24
0000
0100
0000
0000
,  // measure 25
0001
0000
0010
0000
,  // measure 26
1000
0000
1000
0000
,  // measure 27
0100
0000
1000
0000
,  // measure 28
0001
0000
0010
0000
,  // measure 29
0010
0000
0000
0000
,  // measure 30
1000
0000
0001
0000
,  // measure 31
0100
0000
0000
0000
,  // measure 32
1000
0000
0100
0000
,  // measure 33
0001
0000
0010
0000
,  // measure 34
0010
0000
0110
0000
,  // measure 35
0000
0000
0000
0000
,  // measure 36
0000
0000
0000
0000
,  // measure 37
0000
0000
0000
0000
,  // measure 38
0000
0000
0000
1000
,  // measure 39
0000
0010
0000
0001
,  // measure 40
0000
1000
0000
0010
,  // measure 41
0000
0001
0000
0010
,  // measure 42
0000
0100
0000
0001
,  // measure 43
0000
0100
0000
0010
,  // measure 44
0000
0001
0000
0100
,  // measure 45
0000
0010
0000
1000
,  // measure 46
0000
1000
0000
0100
,  // measure 47
0000
0010
0000
0100
,  // measure 48
0000
0001
0000
0100
,  // measure 49
0000
1000
0000
0100
,  // measure 50
0000
1000
0000
0001
,  // measure 51
0000
0100
0000
0100
,  // measure 52
0000
0100
0000
0010
,  // measure 53
0000
1000
0000
0100
,  // measure 54
0001
1000
0000
0000
;
