#TITLE:Waluigi Pinball;
#SUBTITLE:(SSBB Remix);
#ARTIST:田中しのぶ (arranged by 石坂健太郎);
#TITLETRANSLIT:;
#SUBTITLETRANSLIT:;
#ARTISTTRANSLIT:SHINOBU TANAKA (arranged by KENTARO ISHIZAKA);
#CREDIT:DMAxel;
#BANNER:Waluigi Pinball (SSBB Remix).png;
#BACKGROUND:Waluigi Pinball (SSBB Remix)-bg.png;
#LYRICSPATH:;
#CDTITLE:DMAxel original simfile.png;
#MUSIC:Waluigi Pinball (SSBB Remix).mp3;
#OFFSET:-8.380;
#SAMPLESTART:8.349;
#SAMPLELENGTH:12.000;
#SELECTABLE:YES;
#BPMS:0.000=152.000,120.000=76.000,124.000=152.000,132.000=76.000,136.000=152.000,168.000=146.000,180.000=149.000;
#STOPS:;
#BGCHANGES:;

//---------------dance-single - ----------------
#NOTES:
     dance-single:
     :
     Easy:
     3:
     0.227,0.272,0.032,0.183,0.000:
0001
0000
1000
0000
,
0001
0010
0100
1000
,
0010
0000
0010
0000
,
1000
0001
0100
0000
,
0001
0000
1000
0000
,
0001
0010
0100
1000
,
0001
0000
0100
0000
,
0020
0000
0000
0000
,
1030
0000
0001
0000
,
1000
0100
0010
0001
,
0100
0000
0100
0000
,
0001
1000
0010
0000
,
1000
0000
0001
0000
,
1000
0100
0010
0001
,
2000
0000
0001
0000
,
3001
0001
1000
1000
,
0020
0000
0130
0000
,
0002
0000
1003
0000
,
0100
0010
0001
1000
,
0002
0000
0000
0000
,
0203
0000
0310
0000
,
2000
0000
3001
0000
,
0010
0100
1000
0000
,
1001
0001
1000
1000
,
0001
0100
0002
0000
,
1003
0100
2000
0000
,
3010
0100
0020
0000
,
1030
0100
0010
0001
,
2000
0000
0000
0000
,
3001
0010
0100
1000
,
0001
0100
0000
0001
0000
1000
0200
0000
,
1300
0001
0100
0001
,
0010
0100
1000
0001
,
1000
0010
0000
1000
0000
0001
0020
0000
,
0031
1000
0010
0000
,
1000
0001
0100
0000
,
0010
0100
0010
0000
,
0100
0010
0100
0000
,
2002
0000
0000
0000
,
0000
0000
0000
3003
,
0002
0000
0000
0000
,
2003
0000
0000
0000
,
3001
0100
0010
0000
,
1000
0010
0100
0000
,
0001
0010
0100
0000
,
1000
0100
0010
0001
,
1001
0000
0000
0000
;

//---------------dance-single - ----------------
#NOTES:
     dance-single:
     :
     Medium:
     6:
     0.410,0.396,0.172,0.150,0.016:
1000
0001
0100
0000
0010
0000
1010
0000
,
0001
0010
0001
0000
1000
0100
1000
0000
,
0001
1000
0010
0000
0100
0000
0101
0000
,
1000
0100
1000
0000
0001
0010
0001
0000
,
1000
0001
0010
0000
0100
0000
1100
0000
,
0001
0100
0001
0000
1000
0010
1000
0000
,
0001
1000
0100
0000
0010
0000
0001
0100
,
2000
0100
0100
0001
,
3001
1000
0010
0000
0100
0001
1000
0000
,
0100
1000
0100
0000
0010
0001
0010
0000
,
0001
1000
0010
0000
0100
0001
1000
0000
,
0010
0100
0010
2000
0000
0000
3000
0000
,
1000
0001
0100
0000
0010
1000
0001
0000
,
0010
0001
0010
0000
0100
1000
0100
0000
,
0010
0001
0200
0000
0010
0000
0310
0000
,
1000
1001
0001
1001
,
0010
0001
0010
0001
2000
0000
0000
0000
,
3100
0010
0001
1000
,
0100
1000
0100
1000
0002
0000
0010
0000
,
0013
0100
1000
0001
,
0100
0001
0100
0001
2000
0000
0000
0000
,
3100
0010
0001
1000
,
0010
0000
0010
0000
0000
0000
0000
1001
0000
0000
0000
0000
0000
0000
0000
0000
,
0001
1001
1000
1001
,
0010
1000
0010
1000
0002
0000
0013
0000
,
0010
0001
0010
0001
2000
0000
3010
0000
,
0010
1000
0010
1000
0002
0000
0013
0000
,
0001
1001
1000
1001
,
0110
0000
0000
0000
0100
0010
0100
0010
,
0100
0001
1000
0000
0100
1000
0100
0000
,
1000
0000
0010
0000
0100
0000
0001
0000
0010
0000
0100
0000
1000
0001
1000
0000
,
0001
0010
0100
0000
1000
0001
1000
0000
,
0010
1000
0001
0000
0010
0001
0010
0000
,
0001
0000
0100
0000
0010
0000
1000
0000
0100
0000
0010
0000
0001
1000
0001
0000
,
1000
0100
0001
0000
0100
0000
1000
0000
,
0001
0010
1000
0000
0010
0000
0001
0000
,
1000
0100
0001
0000
0100
0000
1000
0000
,
0001
0010
1000
0000
0010
0000
0001
0000
,
2001
0100
0001
0100
,
3002
0100
1000
0103
,
2002
0000
0000
0003
,
0200
0000
0000
3300
,
1000
0100
1000
0001
0100
0000
0001
0000
,
0001
0010
0001
1000
0010
0000
1000
0000
,
1000
0010
1000
0001
0010
0000
0001
0000
,
1000
1001
0001
1001
,
0110
0000
0000
0000
;

//---------------dance-single - ----------------
#NOTES:
     dance-single:
     :
     Hard:
     8:
     0.570,0.593,0.129,0.118,0.462: // measure 1
0001
0000
0100
0000
0002
0000
0000
0000
1003
0010
0000
0100
0000
0000
0001
0000
,  // measure 2
1000
0000
0100
0000
1000
0001
0000
0100
0000
0000
0001
0000
0100
0000
0001
0000
,  // measure 3
1000
0000
0100
0000
2000
0000
0000
0000
3001
0100
0000
0010
0000
0000
1000
0000
,  // measure 4
0001
0000
0100
0000
0001
1000
0000
0200
0000
0000
0000
0000
1000
0000
0000
0000
,  // measure 5
1300
0000
0010
0000
2000
0000
0000
0000
3001
0100
0000
0010
0000
0000
1000
0000
,  // measure 6
0001
0000
0010
0000
0001
1000
0000
0010
0000
0000
1000
0000
0010
0000
1000
0000
,  // measure 7
0001
0000
0010
0001
0010
0001
0000
1000
0000
0000
1000
0000
0010
0000
0100
0000
,  // measure 8
0001
0001
0010
0010
0100
0100
1000
1000
,  // measure 9
0001
0000
0100
0000
0001
0000
1000
0000
0100
1000
0000
0001
0000
0000
0010
0000
,  // measure 10
0001
0000
0010
0000
0100
0000
1000
0010
0000
0100
0000
0001
1000
0000
1000
0000
,  // measure 11
0001
0000
0010
0000
0100
0000
0000
0000
1000
0001
0000
0100
0000
0000
0001
0000
,  // measure 12
1000
0100
0010
0001
1000
1000
0001
0001
,  // measure 13
1000
0000
0100
0000
1000
0000
0001
0000
0100
0001
0000
1000
0000
0000
0100
0000
,  // measure 14
1000
0000
0100
0000
0010
0001
0000
0100
0000
0000
0010
0000
1000
0000
0001
0000
,  // measure 15
1000
0000
0100
1000
0100
1000
0000
0001
0000
0000
0001
0000
0100
0010
0100
0000
,  // measure 16
0101
1100
0101
1001
,  // measure 17
0010
1000
0001
0010
0100
1000
0001
0100
,  // measure 18
0020
0000
0000
1000
0000
0000
2030
0000
0001
0000
0000
3001
0000
0000
0000
0000
,  // measure 19
0100
0001
1000
0100
0010
0001
0100
1000
,  // measure 20
0100
0000
0000
1000
0001
0000
0100
0000
0001
0000
0001
0000
1000
0000
1000
0000
,  // measure 21
0010
1000
0001
0010
0100
1000
0001
0100
,  // measure 22
0020
0000
0000
1000
0000
0000
2030
0000
0001
0000
0000
3001
0000
0000
0000
0000
,  // measure 23
0100
0000
0001
0000
1001
0000
0000
2000
0000
0000
0000
0000
3001
0000
0000
0000
,  // measure 24
1000
1000
0010
0010
0100
0100
0001
0001
,  // measure 25
1000
0000
0010
1000
0000
0001
0000
0010
0000
0000
0001
0000
0010
0000
0001
0000
,  // measure 26
1000
0000
0100
1000
0000
0001
0000
0100
0000
0000
0001
0000
0100
0000
0001
0000
,  // measure 27
1000
0000
0010
1000
0000
0001
0000
0010
0000
0000
0001
0000
0010
0000
0001
0000
,  // measure 28
0101
0110
1100
1001
,  // measure 29
0120
0000
0000
0000
1000
1030
0001
0001
,  // measure 30
0100
0000
0001
0000
1000
0100
0000
1000
0000
0000
0100
0000
0001
0000
0100
0000
,  // measure 31
1000
0100
0010
0001
1000
0000
1000
0010
0100
0001
1000
0100
1000
1000
0001
0001
,  // measure 32
0100
0000
0010
0000
0100
0000
0001
0000
1000
0100
0000
1000
0000
0000
0100
0000
,  // measure 33
0001
0100
1000
0100
0010
0001
1000
0010
,  // measure 34
1000
0100
0010
0000
0001
1000
0001
0010
0100
1000
0001
0100
0001
0001
1000
1000
,  // measure 35
0010
0000
1000
0000
0001
0000
0000
0000
0100
0000
0000
1000
0000
0000
0100
0000
,  // measure 36
0000
0000
0001
0000
1000
0000
0000
0000
0100
0000
0000
0001
0000
0000
0100
0000
,  // measure 37
0010
0000
1000
0000
0001
0000
0000
0000
0100
0000
0000
1000
0000
0000
0100
0000
,  // measure 38
0010
0000
0001
0000
1000
0000
0000
0000
0100
0000
0000
0001
0000
0000
0100
0000
,  // measure 39
1000
0000
1000
0100
0000
0100
0010
0000
0010
0001
0000
0001
,  // measure 40
0100
0000
0100
0010
0000
0010
1000
0000
1000
0001
0000
0001
,  // measure 41
1000
0000
0100
0000
2000
0000
0000
0000
0001
0000
0000
0001
0000
0000
3001
0000
,  // measure 42
0010
0000
0100
0000
1000
0000
0000
0001
0000
0000
0100
0000
0110
0000
0000
0000
,  // measure 43
0001
0000
0010
0001
0000
0100
0000
0010
0000
0000
1000
0000
0100
0000
0001
0000
,  // measure 44
1000
0000
0100
1000
0000
0010
0000
0100
0000
0000
0001
0000
0100
0000
1000
0000
,  // measure 45
0001
0000
0100
0001
0000
1000
0000
0100
0000
0000
1000
0000
0100
0000
0001
0000
,  // measure 46
1000
1000
0100
0100
0010
0010
0001
0001
,  // measure 47
0110
0000
0000
0000
;

//---------------dance-single - ----------------
#NOTES:
     dance-single:
     :
     Beginner:
     1:
     0.077,0.124,0.086,0.000,0.000:
1000
0000
0000
0000
,
1000
0000
0000
0000
,
0001
0000
0000
0000
,
0001
0000
0000
0000
,
0100
0000
0000
0000
,
0010
0000
0000
0000
,
0100
0000
0000
0000
,
1001
0000
0000
0000
,
0001
0000
0000
0000
,
1000
0000
0000
0000
,
0001
0000
0000
0000
,
0001
0000
0000
0000
,
1000
0000
0000
0000
,
0001
0000
0000
0000
,
1000
0000
0000
0000
,
1000
0000
0000
0000
,
1001
0000
0000
0000
,
0000
0000
0000
0000
,
0010
0000
0000
0000
,
0000
0000
0000
0000
,
0010
0000
0000
0000
,
0000
0000
0000
0000
,
0100
0000
0000
0000
,
1001
0000
0000
0000
,
0001
0000
0000
0000
,
0010
0000
0000
0000
,
0100
0000
0000
0000
,
1000
0000
0000
0000
,
1001
0000
0000
0000
,
0001
0000
0000
0000
,
0001
0000
0000
0000
,
1001
0000
0000
0000
,
1000
0000
0000
0000
,
1000
0000
0000
0000
,
0000
0001
0000
0000
,
0000
0001
0000
0000
,
0000
0001
0000
0000
,
0000
1000
0000
0000
,
1001
0000
0000
0000
,
0000
0000
0000
0000
,
0001
0000
0000
0000
,
0000
0000
0000
0000
,
1000
0000
0000
0000
,
0001
0000
0000
0000
,
1000
0000
0000
0000
,
0110
0000
0000
0000
,
1001
0000
0000
0000
;
