#TITLE:Title from Harvest Moon - Back to Nature;
#SUBTITLE:;
#ARTIST:CATS (Miyuki Homareda);
#TITLETRANSLIT:;
#SUBTITLETRANSLIT:;
#ARTISTTRANSLIT:;
#CREDIT:348;
#BANNER:Title Banner.png;
#BACKGROUND:Title Background.png;
#LYRICSPATH:;
#CDTITLE:;
#MUSIC:Title.mp3;
#OFFSET:-1.065;
#SAMPLESTART:16.424;
#SAMPLELENGTH:12.000;
#SELECTABLE:YES;
#BPMS:0.000=125.000;
#STOPS:;
#BGCHANGES:;

//---------------dance-single - ----------------
#NOTES:
     dance-single:
     :
     Beginner:
     1:
     0.090,0.119,0.000,0.000,0.000: // measure 1
0000
0000
0000
0000
,  // measure 2
0000
0000
0000
0000
,  // measure 3
0000
0000
0000
0000
,  // measure 4
0000
0000
0000
0000
,  // measure 5
1000
0000
0000
0000
,  // measure 6
0100
0000
0000
0000
,  // measure 7
0010
0000
0000
0000
,  // measure 8
0001
0000
0000
0000
,  // measure 9
1000
0000
1000
0000
,  // measure 10
0001
0000
0001
0000
,  // measure 11
1000
0000
0000
0000
,  // measure 12
0001
0000
0000
0000
,  // measure 13
0100
0000
0100
0000
,  // measure 14
0010
0000
0010
0000
,  // measure 15
0100
0000
0000
0000
,  // measure 16
0010
0000
0000
0000
,  // measure 17
1000
0000
0000
0000
,  // measure 18
0001
0000
1000
0000
,  // measure 19
0010
0000
0000
0000
,  // measure 20
0100
0000
0010
0000
,  // measure 21
1000
0000
0001
0000
,  // measure 22
0100
0000
0010
0000
,  // measure 23
1000
0000
0000
0000
,  // measure 24
0001
0000
0000
0000
,  // measure 25
0100
0000
0000
0000
,  // measure 26
0010
0000
0000
0000
,  // measure 27
1000
1000
0000
0000
,  // measure 28
0100
0100
0000
0000
,  // measure 29
0010
0000
0001
0000
,  // measure 30
0010
0000
0001
0000
,  // measure 31
0010
0010
0000
0000
,  // measure 32
0001
0001
0000
0000
,  // measure 33
1000
0000
0100
0000
,  // measure 34
1000
0000
0100
0000
,  // measure 35
1000
0000
0000
0000
,  // measure 36
0001
0000
0000
0000
,  // measure 37
0010
0000
0000
0000
,  // measure 38
0100
0000
0000
0000
,  // measure 39
1000
0000
0010
0000
,  // measure 40
0100
0000
0001
0000
,  // measure 41
1000
0000
0000
0000
,  // measure 42
0010
0000
0000
0000
,  // measure 43
0100
0000
0000
0000
,  // measure 44
0001
0000
0000
0000
,  // measure 45
1000
0000
0000
0000
,  // measure 46
0001
0000
0000
0000
,  // measure 47
1000
0000
0000
0000
;

//---------------dance-single - ----------------
#NOTES:
     dance-single:
     :
     Easy:
     2:
     0.158,0.216,0.041,0.093,0.000: // measure 1
0000
0000
0000
0000
,  // measure 2
0000
0000
0000
0000
,  // measure 3
0000
0000
0000
0000
,  // measure 4
0000
0000
0000
0000
,  // measure 5
1000
0000
0100
0000
,  // measure 6
0010
0000
0001
0000
,  // measure 7
1000
0000
0010
0000
,  // measure 8
0100
0000
0001
0000
,  // measure 9
2000
0000
3001
0000
,  // measure 10
0200
0000
0310
0000
,  // measure 11
1000
0000
0001
0000
,  // measure 12
1000
0001
1000
0000
,  // measure 13
0002
0000
1003
0000
,  // measure 14
0020
0000
0130
0000
,  // measure 15
0100
0000
0010
0000
,  // measure 16
0010
0100
0010
0000
,  // measure 17
1100
0000
0000
0000
,  // measure 18
0001
1000
0010
0000
,  // measure 19
0101
0000
0000
0000
,  // measure 20
1000
0001
0100
0000
,  // measure 21
0010
0010
0010
0000
,  // measure 22
0100
0100
0100
0000
,  // measure 23
0001
0000
1000
0000
,  // measure 24
1000
0000
0001
0000
,  // measure 25
1000
0000
0001
0000
,  // measure 26
0001
0000
1000
0000
,  // measure 27
0002
0003
1000
0100
,  // measure 28
0020
0030
0001
1000
,  // measure 29
0200
0300
2000
3000
,  // measure 30
0001
1000
0001
0000
,  // measure 31
1000
0000
0001
0000
,  // measure 32
0100
0000
0010
0000
,  // measure 33
1000
0001
1000
0000
,  // measure 34
0010
0100
0010
0000
,  // measure 35
1001
0000
1000
0000
,  // measure 36
0001
0000
0000
0000
,  // measure 37
0110
0000
0100
0000
,  // measure 38
0010
0000
0000
0000
,  // measure 39
1000
0000
0010
0000
,  // measure 40
0100
0000
0001
0000
,  // measure 41
1000
0000
0001
0010
,  // measure 42
0001
0000
1000
0000
,  // measure 43
0001
0000
1000
0100
,  // measure 44
1000
0000
0001
0000
,  // measure 45
0100
0000
0001
0000
,  // measure 46
1000
0000
0010
0000
,  // measure 47
2000
0000
3000
0000
;

//---------------dance-single - ----------------
#NOTES:
     dance-single:
     :
     Medium:
     5:
     0.328,0.337,0.196,0.248,0.155: // measure 1
0000
0000
0000
0000
,  // measure 2
0000
0000
0000
0000
,  // measure 3
0000
0000
0000
0000
,  // measure 4
0000
0000
0000
0000
,  // measure 5
1000
0100
1000
0001
,  // measure 6
0010
0001
0010
0100
,  // measure 7
1000
0100
0001
0100
,  // measure 8
1000
0010
0001
0010
,  // measure 9
1000
0000
0000
0001
0000
0100
0000
0000
0100
0001
0000
0000
,  // measure 10
1000
0000
0000
0010
0000
1000
0000
0000
1000
0010
0000
0000
,  // measure 11
1000
0110
0001
0110
,  // measure 12
1000
0000
0000
0010
0000
0200
0000
0000
0310
0100
0000
0000
,  // measure 13
0001
0000
0000
1000
0000
0100
0000
0000
0100
1000
0000
0000
,  // measure 14
0001
0000
0000
0010
0000
0001
0000
0000
0001
0010
0000
0000
,  // measure 15
0100
0000
0000
1000
0000
0000
1001
0000
1000
0001
0000
0000
,  // measure 16
0100
0010
2000
3001
,  // measure 17
0200
0302
2003
3020
,  // measure 18
1030
0000
0000
0001
0000
1000
0000
0000
0000
1001
0000
0000
,  // measure 19
0002
0203
2300
3020
,  // measure 20
0031
0000
0000
0100
0000
0010
0000
0000
0000
0110
0000
0000
,  // measure 21
1000
0000
0001
0010
0000
0000
0001
0000
0000
1000
0000
0000
,  // measure 22
0001
0000
1000
0100
0000
0000
1000
0000
0000
0001
0000
0000
,  // measure 23
0100
0020
0130
0011
,  // measure 24
1000
0002
0013
1100
,  // measure 25
0010
2000
3001
0101
,  // measure 26
0001
0200
0310
1010
,  // measure 27
0001
0000
0000
1000
0000
0100
0000
0000
0000
1001
0000
0000
,  // measure 28
0100
0000
0000
0010
0000
0001
0000
0000
0000
0110
0000
0000
,  // measure 29
0100
1001
0010
1001
,  // measure 30
0010
0000
0000
0001
0000
0200
0000
0000
0310
1000
0000
0000
,  // measure 31
0001
0000
0000
0100
0000
0010
0000
0000
0000
1001
0000
0000
,  // measure 32
0100
0000
0000
0001
0000
1000
0000
0000
0000
0110
0000
0000
,  // measure 33
1000
0000
0000
0100
0000
0000
0011
0000
1000
0100
0000
0010
,  // measure 34
0001
1100
0010
0001
,  // measure 35
1000
1000
0100
1000
,  // measure 36
0001
0000
0000
0010
0000
0010
0000
0000
0010
0001
0000
0100
,  // measure 37
0001
0001
0010
0001
,  // measure 38
1000
0000
0000
0100
0000
0100
0000
0000
0100
1000
0000
0000
,  // measure 39
0002
0013
0200
1300
,  // measure 40
2000
3100
0020
0031
,  // measure 41
2000
0000
3001
0110
,  // measure 42
0001
0100
1000
0100
,  // measure 43
0020
0000
0130
0110
,  // measure 44
1000
0100
0010
0001
,  // measure 45
1000
0000
0000
1000
0000
0200
0000
0000
0000
0300
0000
0000
,  // measure 46
0010
0000
0000
0010
0000
0002
0000
0000
0000
0003
0000
0000
,  // measure 47
0200
0000
0300
0000
;

//---------------dance-single - ----------------
#NOTES:
     dance-single:
     :
     Hard:
     7:
     0.462,0.457,0.383,0.289,0.512: // measure 1
0000
0000
0000
0000
,  // measure 2
0000
0000
0000
0000
,  // measure 3
0000
0000
0000
0000
,  // measure 4
0000
0000
0000
0000
,  // measure 5
1000
0000
0001
1000
0000
0000
0010
0000
0100
0010
0000
0000
,  // measure 6
1001
0000
0000
0010
0000
0100
0000
0000
0100
0010
0000
0000
,  // measure 7
1000
0000
0010
1000
0000
0000
0001
0000
0100
0001
0000
0000
,  // measure 8
0110
0000
0000
0001
0000
1000
0000
0000
1000
0001
0000
0000
,  // measure 9
2000
0000
0000
3010
0000
1010
0000
0000
0100
0001
0000
0010
,  // measure 10
0002
0000
0000
0103
0000
0101
0000
0000
1000
0100
0000
0010
,  // measure 11
0001
1100
0101
1001
,  // measure 12
0100
0000
0001
2000
0000
3010
0000
0000
1000
0100
0000
0001
,  // measure 13
0200
0000
0000
1300
0000
1100
0000
0000
0100
1000
0000
0001
,  // measure 14
0020
0000
0000
0031
0000
0011
0000
0000
1000
0010
0000
1000
,  // measure 15
0100
0000
1000
0010
0000
0000
0001
0000
0010
1000
0000
0000
,  // measure 16
0021
0130
0210
1300
,  // measure 17
0001
0000
1000
0100
0000
0100
0010
0000
0010
0001
0000
0001
,  // measure 18
1000
0000
0100
0010
0000
1001
0000
0000
1000
0001
0000
0000
,  // measure 19
0001
0000
0001
0010
0000
0010
1000
0000
1000
0010
0000
0010
,  // measure 20
0001
0000
1000
0001
0000
1001
0000
0000
0100
0010
0000
0000
,  // measure 21
1000
0100
1000
0100
0000
0000
0010
0000
0001
0010
0000
0000
,  // measure 22
0001
0000
1000
0010
0000
0100
0001
0000
1000
0010
0000
0000
,  // measure 23
1000
0000
0000
0011
0000
0000
1100
0000
0001
0010
0000
0000
,  // measure 24
0100
0000
0000
1010
0000
0000
0101
0000
1000
0100
0000
0000
,  // measure 25
0010
0000
0000
0011
0000
0000
0101
0000
0010
1000
0000
0000
,  // measure 26
0001
0000
0000
1100
0000
0000
1010
0000
0001
0100
0000
0000
,  // measure 27
1001
0000
0100
0001
0000
1010
0000
0000
1000
0001
0000
0100
,  // measure 28
0010
0000
1000
0010
0000
0101
0000
0000
1000
0100
0000
0001
,  // measure 29
0200
0000
1300
0100
0000
0000
0020
0000
0031
0010
0000
0000
,  // measure 30
0002
0000
0000
2003
0000
0100
0000
0000
3100
1000
0000
0000
,  // measure 31
0011
0000
1000
0010
0000
1001
0000
0000
0100
0001
0000
0000
,  // measure 32
1100
0000
0001
0100
0000
0110
0000
0000
0010
1000
0000
0000
,  // measure 33
0020
0000
0000
0230
0000
0001
0000
0000
0301
0100
0000
1010
,  // measure 34
0000
0002
2003
3001
,  // measure 35
0001
0000
1000
0100
0000
0100
1000
0000
1000
0010
0000
0010
,  // measure 36
0200
0000
0000
0301
0000
0002
0000
0000
1003
0001
0000
0000
,  // measure 37
1000
0000
0001
0100
0000
0100
0010
0000
0010
1000
0000
1000
,  // measure 38
0020
0000
0000
1030
0000
2000
0000
0000
3001
0100
0000
0000
,  // measure 39
0001
0100
0001
0100
0000
0000
0010
1000
0010
1000
0000
0000
,  // measure 40
0001
2000
3010
0110
,  // measure 41
1000
0011
0001
1100
,  // measure 42
0002
0000
0000
2003
0000
0000
3010
0000
0100
0010
0000
0000
,  // measure 43
0110
0000
1000
0001
0000
0000
1001
0000
0100
0010
0000
0000
,  // measure 44
2000
0000
3010
1000
0000
1000
0002
0000
0103
0001
0000
0000
,  // measure 45
1001
0000
0100
0010
0000
0020
0000
0000
1030
0001
0000
0000
,  // measure 46
0110
0000
1000
0001
0000
0002
0000
0000
0103
0010
0000
0000
,  // measure 47
0220
0000
0330
0000
;

//---------------dance-single - ----------------
#NOTES:
     dance-single:
     :
     Challenge:
     9:
     0.600,0.553,0.238,0.331,1.000: // measure 1
0000
0000
0000
0000
,  // measure 2
0000
0000
0000
0000
,  // measure 3
0000
0000
0000
0000
,  // measure 4
0000
0000
0000
0000
,  // measure 5
1000
0100
0001
0200
0000
0000
1300
0100
0010
0002
0000
0000
,  // measure 6
0013
0001
0010
0001
0100
0001
1000
0010
1000
0010
0000
0000
,  // measure 7
0100
0001
1000
0020
0000
0000
1030
0001
1000
0002
0000
0000
,  // measure 8
1003
0100
0010
0100
1000
0001
0010
0001
1000
0001
0000
0000
,  // measure 9
0110
0000
0001
0010
0000
1100
0000
0000
1000
0100
0001
0100
,  // measure 10
1000
0000
0100
1000
0000
0011
0000
0000
0100
0001
1000
0001
,  // measure 11
0100
0001
0010
1000
0000
0000
0010
0001
0100
0010
0000
0000
,  // measure 12
1100
0000
0100
1000
0000
0010
1000
0000
0001
0100
0010
1000
,  // measure 13
0001
0000
1000
0100
0000
0011
0000
0000
1000
0010
0100
0010
,  // measure 14
1000
0000
0001
0100
0000
1010
0000
0000
0001
0010
0100
0010
,  // measure 15
0002
1003
0100
2000
0000
0000
3020
0130
0001
0200
0300
0000
,  // measure 16
1001
0000
0100
0010
0000
1000
0001
0000
0010
0001
1000
0100
,  // measure 17
1000
0100
1000
0020
0000
0000
0130
0001
1000
0002
0000
0000
,  // measure 18
1003
0000
1000
0001
0000
1001
0000
0000
0001
0010
1000
0001
,  // measure 19
0100
1000
0001
2000
0000
0000
3001
0010
0001
0200
0000
0000
,  // measure 20
0301
1000
0100
0010
0000
1001
0000
0000
0010
0001
1000
0001
,  // measure 21
0010
0001
1000
0200
0000
0000
1300
0100
1000
0002
0000
0000
,  // measure 22
1003
0100
1000
0100
0010
0100
0010
0001
0010
0001
0000
0000
,  // measure 23
0110
0000
0001
1000
0000
1000
0100
0000
0100
0010
0000
0010
,  // measure 24
0001
0000
0001
0010
0000
0010
1000
0000
1000
0010
0000
0010
,  // measure 25
0001
0000
1000
0100
0000
0010
0100
0000
0001
0100
0000
0010
,  // measure 26
1000
0000
0010
0001
0000
0010
0100
0000
0100
0010
0001
1000
,  // measure 27
0002
0000
0000
1003
0100
0010
0000
0000
0010
0100
1000
0100
,  // measure 28
0020
0000
0000
0031
0100
1000
0000
0000
0100
0001
1000
0010
,  // measure 29
2000
0000
3001
2000
0000
3010
2000
0000
3100
2000
0000
3001
,  // measure 30
0010
0000
0100
1000
0100
0010
0000
0000
0001
0100
0001
0010
,  // measure 31
0001
1000
0001
1000
0000
0011
0000
0000
1000
0002
0000
1003
,  // measure 32
0100
0010
0100
0010
0000
0011
0000
0000
0001
2000
0000
3001
,  // measure 33
0200
0000
0310
0200
0000
1300
0200
0000
0310
0200
0000
0301
,  // measure 34
1000
0000
0000
0110
0000
0000
0001
0010
0100
1000
0000
0000
,  // measure 35
0001
0010
1000
0002
0000
0013
1000
0001
0100
0020
0000
0100
,  // measure 36
0130
0000
0001
1000
0000
1010
0000
0000
1000
0001
0000
0001
,  // measure 37
1000
0100
0001
2000
0000
3100
0001
1000
0001
2000
0000
3001
,  // measure 38
1001
0000
0010
1000
0000
0100
0001
0000
0100
1000
0000
0000
,  // measure 39
0001
0010
0100
0010
0000
0001
1000
0010
0001
0010
0000
1000
,  // measure 40
0001
1000
0001
1000
0100
0010
0001
0000
0000
0110
0000
0000
,  // measure 41
1001
0000
0010
0001
0000
1000
0100
0001
1000
0010
0000
0001
,  // measure 42
1000
0000
1000
0100
0000
0010
0001
1000
0001
0010
0000
0001
,  // measure 43
0100
0000
0001
1000
0000
0010
1000
0100
0010
0001
0000
1000
,  // measure 44
0100
1000
0010
1000
0001
0100
0001
0000
0000
0011
0000
0000
,  // measure 45
1001
0000
0001
0010
0000
1100
0000
0000
1000
0001
0000
0100
,  // measure 46
0110
0000
0100
0010
0000
1010
0000
0000
0100
0001
0000
1000
,  // measure 47
2002
0000
3003
0000
;
