#TITLE:Still Alive;
#SUBTITLE:;
#ARTIST:GLaDOS (Ellen McLain);
#TITLETRANSLIT:;
#SUBTITLETRANSLIT:;
#ARTISTTRANSLIT:;
#CREDIT:;
#BANNER:[Video Games] - Still Alive.png;
#BACKGROUND:[Video Games] - Still Alive-bg.png;
#LYRICSPATH:;
#CDTITLE:;
#MUSIC:[Video Games] - Still Alive.mp3;
#OFFSET:-0.360;
#SAMPLESTART:81.280;
#SAMPLELENGTH:13.220;
#SELECTABLE:YES;
#BPMS:0.000=119.000;
#STOPS:;
#BGCHANGES:;

//---------------dance-single - ----------------
#NOTES:
     dance-single:
     :
     Medium:
     5:
     0.256,0.422,0.112,0.224,0.000:
0000
0000
0000
0000
,
0000
0000
0000
0000
,
0000
0000
0000
0000
,
0000
0000
0000
0000
,
0000
0000
0000
0000
,
0000
0000
0000
0000
,
0000
0000
0000
0000
,
0000
0000
0000
0000
,
0000
0000
0000
0000
,
0000
0000
0000
0000
,
0000
0000
0001
0000
,
1000
0000
0001
0001
,
0001
0000
1000
0000
1000
0000
0001
0001
,
0000
0000
1000
0000
1000
0000
0001
0001
,
0000
0000
1000
0000
1000
0000
0001
0001
,
0000
0000
1000
0000
1000
0000
1000
1000
,
0000
0001
0001
0000
,
1000
0001
1000
0001
,
1000
0000
0100
0000
1000
1000
0000
0000
,
0001
0000
1000
0000
0001
0001
0000
0000
,
1000
0000
0001
0000
1000
1000
0000
0000
,
0001
0000
1000
0000
1000
1000
0000
0000
,
0001
0000
1000
0000
1000
1000
0000
0000
,
0001
0000
1000
0000
1000
1000
0000
0000
,
0001
1000
0001
1000
,
0001
1000
0100
1000
,
0100
0010
0001
0010
,
0001
0010
0100
1000
,
0100
1000
0100
0010
,
0001
0010
0001
0010
,
0100
1000
0001
1000
,
0001
0100
0010
0100
,
1000
0100
0010
0100
,
0010
1000
0100
1000
,
0100
0010
0001
1000
,
0001
1000
0100
1000
,
0100
1000
0100
0010
,
0001
0000
0010
0000
0100
0100
0010
0000
,
1000
0000
0001
0000
1000
1000
0001
0000
,
1000
0000
0010
0000
1000
1000
0010
0000
,
1000
0100
1000
0100
,
1000
0100
0010
0001
,
0010
0001
0010
0001
,
2020
3030
2200
3300
,
2002
3003
2020
3030
,
2200
3300
2002
3003
,
2020
3030
2200
3300
,
2002
3003
2020
3030
,
2200
3300
2002
3003
,
2020
3030
2200
3300
,
0001
0000
0000
0000
0001
1000
0001
0000
,
1000
0000
0100
0000
1000
0100
1000
0000
,
0001
1000
0001
1000
,
0100
1000
0100
1000
,
0100
0010
0001
0010
,
0100
0000
1000
0000
0100
0100
1000
0000
,
0001
1000
0001
1000
,
0010
1000
0100
1000
,
0100
0010
0001
0010
;

//---------------dance-single - ----------------
#NOTES:
     dance-single:
     :
     Easy:
     3:
     0.131,0.217,0.000,0.104,0.000:
0000
0000
0000
0000
,
0000
0000
0000
0000
,
0000
0000
0000
0000
,
0000
0000
0000
0000
,
0000
0000
0000
0000
,
0000
0000
0000
0000
,
0000
0000
0000
0000
,
0000
0000
0000
0000
,
0000
0000
0000
0000
,
0000
0000
0000
0000
,
1000
0000
0001
0000
,
1000
0000
0001
0000
,
1000
0000
0100
0000
,
1000
0000
0001
0000
,
1000
0000
0100
0000
,
1000
0000
0100
0000
,
1000
0000
0100
0000
,
0000
1000
0000
0001
,
0000
1000
0000
0100
,
0000
1000
0000
0100
,
0000
1000
0000
0100
,
0000
1000
0100
0000
,
1000
0100
0000
0000
,
0000
1000
0100
0000
,
0000
1000
0100
0000
,
0000
1000
0000
0001
,
0000
0000
1000
0000
,
0100
0000
1000
0000
,
0000
0001
0000
1000
,
0000
0001
0000
1000
,
0000
0001
0000
1000
,
0000
0100
0000
1000
,
0000
0001
0000
1000
,
0000
0000
0100
0000
,
0010
0000
0100
0000
,
1000
0000
0001
0000
,
1000
0000
0100
0000
,
1000
0000
0100
0000
,
0001
0000
1000
0000
,
0100
0000
0001
0000
,
1000
0000
0001
0001
,
0000
1000
0000
0001
,
0000
1000
0000
0000
,
0002
0003
2000
3000
,
0002
0003
2000
3000
,
0002
0003
2000
3000
,
0200
0300
0002
0003
,
2000
3000
0200
0300
,
0002
0003
2000
3000
,
0200
0300
0001
0001
,
1000
1000
0100
0100
,
0000
1000
0000
0001
,
0000
1000
0000
0001
,
0000
1000
0000
0001
,
0000
1000
0000
0100
,
0000
1000
0000
0100
,
0000
1000
0000
0100
,
0000
0001
0000
1000
,
0000
0100
0000
1000
,
0000
0100
0000
1000
,
0000
0100
0000
0000
;

//---------------dance-single - ----------------
#NOTES:
     dance-single:
     :
     Beginner:
     2:
     0.105,0.216,0.000,0.104,0.000:
0000
0000
0000
0000
,
0000
0000
0000
0000
,
0000
0000
0000
0000
,
0000
0000
0000
0000
,
0000
0000
0000
0000
,
0000
0000
0000
0000
,
0000
0000
0000
0000
,
0000
0000
0000
0000
,
0000
0000
0000
0000
,
0000
0000
0000
0000
,
0000
0000
1000
0000
,
0001
0000
1000
0000
,
0001
0000
1000
0000
,
0001
0000
1000
0000
,
0001
0000
1000
0000
,
0001
0000
1000
0000
,
0001
0000
1000
0000
,
0001
0000
0000
0000
,
1000
0000
0000
0000
,
0000
0001
0000
1000
,
0000
0001
0000
1000
,
0000
0100
0000
0000
,
0000
0100
0000
0000
,
0000
0100
0000
1000
,
0000
0100
0000
0100
,
0000
0001
0000
0001
,
0000
0100
0000
0100
,
0000
0000
0000
0100
,
0000
0000
0000
1000
,
0000
0000
0000
0001
,
0000
0000
0000
1000
,
0000
0000
0000
0100
,
0000
0000
0000
0001
,
0000
0000
0000
1000
,
0000
0000
0000
0100
,
0000
0000
0001
0000
,
0000
0000
1000
0000
,
0000
0000
0100
0000
,
0000
0000
0001
0000
,
0000
0000
1000
0000
,
0000
0000
0001
0000
,
0000
0000
1000
0000
,
0000
0000
0001
0000
,
0002
0003
2000
3000
,
0002
0003
2000
3000
,
0002
0003
2000
3000
,
0200
0300
0002
0003
,
2000
3000
0200
0300
,
0002
0003
2000
3000
,
0200
0300
0000
1000
,
0000
1000
0000
1000
,
0000
0000
0010
0000
,
0100
0000
1000
0000
,
0100
0000
0001
0000
,
1000
0000
0100
0000
,
0001
0000
1000
0000
,
0100
0000
0001
0000
,
1000
0000
0100
0000
,
0001
0000
1000
0000
,
0100
0000
1000
0000
,
0001
0000
0000
0000
;

//---------------dance-single - ----------------
#NOTES:
     dance-single:
     :
     Hard:
     7:
     0.297,0.488,0.096,0.104,0.008:
0000
0000
0000
0000
,
0000
0000
0000
0000
,
0000
0000
0000
0000
,
0000
0000
0000
0000
,
0000
0000
0000
0000
,
0000
0000
0000
0000
,
0000
0000
0000
0000
,
0000
0000
0000
0000
,
0000
0000
0000
0000
,
0000
0000
0000
0000
,
0000
0000
1000
0000
0001
0000
1000
1000
,
0001
0000
1000
0000
0001
0000
1000
1000
,
0100
0000
1000
0000
0001
0000
1000
1000
,
0100
0000
0001
0000
1000
0000
0001
0001
,
0100
0000
0001
0000
1000
0000
1000
1000
,
0100
0000
0001
0000
0001
0000
0001
0100
,
0100
0001
0100
1000
,
0001
0000
0000
0000
1000
1000
0001
0000
,
1000
0100
0100
0000
1000
1000
0100
0000
,
0001
0000
0100
0000
0001
0001
0000
0000
,
1000
0000
0001
0000
1000
1000
0000
0000
,
0001
0000
1000
0000
0001
0001
0000
0000
,
1000
0000
0001
0000
1000
1000
0000
0000
,
0001
0000
1000
0000
0001
0001
0000
0000
,
1000
0001
1000
0001
,
1000
0001
1000
0100
,
1000
0100
1000
0100
,
1000
0001
1000
0001
,
1000
0100
1000
0100
,
1000
0100
1000
0100
,
1000
0100
0010
0100
,
0010
0100
1000
0100
,
0010
0001
1000
0001
,
1000
0000
0100
0000
1000
1000
0100
0000
,
0010
0000
0100
0000
1000
1000
0100
0000
,
0010
0000
0001
0000
0100
0100
0001
0000
,
1000
0000
0001
0000
1000
1000
0100
0000
,
0001
0000
1000
0000
0001
0001
0100
0000
,
1000
0000
1000
0000
1000
1000
0100
0000
,
0001
0000
1000
0000
0001
0001
0010
0000
,
1000
0000
1000
0000
0100
0100
0100
0000
,
0001
0000
1000
0000
0001
0001
0010
0000
,
1000
0000
0100
0000
1000
1000
0100
0000
,
0201
1300
0021
1030
,
0120
0000
1030
0000
1020
1000
0130
0000
,
0021
0000
0031
0000
0021
0100
0130
0000
,
1200
0000
0301
0000
1020
0001
0030
0000
,
1200
0000
0301
0000
1020
1000
1030
0000
,
0002
0000
1003
0000
0021
0001
0031
0000
,
1200
0000
0000
0000
0301
0000
0000
0000
1000
0001
1000
0001
1000
0000
0000
0000
,
0100
0000
1000
0000
0100
0100
1000
0000
,
0100
0000
1000
0000
0100
0100
0000
0000
,
0001
0000
1000
0000
0001
0001
0000
0000
,
1000
0000
0001
0000
1000
1000
0000
0000
,
0100
1000
0001
1000
,
0001
0000
1000
0000
0001
0001
0001
0000
,
1000
0000
0001
0000
1000
1000
0000
0000
,
0001
0000
0000
1000
1000
1000
0000
0001
,
0000
1000
0000
0001
0001
0001
0000
1000
,
0000
0001
0000
1000
1000
1000
0000
0001
,
0000
1000
0000
0001
0001
0001
0000
1000
,
0000
0001
0000
0000
0000
0000
0000
0000
;
