#TITLE:State of Emergency;
#SUBTITLE:from Blue Dragon;
#ARTIST:植松伸夫;
#TITLETRANSLIT:;
#SUBTITLETRANSLIT:;
#ARTISTTRANSLIT:Nobuo Uematsu;
#CREDIT:348;
#BANNER:State of Emergency Banner.png;
#BACKGROUND:State of Emergency Background.png;
#LYRICSPATH:;
#CDTITLE:;
#MUSIC:State of Emergency.mp3;
#OFFSET:-0.980;
#SAMPLESTART:0.980;
#SAMPLELENGTH:15.000;
#SELECTABLE:YES;
#BPMS:0.000=165.000;
#STOPS:;
#BGCHANGES:;

//---------------dance-single - ----------------
#NOTES:
     dance-single:
     :
     Beginner:
     1:
     0.084,0.125,0.000,0.000,0.000: // measure 1
0000
0000
0000
0000
,  // measure 2
0000
0000
0000
0000
,  // measure 3
0000
0000
0000
0000
,  // measure 4
0000
0000
0000
0000
,  // measure 5
0000
0000
0000
0000
,  // measure 6
0000
0000
0000
0000
,  // measure 7
0000
0000
0000
0000
,  // measure 8
0000
0000
0000
0000
,  // measure 9
1000
0000
0000
0000
,  // measure 10
0001
0000
0000
0000
,  // measure 11
1000
0000
0000
0000
,  // measure 12
0001
0000
0000
0000
,  // measure 13
0100
0000
0000
0000
,  // measure 14
0010
0000
0000
0000
,  // measure 15
0100
0000
0000
0000
,  // measure 16
0010
0000
0000
0000
,  // measure 17
1000
0000
0000
0000
,  // measure 18
0000
0000
0000
0000
,  // measure 19
0100
0000
0100
0000
,  // measure 20
0100
0000
0000
0000
,  // measure 21
0010
0000
0000
0000
,  // measure 22
0000
0000
0000
0000
,  // measure 23
0001
0000
0000
0000
,  // measure 24
0000
0000
0000
0000
,  // measure 25
0001
0000
0000
0000
,  // measure 26
0000
0000
0000
0000
,  // measure 27
0010
0000
0010
0000
,  // measure 28
0010
0000
0000
0000
,  // measure 29
0100
0000
0000
0000
,  // measure 30
0000
0000
0000
0000
,  // measure 31
1000
0000
0000
0000
,  // measure 32
0000
0000
0000
0000
,  // measure 33
0001
0000
0001
0000
,  // measure 34
0001
0000
0000
0000
,  // measure 35
1000
0000
1000
0000
,  // measure 36
1000
0000
0000
0000
,  // measure 37
0001
0000
0000
0000
,  // measure 38
0100
0000
0000
0000
,  // measure 39
0010
0000
0000
0000
,  // measure 40
1000
0000
0000
0000
,  // measure 41
0001
0000
0100
0000
,  // measure 42
0001
0000
0000
0000
,  // measure 43
1000
0000
0010
0000
,  // measure 44
1000
0000
0000
0000
,  // measure 45
0010
0000
0000
0000
,  // measure 46
1000
0000
0000
0000
,  // measure 47
0001
0000
0000
0000
,  // measure 48
0100
0000
0000
0000
,  // measure 49
0100
0000
0000
0000
,  // measure 50
0001
0000
0001
0000
,  // measure 51
0001
0000
0000
0000
,  // measure 52
1000
0000
1000
0000
,  // measure 53
1000
0000
0000
0000
,  // measure 54
0010
0000
0000
0000
,  // measure 55
0100
0000
0000
0000
,  // measure 56
0001
0000
0000
0000
,  // measure 57
1000
0000
0000
0000
,  // measure 58
0100
0000
0000
0000
,  // measure 59
1000
0000
0000
0000
,  // measure 60
0100
0000
0000
0000
,  // measure 61
0010
0000
0000
0000
,  // measure 62
0001
0000
0000
0000
,  // measure 63
1000
0000
0000
0000
,  // measure 64
0100
0000
0000
0000
,  // measure 65
1000
0000
0000
0000
,  // measure 66
1000
0000
0000
0000
,  // measure 67
0001
0000
0000
0000
,  // measure 68
0001
0000
0000
0000
,  // measure 69
0100
0000
0000
0000
,  // measure 70
0010
0000
0000
0000
,  // measure 71
1000
0000
0000
0000
,  // measure 72
0100
0000
0000
0000
,  // measure 73
0010
0000
0000
0000
,  // measure 74
0001
0000
0000
0000
,  // measure 75
1000
0000
0000
0000
,  // measure 76
0010
0000
0000
0000
,  // measure 77
0100
0000
0000
0000
,  // measure 78
0001
0000
0000
0000
,  // measure 79
1000
0000
0000
0000
,  // measure 80
0001
0000
0000
0000
,  // measure 81
1000
0000
0000
0000
;

//---------------dance-single - ----------------
#NOTES:
     dance-single:
     :
     Easy:
     4:
     0.292,0.314,0.203,0.203,0.000: // measure 1
0000
0000
0000
0000
,  // measure 2
0000
0000
0000
0000
,  // measure 3
0000
0000
0000
0000
,  // measure 4
0000
0000
0000
0000
,  // measure 5
0000
0000
0000
0000
,  // measure 6
0000
0000
0000
0000
,  // measure 7
0000
0000
0000
0000
,  // measure 8
0000
0000
0000
0000
,  // measure 9
1000
0001
1000
0100
,  // measure 10
0001
0100
2000
3000
,  // measure 11
0001
0010
0100
0010
,  // measure 12
0001
1000
0200
0300
,  // measure 13
1000
0100
0001
1000
,  // measure 14
0010
0001
2000
3000
,  // measure 15
0001
0010
1000
0010
,  // measure 16
0001
1000
0200
0300
,  // measure 17
0011
0000
0001
0100
,  // measure 18
0010
0000
1100
0000
,  // measure 19
0001
0010
0100
1000
,  // measure 20
0001
0000
1000
0100
,  // measure 21
2000
0000
3001
0000
,  // measure 22
0002
0000
0013
0000
,  // measure 23
0020
0000
0130
0000
,  // measure 24
0200
0000
1300
0000
,  // measure 25
1010
0000
0001
1000
,  // measure 26
0010
0000
0101
0000
,  // measure 27
1000
0010
0001
0010
,  // measure 28
1000
0000
0010
0100
,  // measure 29
0002
0000
1003
0000
,  // measure 30
2000
0000
3001
0000
,  // measure 31
0020
0000
0130
0000
,  // measure 32
0200
0000
0310
0000
,  // measure 33
2000
0000
3001
0010
,  // measure 34
0002
0000
1003
0100
,  // measure 35
0001
0100
1000
0001
,  // measure 36
1000
0001
0100
0001
,  // measure 37
1000
0000
1100
0000
,  // measure 38
0001
0000
0011
0000
,  // measure 39
0100
0000
0101
0000
,  // measure 40
0010
0000
1010
0000
,  // measure 41
0002
0000
1003
0100
,  // measure 42
0020
0000
0130
1000
,  // measure 43
0001
0010
1000
0001
,  // measure 44
0010
1000
0001
0100
,  // measure 45
0010
0000
1100
0000
,  // measure 46
1000
0000
0101
0000
,  // measure 47
0001
0000
1010
0000
,  // measure 48
0100
0000
0011
0000
,  // measure 49
2000
0000
3001
0010
,  // measure 50
0200
0000
1300
0001
,  // measure 51
1000
0100
0001
1000
,  // measure 52
0100
0001
1000
0010
,  // measure 53
0100
0000
1001
0000
,  // measure 54
0010
0000
1001
0000
,  // measure 55
1000
0000
0110
0000
,  // measure 56
0001
0000
0110
0000
,  // measure 57
1001
0000
0000
0011
,  // measure 58
1001
0000
0000
1100
,  // measure 59
0110
0000
0000
0101
,  // measure 60
0110
0000
0000
1010
,  // measure 61
1000
0100
0100
1000
,  // measure 62
0001
0010
0010
0001
,  // measure 63
1000
0010
0200
0300
,  // measure 64
0100
0010
2000
3000
,  // measure 65
0001
0010
1000
0010
,  // measure 66
0001
0100
1000
0100
,  // measure 67
0001
1000
0020
0030
,  // measure 68
0010
1000
0002
0003
,  // measure 69
1000
1000
0100
0000
,  // measure 70
0010
0010
0001
0000
,  // measure 71
1000
0100
1000
0100
,  // measure 72
0010
0001
0010
0001
,  // measure 73
1000
0100
0010
0100
,  // measure 74
1000
0001
0010
0001
,  // measure 75
1000
0001
1000
0100
,  // measure 76
0010
0001
1000
0010
,  // measure 77
0100
0001
1000
0001
,  // measure 78
0100
0010
1000
0001
,  // measure 79
0220
0000
0000
0330
,  // measure 80
2002
0000
0000
0000
,  // measure 81
0000
0000
3003
0000
;

//---------------dance-single - ----------------
#NOTES:
     dance-single:
     :
     Medium:
     6:
     0.455,0.535,0.375,0.313,0.000: // measure 1
0000
0000
0000
0000
,  // measure 2
0000
0000
0000
0000
,  // measure 3
0000
0000
0000
0000
,  // measure 4
0000
0000
0000
0000
,  // measure 5
0000
0000
0000
0000
,  // measure 6
0000
0000
0000
0000
,  // measure 7
0000
0000
0000
0000
,  // measure 8
0000
0000
0000
0000
,  // measure 9
1001
1000
1000
1000
,  // measure 10
0001
0000
0010
0000
0000
0110
0000
0000
,  // measure 11
0110
0001
0100
0100
,  // measure 12
0001
1000
0000
1001
,  // measure 13
0011
1000
0100
0001
,  // measure 14
0100
0000
1000
0000
0000
1010
0000
0000
,  // measure 15
0101
1000
0001
1000
,  // measure 16
0001
0010
0001
0000
1000
0100
1000
0000
,  // measure 17
0002
0000
1003
0000
1000
0100
1000
0000
,  // measure 18
0100
0010
0100
0000
0020
0000
0031
0000
,  // measure 19
1001
0000
1000
0100
0010
0100
1000
0000
,  // measure 20
0001
2000
3010
0110
,  // measure 21
2000
0100
0020
3030
,  // measure 22
0002
1000
0020
0033
,  // measure 23
1000
0100
0001
1100
,  // measure 24
0001
0010
0001
0000
1000
0000
0011
0000
,  // measure 25
0200
0000
0310
0000
0010
1000
0010
0000
,  // measure 26
0100
0001
0100
0000
0020
0000
0130
0000
,  // measure 27
0110
0000
0001
0010
0100
0010
0001
0000
,  // measure 28
0200
0301
1000
0110
,  // measure 29
0001
0010
1100
0000
,  // measure 30
1000
0001
0101
0000
,  // measure 31
0200
0000
0320
0000
1030
0100
1000
0000
,  // measure 32
0001
0010
0001
0000
1000
0001
1000
0000
,  // measure 33
0101
0000
1000
0100
1000
0000
0001
0000
,  // measure 34
1000
0000
1010
0000
0001
0010
0001
0000
,  // measure 35
1100
0000
0010
0100
0010
0000
1000
0000
,  // measure 36
0011
0000
0100
0010
1000
0010
0100
0000
,  // measure 37
0020
0000
1000
0000
0000
0100
0100
0000
,  // measure 38
0230
0000
0001
0000
0000
0001
0001
0000
,  // measure 39
0302
0000
1000
0000
0000
1000
1003
0000
,  // measure 40
1000
0001
0110
1001
,  // measure 41
0011
0000
1000
0100
1000
0000
0010
0000
,  // measure 42
0100
0000
0101
0000
0010
0001
0010
0000
,  // measure 43
1100
0000
0010
0000
0100
0001
0100
0000
,  // measure 44
1010
0000
0001
0100
0010
0100
0001
0000
,  // measure 45
2000
0000
0010
0000
0000
0001
0001
0000
,  // measure 46
3002
0000
0100
0000
0000
1000
1000
0000
,  // measure 47
0203
0000
0001
0000
0000
0010
0310
0000
,  // measure 48
0110
0000
1001
0000
0010
0100
0010
0000
,  // measure 49
2000
0000
3001
0000
0001
0010
0001
0000
,  // measure 50
0002
0000
0103
0000
0100
0010
0100
0000
,  // measure 51
0100
0011
1000
1100
,  // measure 52
0001
0101
1000
1010
,  // measure 53
0001
0000
1000
0100
1000
0000
0001
0000
,  // measure 54
0010
0000
0001
1000
0001
0000
0010
0000
,  // measure 55
0100
0000
1000
0001
1000
0000
0100
0000
,  // measure 56
1000
0001
1000
0000
0010
0100
0010
0000
,  // measure 57
1000
0000
0000
0100
0000
0000
1100
0000
,  // measure 58
0001
0000
0000
0010
0000
0000
0011
0000
,  // measure 59
1000
0000
0000
0010
0000
0000
1010
0000
,  // measure 60
0001
0000
0000
0100
0000
0000
0101
0000
,  // measure 61
2000
0001
3002
0100
,  // measure 62
0203
0010
0320
1000
,  // measure 63
1030
0100
1000
0000
0001
0010
0001
0000
,  // measure 64
0100
0010
0100
0000
0001
1000
0001
0000
,  // measure 65
0020
0001
0032
1000
,  // measure 66
2003
0100
3200
1000
,  // measure 67
1300
0001
1000
0000
0001
0010
0001
0000
,  // measure 68
0010
0100
0010
0000
0100
1000
0100
0000
,  // measure 69
2002
3003
0011
1010
,  // measure 70
0220
0330
1100
0101
,  // measure 71
1000
0000
0100
0000
1000
0001
1000
0000
,  // measure 72
0001
0000
0010
0000
0001
0100
0001
0000
,  // measure 73
1000
0100
1000
0000
0001
0010
0001
0000
,  // measure 74
0002
0103
0200
0301
,  // measure 75
0001
0000
1000
0000
0010
1000
0010
0000
,  // measure 76
0100
0000
0001
0000
1000
0100
1000
0000
,  // measure 77
0001
0100
0001
0000
0100
0010
0100
0000
,  // measure 78
0010
1010
0100
0101
,  // measure 79
2002
0000
3003
0110
,  // measure 80
0220
0000
0330
1001
,  // measure 81
2002
0000
3003
0000
;

//---------------dance-single - ----------------
#NOTES:
     dance-single:
     :
     Hard:
     8:
     0.595,0.566,0.406,0.383,0.000: // measure 1
0000
0000
0000
0000
,  // measure 2
0000
0000
0000
0000
,  // measure 3
0000
0000
0000
0000
,  // measure 4
0000
0000
0000
0000
,  // measure 5
0000
0000
0000
0000
,  // measure 6
0000
0000
0000
0000
,  // measure 7
0000
0000
0000
0000
,  // measure 8
0000
0000
0000
0000
,  // measure 9
1001
0000
1100
0000
0001
0010
0001
0000
,  // measure 10
1000
0100
0001
0100
1000
0220
0000
0330
,  // measure 11
0011
0000
1001
0000
1000
0100
0020
0000
,  // measure 12
0031
0010
1000
0010
0001
0010
0100
1000
,  // measure 13
0110
0000
0101
0000
1000
0100
0010
0000
,  // measure 14
0010
0100
1000
0001
0010
2002
0000
3003
,  // measure 15
1010
0000
0110
0000
1000
0001
0200
0000
,  // measure 16
0310
1000
0100
0010
0001
0100
0010
1000
,  // measure 17
0002
0000
1003
0100
0001
0100
1000
0000
,  // measure 18
0110
0000
0001
0010
1000
0001
0100
1000
,  // measure 19
0001
1000
0200
0000
1300
0001
0200
0000
,  // measure 20
0310
1000
0001
1000
0100
0010
1001
0000
,  // measure 21
0200
0000
0320
0000
1030
0100
0001
0000
,  // measure 22
0001
0100
1000
0000
1000
0001
1000
0000
,  // measure 23
1000
0100
0010
0100
1000
0001
1000
0100
,  // measure 24
0010
0100
0001
0100
1000
0001
1000
0001
,  // measure 25
1100
0000
0001
0010
1000
0010
0001
0000
,  // measure 26
1001
0000
0100
0001
0010
1000
0010
0001
,  // measure 27
1000
0100
0020
0000
0031
0100
0020
0000
,  // measure 28
1030
0100
1000
0010
0100
0001
0110
0000
,  // measure 29
1000
0100
0002
0000
1003
0010
0002
0000
,  // measure 30
1003
0001
0200
0000
0301
1000
0200
0000
,  // measure 31
1300
0011
1010
1001
,  // measure 32
0001
0010
0001
0100
0001
1000
0001
0100
,  // measure 33
0002
0000
1003
0100
1000
0000
0011
0000
,  // measure 34
1000
0100
0001
0000
1000
0100
0001
1000
,  // measure 35
0001
0100
0001
0010
0001
1000
0100
0000
,  // measure 36
0011
1010
1001
0110
,  // measure 37
0002
0000
1000
0000
0103
0001
1000
0000
,  // measure 38
2000
0000
0010
0000
3001
0010
0001
0000
,  // measure 39
1000
0010
0001
0010
1000
0100
0010
0001
,  // measure 40
2000
3002
1003
0110
,  // measure 41
2000
0000
3001
0010
0001
0000
1100
0000
,  // measure 42
0001
0010
1000
0000
0001
0010
1000
0001
,  // measure 43
1000
0100
0010
0100
0001
0100
1000
0000
,  // measure 44
1100
0101
0110
1001
,  // measure 45
0200
0000
0010
0000
0001
0001
0301
0000
,  // measure 46
0020
0000
0001
0000
0100
0100
0130
0000
,  // measure 47
1000
0100
0001
0100
1000
0100
0010
0001
,  // measure 48
1000
0110
1001
0110
,  // measure 49
0002
0000
1003
0100
1000
0100
1000
0000
,  // measure 50
0020
0000
1030
0010
1000
0010
1000
0000
,  // measure 51
0001
0001
1000
0000
1000
1000
0001
0000
,  // measure 52
1100
1010
0101
0011
,  // measure 53
2000
0100
3010
0000
0200
0010
0301
0000
,  // measure 54
1000
0100
0010
0100
1000
0000
1001
0000
,  // measure 55
0001
0010
0001
0100
0010
1000
0100
1000
,  // measure 56
0001
0010
0100
1000
0001
0100
0010
1000
,  // measure 57
0001
0000
0200
0010
0000
0310
0100
0000
,  // measure 58
0010
0000
2000
0100
0000
3010
1000
0000
,  // measure 59
1000
0000
0002
0010
0000
1003
0001
0000
,  // measure 60
0100
0000
0020
1000
0000
0130
0010
0000
,  // measure 61
2010
3100
0012
0103
,  // measure 62
0201
0310
0120
1030
,  // measure 63
0001
0100
0100
0000
0010
0010
1000
0000
,  // measure 64
0001
0010
0100
0001
0010
1000
0001
0000
,  // measure 65
2010
3001
0201
0310
,  // measure 66
0120
1030
1002
0103
,  // measure 67
1000
1000
0010
0000
0100
0001
0001
0000
,  // measure 68
1000
0100
0010
1000
0100
0001
1000
0000
,  // measure 69
0011
0000
1010
0000
1000
0010
0001
0000
,  // measure 70
1100
0000
0101
0000
1000
0100
0001
0000
,  // measure 71
0100
1000
0100
0010
0100
0001
0100
1000
,  // measure 72
0001
0010
0001
0100
0010
1000
0200
0000
,  // measure 73
1300
0100
0001
0100
1000
0010
0001
0010
,  // measure 74
1000
0010
0100
0001
0010
0100
2000
0000
,  // measure 75
3001
0010
0001
0010
0100
1000
0001
1000
,  // measure 76
0100
1000
0100
0010
0001
1000
0002
0000
,  // measure 77
0013
0001
1000
0100
0001
1000
0010
0001
,  // measure 78
1000
0100
0010
0001
1000
0010
0200
0000
,  // measure 79
0302
1000
1003
0011
,  // measure 80
0200
0010
0310
1100
,  // measure 81
0220
0000
0330
0000
;

//---------------dance-single - ----------------
#NOTES:
     dance-single:
     :
     Challenge:
     9:
     0.669,0.660,0.195,0.344,0.184: // measure 1
0000
0000
0000
0000
,  // measure 2
0000
0000
0000
0000
,  // measure 3
0000
0000
0000
0000
,  // measure 4
0000
0000
0000
0000
,  // measure 5
0000
0000
0000
0000
,  // measure 6
0000
0000
0000
0000
,  // measure 7
0000
0000
0000
0000
,  // measure 8
0000
0000
0000
0000
,  // measure 9
1000
0100
0001
0100
1000
0010
0001
0010
,  // measure 10
1000
0100
0010
0001
0010
2002
0000
3003
,  // measure 11
0100
0001
0100
0010
0100
1000
0100
0001
,  // measure 12
1000
0000
0100
0000
1000
0000
0010
0000
1000
0000
0001
0000
1000
0100
1000
0100
,  // measure 13
1000
0100
0010
0100
1000
0001
0010
0001
,  // measure 14
1000
0100
0010
0001
1000
0220
0000
0330
,  // measure 15
0001
0010
1000
0001
0100
1000
0001
1000
,  // measure 16
0001
0010
0000
0001
0010
0000
0001
0000
0010
0000
0001
0000
0100
0010
0100
0010
,  // measure 17
0100
0000
0000
0000
1001
0000
0000
0010
1000
0000
0100
0000
2000
0000
0000
0000
,  // measure 18
3001
0010
0100
1000
0001
0100
0010
1000
,  // measure 19
0011
0000
0000
1000
0100
0000
0000
0000
1100
0000
0000
0001
0010
0000
0000
0000
,  // measure 20
0001
0000
0010
0000
1000
0000
0010
0000
0001
0000
1000
0000
0001
0000
1000
0100
,  // measure 21
2000
0000
3001
0100
0010
0100
1000
0000
,  // measure 22
0110
0000
1000
0001
0010
0001
0100
0000
,  // measure 23
0001
1000
1100
0000
0010
0100
0101
0000
,  // measure 24
1000
0000
0100
0000
0010
0000
0001
0000
1000
0000
0001
0010
0001
0000
1000
0000
,  // measure 25
0001
0000
0000
0000
0110
0000
0000
1000
0100
0000
0010
0000
0002
0000
0000
0000
,  // measure 26
1003
0100
0010
0100
1000
0001
0010
0100
,  // measure 27
1010
0000
0000
1000
0010
0000
0000
0000
0101
0000
0000
0100
0001
0000
0000
0000
,  // measure 28
1000
0000
0100
0000
0001
0000
1000
0000
0100
0000
0001
0000
1000
0000
0001
0010
,  // measure 29
0002
0000
1003
0100
0001
0100
1000
0000
,  // measure 30
1001
0000
0001
1000
0100
0010
0100
0000
,  // measure 31
0100
1000
1010
0000
0001
0010
0101
0000
,  // measure 32
0001
0000
1000
0000
0100
0000
1000
0000
0010
0000
0100
0001
0100
0000
0010
0000
,  // measure 33
2000
0000
3001
0010
0100
0010
1000
0010
,  // measure 34
0002
0000
1003
0010
0001
1000
0100
0001
,  // measure 35
1000
0011
1100
0001
,  // measure 36
1000
0100
1000
0100
0010
0001
0010
0001
,  // measure 37
0200
0000
0000
0000
0310
0000
0000
0010
1000
0000
0100
0000
0001
0000
0000
0000
,  // measure 38
0001
0100
1000
0000
1000
0010
0100
0000
,  // measure 39
0100
0001
1000
0010
1000
0001
0100
0001
,  // measure 40
1000
0010
0100
0001
1000
0001
0010
0001
,  // measure 41
0200
0000
0310
1000
0100
0001
0100
1000
,  // measure 42
0020
0000
0130
0001
0010
1000
0010
0001
,  // measure 43
0100
1010
0101
0010
,  // measure 44
1000
0001
1000
0001
0100
0010
0100
0010
,  // measure 45
2000
0000
0000
0000
3001
0000
0000
0001
0010
0000
0001
0000
0100
0000
0000
0000
,  // measure 46
0100
0001
1000
0000
1000
0001
0100
0000
,  // measure 47
0100
0010
1000
0010
0001
0010
0100
0001
,  // measure 48
0100
1000
0100
0001
0010
1000
0010
0001
,  // measure 49
0201
0000
0000
0000
0310
0000
0000
0010
1000
0000
0010
0000
0100
0000
0000
0000
,  // measure 50
0012
0000
0000
0000
1003
0000
0000
1000
0100
0000
0010
0000
0100
0000
0000
0000
,  // measure 51
2000
0100
3001
0000
0002
0010
1003
0000
,  // measure 52
2000
0100
0010
3002
0100
0010
1003
0000
,  // measure 53
0011
0000
0000
0000
1010
0000
0000
1000
0100
0000
0001
0000
0100
0000
0000
0000
,  // measure 54
1100
0000
0000
0000
0101
0000
0000
0001
0010
0000
1000
0000
0010
0000
0000
0000
,  // measure 55
0001
0000
0010
0000
0001
0000
1000
0000
0100
0000
1000
0001
1000
0000
0100
0000
,  // measure 56
1000
0000
0001
0000
0010
0000
0100
0000
1000
0000
0010
0100
0010
0000
1000
0000
,  // measure 57
0001
0000
0010
0001
0010
0000
0002
0000
0000
0000
1003
0000
0010
0100
0010
0000
,  // measure 58
1000
0000
0100
1000
0100
0000
2000
0000
0000
0000
3010
0000
0100
0001
0100
0000
,  // measure 59
0010
0000
1000
0100
1000
0000
0020
0000
0000
0000
0130
0000
0001
1000
0001
0000
,  // measure 60
0100
0000
0010
1000
0010
0000
0200
0000
0000
0000
0301
0000
1000
0100
1000
0000
,  // measure 61
0001
1000
0200
0010
1300
0001
0020
0001
,  // measure 62
0130
1000
0002
0010
1003
0100
2000
0010
,  // measure 63
3001
0000
0000
1000
0200
0000
0000
0000
1300
0000
0000
0001
0200
0000
0000
0000
,  // measure 64
0301
0000
0000
1000
0100
0000
0000
0100
0010
0000
0000
0010
0001
0000
0000
0000
,  // measure 65
1000
0100
0020
0001
0031
1000
0200
1000
,  // measure 66
1300
0001
2000
0100
3100
1000
0002
0010
,  // measure 67
0013
0000
0000
0001
1000
0000
0000
0000
0001
0000
0000
1000
0010
0000
0000
0000
,  // measure 68
0100
0000
0000
0001
1000
0000
0000
1000
0010
0000
0000
0010
0100
0000
0000
0000
,  // measure 69
0001
1000
0001
0000
0100
0000
0000
0000
0010
0100
0010
0000
0100
0000
0000
0000
,  // measure 70
0001
0000
0010
0000
0100
0000
1000
0000
0001
0000
1000
0001
1000
0000
0001
0000
,  // measure 71
1000
0100
0010
0100
1000
0100
0001
0100
,  // measure 72
1000
0000
0010
0000
0001
0000
0010
0000
1000
0000
0001
0010
0001
0000
1000
0000
,  // measure 73
0001
0010
0100
0010
0001
0010
1000
0010
,  // measure 74
0001
0100
1000
0100
0002
0013
0200
1300
,  // measure 75
0001
1000
0100
0001
1000
0010
0001
1000
,  // measure 76
0001
0000
0010
0000
0100
0000
1000
0000
0001
0000
1000
0100
1000
0000
0001
0000
,  // measure 77
1000
0100
0001
1000
0010
0001
1000
0100
,  // measure 78
0010
0001
1000
0001
2000
3100
0020
0031
,  // measure 79
2000
0100
3100
0000
0200
0010
0310
0000
,  // measure 80
0020
0001
0031
0000
0002
1000
1003
0000
,  // measure 81
2002
0000
3003
0000
;
